osu file format v14

[General]
AudioFilename: audio.mp3
AudioLeadIn: 0
PreviewTime: 55261
Countdown: 0
SampleSet: Soft
StackLeniency: 0.7
Mode: 2
LetterboxInBreaks: 0
WidescreenStoryboard: 1

[Editor]
DistanceSpacing: 1
BeatDivisor: 4
GridSize: 4
TimelineZoom: 1.6

[Metadata]
Title:OMEGA (TV Size)
TitleUnicode:OMEGA (TV Size)
Artist:STEREO DIVE FOUNDATION
ArtistUnicode:STEREO DIVE FOUNDATION
Creator:rew0825
Version:Rain
Source:憂国のモリアーティ
Tags:Yuukoku no Moriarty the Patriot Patriotism 2nd Season Anime Japanese J-Pop JPop Pop Iida Ryuta 飯田龍太 R·O·N RON Male Vocal ED Ending Sherlock Holmes William James Arthur Conan Doyle
BeatmapID:3134644
BeatmapSetID:1532376

[Difficulty]
HPDrainRate:5
CircleSize:4
OverallDifficulty:8.7
ApproachRate:8.7
SliderMultiplier:2.24
SliderTickRate:2

[Events]
//Background and Video events
0,0,"BG.jpg",0,0
Video,0,"VDO.mp4"
//Break Periods
//Storyboard Layer 0 (Background)
//Storyboard Layer 1 (Fail)
//Storyboard Layer 2 (Pass)
//Storyboard Layer 3 (Foreground)
//Storyboard Layer 4 (Overlay)
//Storyboard Sound Samples

[TimingPoints]
386,461.538461538462,4,2,1,40,1,0
14232,-100,4,2,1,50,0,0
15155,-100,4,2,1,60,0,0
22539,-100,4,2,1,55,0,0
37309,-100,4,2,1,50,0,0
44693,-100,4,2,1,55,0,0
50232,-100,4,2,1,60,0,0
54386,-100,4,2,1,50,0,0
55770,-100,4,2,1,65,0,1
66732,-100,4,2,1,65,0,0
66847,-100,4,2,1,65,0,1
67655,-100,4,2,1,65,0,0
67770,-100,4,2,1,65,0,1
68578,-100,4,2,1,65,0,0
68693,-100,4,2,1,65,0,1
70424,-100,4,2,1,65,0,0
70539,-100,4,2,1,65,0,1
80232,-100,4,2,1,40,0,1
81155,-100,4,2,1,65,0,1
81616,-100,4,2,1,60,0,0

[Colours]
Combo1 : 227,204,108
Combo2 : 70,108,208
Combo3 : 201,61,85

[HitObjects]
200,320,386,6,0,L|196:208,1,112,2|0,1:2|0:0,0:0:0:0:
308,208,847,2,0,L|312:88,1,112,2|0,0:0|0:0,0:0:0:0:
120,100,1309,2,0,L|296:100,2,168,2|2|2,0:0|0:0|0:0,0:0:0:0:
312,100,2232,6,0,P|384:112|408:196,1,168,10|2,0:0|0:0,0:0:0:0:
140,196,2924,2,0,P|64:236|140:308,1,224,2|2,0:0|0:0,0:0:0:0:
252,308,3616,1,2,0:0:0:0:
140,308,3847,1,2,0:0:0:0:
341,308,4078,6,0,L|461:308,1,112,2|0,1:2|0:0,0:0:0:0:
341,308,4539,2,0,L|225:308,1,112,2|0,0:0|0:0,0:0:0:0:
421,308,5001,2,0,L|249:308,2,168,2|2|2,0:0|0:0|0:0,0:0:0:0:
229,308,5924,5,8,0:2:0:0:
117,308,6155,2,0,P|153:184|229:184,1,224,2|2,0:0|0:0,0:0:0:0:
421,192,6847,2,0,L|425:308,1,112,2|0,0:0|0:0,0:0:0:0:
313,304,7309,1,0,0:0:0:0:
425,304,7539,1,0,0:0:0:0:
116,192,7770,6,0,L|112:308,1,112,2|0,1:2|0:0,0:0:0:0:
224,308,8232,2,0,L|336:308,1,112,2|0,0:0|0:0,0:0:0:0:
144,308,8693,2,0,L|312:308,2,168,2|2|2,0:0|0:0|0:0,0:0:0:0:
336,308,9616,6,0,P|388:256|336:196,1,168,10|2,0:0|0:0,0:0:0:0:
68,204,10309,2,0,L|64:88,1,112,2|0,0:0|0:0,0:0:0:0:
252,84,10770,2,0,P|328:144|239:195,1,224,2|2,0:0|0:0,0:0:0:0:
58,199,11462,6,0,L|54:315,1,112,2|0,1:2|0:0,0:0:0:0:
166,310,11924,1,2,0:0:0:0:
54,310,12155,1,0,0:0:0:0:
245,319,12386,2,0,L|65:319,2,168,2|2|2,0:0|0:0|0:0,0:0:0:0:
437,319,13309,5,8,0:0:0:0:
481,271,13424,1,0,0:0:0:0:
437,319,13539,1,0,0:0:0:0:
325,319,13770,1,0,0:0:0:0:
133,319,14001,1,2,0:0:0:0:
325,319,14232,5,2,0:0:0:0:
385,303,14347,1,0,0:0:0:0:
377,243,14462,1,0,0:0:0:0:
317,239,14578,1,0,0:0:0:0:
213,239,14693,1,2,0:0:0:0:
209,179,14809,1,0,0:0:0:0:
309,179,14924,1,0,0:0:0:0:
313,119,15039,1,0,0:0:0:0:
92,120,15155,6,0,L|88:236,1,112,6|0,1:2|3:2,0:0:0:0:
280,232,15616,2,0,L|284:112,1,112,10|0,3:2|0:0,0:0:0:0:
92,120,16078,1,2,1:2:0:0:
32,120,16193,1,0,3:2:0:0:
92,120,16309,1,0,3:2:0:0:
284,120,16539,2,0,L|172:120,1,112,10|0,3:2|0:0,0:0:0:0:
464,120,17001,5,2,1:2:0:0:
472,176,17116,1,0,3:2:0:0:
412,176,17232,1,0,0:0:0:0:
224,172,17462,2,0,L|104:172,1,112,10|2,0:0|3:2,0:0:0:0:
304,172,17924,1,2,1:2:0:0:
364,172,18039,1,0,3:2:0:0:
304,172,18155,1,0,3:2:0:0:
112,172,18386,1,10,0:0:0:0:
52,172,18501,1,0,0:0:0:0:
112,172,18616,1,0,3:2:0:0:
404,172,18847,6,0,L|408:288,1,112,2|0,1:2|3:2,0:0:0:0:
216,284,19309,2,0,L|212:172,1,112,10|0,0:0|0:0,0:0:0:0:
404,172,19770,1,2,1:2:0:0:
464,172,19886,1,0,3:2:0:0:
404,172,20001,1,0,3:2:0:0:
212,172,20232,2,0,L|344:172,1,112,10|0,0:0|3:2,0:0:0:0:
32,176,20693,6,0,L|28:300,1,112,8|0,1:2|3:2,0:0:0:0:
92,288,21039,1,8,0:0:0:0:
196,288,21155,2,0,L|80:288,1,112,0|8,1:2|3:2,0:0:0:0:
400,288,21616,1,0,1:2:0:0:
460,276,21732,1,0,1:2:0:0:
452,212,21847,1,0,1:2:0:0:
392,204,21962,1,0,1:2:0:0:
288,204,22078,1,8,0:0:0:0:
96,204,22309,1,0,3:2:0:0:
416,204,22539,6,0,L|420:92,1,112,6|0,1:2|0:0,0:0:0:0:
228,92,23001,2,0,L|224:208,1,112,10|0,0:0|0:0,0:0:0:0:
328,204,23347,1,2,0:0:0:0:
332,316,23578,1,2,0:0:0:0:
276,316,23693,1,2,0:0:0:0:
88,316,23924,2,0,L|84:204,1,112,10|2,0:0|0:0,0:0:0:0:
144,204,24270,1,2,0:0:0:0:
320,204,24386,6,0,L|324:88,1,112,0|2,1:2|0:0,0:0:0:0:
132,92,24847,2,0,L|260:92,1,112,10|2,0:0|0:2,0:0:0:0:
52,92,25309,2,0,L|48:204,1,112,2|0,1:2|0:0,0:0:0:0:
240,204,25770,2,0,L|356:204,1,112,10|0,0:0|0:0,0:0:0:0:
292,204,26116,1,2,0:0:0:0:
116,204,26232,6,0,L|112:320,1,112,0|2,1:2|0:0,0:0:0:0:
304,316,26693,2,0,L|308:204,1,112,10|0,0:0|0:0,0:0:0:0:
204,204,27039,2,0,L|200:140,1,56,2|0,0:0|1:2,0:0:0:0:
312,152,27386,1,2,0:0:0:0:
120,152,27616,2,0,L|116:264,1,112,10|0,0:0|0:0,0:0:0:0:
176,264,27962,1,2,0:0:0:0:
352,264,28078,6,0,L|472:264,1,112,0|0,1:2|3:2,0:0:0:0:
272,264,28539,2,0,L|152:264,1,112,8|0,0:2|3:2,0:0:0:0:
352,264,29001,1,0,1:2:0:0:
240,264,29232,1,0,3:2:0:0:
236,320,29347,1,0,3:2:0:0:
340,320,29462,1,8,0:2:0:0:
400,320,29578,1,0,0:0:0:0:
340,320,29693,1,0,3:2:0:0:
52,320,29924,6,0,L|48:208,1,112,2|0,1:2|0:0,0:0:0:0:
240,192,30386,2,0,L|244:80,1,112,10|0,0:0|0:0,0:0:0:0:
140,80,30732,1,2,0:0:0:0:
136,192,30962,2,0,L|260:192,1,112,2|2,0:0|0:0,0:0:0:0:
144,192,31309,1,10,0:0:0:0:
84,188,31424,1,2,0:0:0:0:
92,128,31539,1,2,0:0:0:0:
152,128,31655,1,2,0:0:0:0:
324,128,31770,6,0,L|328:252,1,112,0|2,1:2|0:0,0:0:0:0:
136,240,32232,2,0,L|132:124,1,112,10|2,0:0|0:0,0:0:0:0:
324,128,32693,2,0,L|328:240,1,112,2|0,1:2|0:0,0:0:0:0:
132,128,33155,2,0,L|20:128,1,112,10|0,0:0|0:0,0:0:0:0:
80,128,33501,1,2,0:0:0:0:
252,128,33616,6,0,L|372:128,1,112,0|2,1:2|0:0,0:0:0:0:
172,128,34078,2,0,L|168:244,1,112,10|0,0:0|0:0,0:0:0:0:
272,240,34424,2,0,L|276:300,1,56,2|0,0:0|1:2,0:0:0:0:
160,296,34770,1,2,0:0:0:0:
352,296,35001,2,0,L|468:296,1,112,10|0,0:0|0:0,0:0:0:0:
404,296,35347,1,2,0:0:0:0:
232,296,35462,6,0,L|116:296,1,112,0|0,1:2|3:2,0:0:0:0:
312,296,35924,2,0,L|432:296,1,112,8|0,0:0|3:2,0:0:0:0:
232,296,36386,1,0,1:2:0:0:
344,296,36616,2,0,L|348:236,1,56,0|0,3:2|3:2,0:0:0:0:
244,240,36847,2,0,P|172:224|152:140,1,168,8|0,0:0|0:0,0:0:0:0:
340,136,37309,6,0,P|416:176|340:248,1,224,6|10,1:2|0:0,0:0:0:0:
148,248,38001,2,0,L|144:132,1,112,2|0,1:2|0:0,0:0:0:0:
256,132,38462,2,0,L|260:16,1,112,2|8,1:2|0:0,0:0:0:0:
68,20,38924,6,0,P|68:112|180:144,1,224,2|0,1:2|1:2,0:0:0:0:
292,144,39616,1,10,0:0:0:0:
100,144,39847,2,0,P|24:216|100:256,1,224,2|0,1:2|1:2,0:0:0:0:
212,256,40539,1,10,0:0:0:0:
100,256,40770,1,2,0:0:0:0:
292,256,41001,6,0,L|408:256,2,112,2|2|10,1:2|0:0|0:0,0:0:0:0:
100,256,41693,2,0,P|24:216|100:144,1,224,2|2,1:2|1:2,0:0:0:0:
212,144,42386,1,8,0:0:0:0:
400,140,42616,6,0,P|476:180|400:252,1,224,2|2,1:2|1:2,0:0:0:0:
288,252,43309,1,10,0:0:0:0:
400,252,43539,1,2,0:2:0:0:
208,252,43770,2,0,L|204:128,1,112,2|0,0:0|1:2,0:0:0:0:
396,128,44232,1,8,0:0:0:0:
456,132,44347,1,8,0:0:0:0:
448,188,44462,1,8,0:0:0:0:
388,188,44578,1,8,0:0:0:0:
200,188,44693,6,0,P|124:188|88:312,1,224,6|10,1:2|0:0,0:0:0:0:
280,312,45386,2,0,L|284:200,1,112,2|0,3:2|1:2,0:0:0:0:
172,196,45847,2,0,L|168:84,1,112,2|8,0:0|0:0,0:0:0:0:
460,84,46309,5,2,3:2:0:0:
492,192,46539,1,0,1:2:0:0:
444,292,46770,1,0,0:0:0:0:
332,292,47001,1,10,0:0:0:0:
140,292,47232,2,0,L|28:292,2,112,2|0|0,3:2|1:2|0:0,0:0:0:0:
332,292,47924,2,0,L|448:292,1,112,10|2,3:2|0:0,0:0:0:0:
152,292,48386,6,0,L|32:292,2,112,2|2|10,1:2|0:0|0:0,0:0:0:0:
344,292,49078,2,0,L|348:176,1,112,2|0,3:2|1:2,0:0:0:0:
236,180,49539,2,0,L|232:292,1,112,2|8,0:0|0:0,0:0:0:0:
424,292,50001,1,2,3:2:0:0:
116,292,50232,5,0,1:2:0:0:
112,232,50347,1,8,0:0:0:0:
208,232,50462,1,10,0:0:0:0:
212,172,50578,1,8,0:0:0:0:
36,172,50693,1,2,1:2:0:0:
20,112,50809,1,8,0:0:0:0:
44,56,50924,1,10,0:0:0:0:
104,36,51039,1,8,0:0:0:0:
280,36,51155,5,2,1:2:0:0:
284,96,51270,1,8,0:2:0:0:
188,96,51386,1,2,1:2:0:0:
184,156,51501,1,8,0:2:0:0:
356,156,51616,2,0,L|476:156,1,112,8|2,2:3|0:0,0:0:0:0:
172,156,52078,5,2,0:0:0:0:
112,156,52193,2,0,L|108:272,1,112,2|2,0:0|0:0,0:0:0:0:
300,272,52539,2,0,L|424:272,1,112,6|0,1:2|0:0,0:0:0:0:
308,272,52886,2,0,L|192:272,1,112,6|0,1:2|0:0,0:0:0:0:
384,272,53232,2,0,L|388:160,1,112,6|0,1:2|0:0,0:0:0:0:
284,160,53578,2,0,L|160:160,1,112,6|0,1:2|0:0,0:0:0:0:
348,160,53924,6,0,L|476:160,1,112,0|2,3:2|0:0,0:0:0:0:
268,160,54386,2,0,L|92:160,2,168,0|0|0,1:2|1:2|1:2,0:0:0:0:
76,160,55309,2,0,L|4:160,1,56,2|0,0:0|0:0,0:0:0:0:
112,160,55539,1,2,0:0:0:0:
448,160,55770,6,0,L|452:276,1,112,6|0,1:2|3:2,0:0:0:0:
348,272,56116,2,0,L|220:272,1,112,2|0,0:0|3:2,0:0:0:0:
416,272,56462,1,2,3:2:0:0:
480,272,56578,1,0,3:2:0:0:
416,272,56693,5,0,1:2:0:0:
224,272,56924,2,0,L|220:160,1,112,2|8,0:0|0:0,0:0:0:0:
324,160,57270,1,2,3:2:0:0:
388,160,57386,1,0,3:2:0:0:
324,160,57501,1,0,3:2:0:0:
124,160,57616,5,2,1:2:0:0:
60,160,57732,1,0,3:2:0:0:
124,160,57847,1,0,3:2:0:0:
228,160,57962,2,0,L|352:160,1,112,2|0,0:0|0:0,0:0:0:0:
156,160,58309,1,2,3:2:0:0:
92,160,58424,1,0,3:2:0:0:
96,220,58539,5,0,1:2:0:0:
288,220,58770,2,0,L|292:332,1,112,2|8,3:2|0:0,0:0:0:0:
188,332,59116,2,0,L|60:332,1,112,2|0,3:2|0:0,0:0:0:0:
252,332,59462,6,0,L|256:220,1,112,2|0,1:2|3:2,0:0:0:0:
152,224,59809,2,0,L|148:160,1,56,2|8,0:0|0:0,0:0:0:0:
444,148,60155,2,0,L|448:88,1,56,2|0,3:2|3:2,0:0:0:0:
344,92,60386,5,0,1:2:0:0:
312,144,60501,1,0,3:2:0:0:
344,92,60616,1,0,3:2:0:0:
404,92,60732,1,0,3:2:0:0:
300,92,60847,1,8,0:0:0:0:
120,92,61078,1,2,0:0:0:0:
180,92,61193,1,2,0:0:0:0:
364,92,61309,6,0,L|368:212,1,112,2|0,1:2|3:2,0:0:0:0:
176,204,61770,2,0,L|60:204,1,112,10|0,0:0|3:2,0:0:0:0:
123,207,62116,1,0,3:2:0:0:
307,207,62232,5,2,1:2:0:0:
367,203,62347,2,0,L|239:203,1,112,0|2,3:2|3:2,0:0:0:0:
160,204,62693,1,8,0:0:0:0:
340,204,62924,2,0,L|404:204,1,56,2|0,3:2|3:2,0:0:0:0:
212,208,63155,6,0,L|208:320,1,112,2|0,1:2|3:2,0:0:0:0:
312,320,63501,2,0,L|316:264,1,56,2|8,3:2|0:0,0:0:0:0:
28,264,63847,1,2,3:2:0:0:
24,204,63962,1,0,3:2:0:0:
128,204,64078,5,2,1:2:0:0:
132,144,64193,1,0,3:2:0:0:
68,144,64309,1,0,3:2:0:0:
136,144,64424,1,2,3:2:0:0:
240,144,64539,1,8,0:0:0:0:
420,144,64770,1,2,0:0:0:0:
360,144,64886,1,0,3:2:0:0:
176,144,65001,6,0,L|172:256,1,112,2|0,1:2|3:2,0:0:0:0:
364,256,65462,2,0,L|480:256,1,112,10|0,0:0|3:2,0:0:0:0:
412,256,65809,1,0,3:2:0:0:
228,256,65924,5,2,1:2:0:0:
168,252,66039,1,0,3:2:0:0:
176,192,66155,1,2,3:2:0:0:
236,192,66270,1,0,3:2:0:0:
340,192,66386,1,10,0:0:0:0:
400,192,66501,1,0,3:2:0:0:
340,192,66616,1,2,3:2:0:0:
52,196,66847,6,0,L|48:76,1,112,6|0,1:2|0:0,0:0:0:0:
240,84,67309,1,10,0:2:0:0:
180,84,67424,1,2,0:0:0:0:
120,84,67539,1,2,0:0:0:0:
460,196,67770,6,0,L|464:76,1,112,6|0,1:2|0:0,0:0:0:0:
272,84,68232,1,10,0:2:0:0:
332,84,68347,1,2,0:0:0:0:
392,84,68462,1,2,0:0:0:0:
52,196,68693,6,0,L|48:76,1,112,6|0,1:2|0:0,0:0:0:0:
240,84,69155,1,10,0:0:0:0:
180,84,69270,1,2,0:0:0:0:
120,84,69386,1,2,0:0:0:0:
412,84,69616,5,2,1:2:0:0:
480,100,69732,1,0,3:2:0:0:
472,160,69847,1,2,3:2:0:0:
404,164,69962,1,0,3:2:0:0:
220,164,70078,1,10,0:2:0:0:
216,224,70193,1,0,3:2:0:0:
320,224,70309,1,2,3:2:0:0:
324,284,70424,1,0,3:2:0:0:
128,288,70539,6,0,L|124:172,1,112,6|0,1:2|3:2,0:0:0:0:
228,176,70886,2,0,L|344:176,1,112,2|0,0:0|3:2,0:0:0:0:
160,176,71232,1,2,3:2:0:0:
96,176,71347,1,0,3:2:0:0:
160,176,71462,5,0,1:2:0:0:
352,176,71693,2,0,L|228:176,1,112,2|8,3:2|0:0,0:0:0:0:
136,176,72039,1,2,3:2:0:0:
132,236,72155,1,0,3:2:0:0:
196,236,72270,1,0,3:2:0:0:
376,236,72386,5,2,1:2:0:0:
380,176,72501,1,0,3:2:0:0:
316,176,72616,1,0,3:2:0:0:
212,176,72732,2,0,L|208:288,1,112,2|0,0:0|3:2,0:0:0:0:
388,288,73078,1,2,0:0:0:0:
448,288,73193,1,0,3:2:0:0:
388,288,73309,5,0,1:2:0:0:
200,288,73539,2,0,L|196:168,1,112,2|8,3:2|0:0,0:0:0:0:
300,176,73886,2,0,L|416:176,1,112,2|0,3:2|3:2,0:0:0:0:
232,176,74232,6,0,L|228:60,1,112,2|0,1:2|3:2,0:0:0:0:
332,64,74578,2,0,L|336:120,1,56,2|8,0:0|0:0,0:0:0:0:
144,120,74924,2,0,L|140:64,1,56,2|0,3:2|3:2,0:0:0:0:
248,64,75155,5,0,1:2:0:0:
184,64,75270,1,0,3:2:0:0:
156,116,75386,1,0,3:2:0:0:
184,64,75501,1,0,3:2:0:0:
288,64,75616,1,8,0:0:0:0:
472,64,75847,1,2,0:0:0:0:
416,64,75962,1,2,3:2:0:0:
232,64,76078,6,0,L|104:64,1,112,2|0,1:2|3:2,0:0:0:0:
312,64,76539,2,0,L|440:64,1,112,10|0,0:0|3:2,0:0:0:0:
360,64,76886,1,0,3:2:0:0:
176,64,77001,5,2,1:2:0:0:
116,64,77116,2,0,L|232:64,1,112,0|2,3:2|3:2,0:0:0:0:
324,64,77462,1,8,0:0:0:0:
144,64,77693,1,2,3:2:0:0:
140,120,77809,1,0,3:2:0:0:
316,120,77924,6,0,L|320:236,1,112,2|0,1:2|3:2,0:0:0:0:
216,232,78270,2,0,L|212:176,1,56,2|8,3:2|0:0,0:0:0:0:
400,180,78616,2,0,L|404:120,1,56,2|0,3:2|3:2,0:0:0:0:
300,124,78847,5,2,1:2:0:0:
240,128,78962,1,0,3:2:0:0:
212,184,79078,1,0,3:2:0:0:
240,236,79193,1,0,0:0:0:0:
344,236,79309,2,0,L|348:296,1,56,8|0,0:0|3:2,0:0:0:0:
244,292,79539,2,0,L|240:232,1,56,2|0,3:2|3:2,0:0:0:0:
420,236,79770,6,0,P|480:176|392:104,1,224,6|2,1:2|0:0,0:0:0:0:
180,100,80462,2,0,L|248:100,1,56,0|0,1:2|1:2,0:0:0:0:
340,100,80693,5,2,1:2:0:0:
400,112,80809,1,0,1:2:0:0:
424,168,80924,1,0,1:2:0:0:
400,112,81039,1,0,1:2:0:0:
220,100,81155,1,10,0:0:0:0:
40,100,81386,1,8,0:2:0:0:
364,100,81616,6,0,L|368:212,1,112,6|0,1:2|3:2,0:0:0:0:
176,212,82078,2,0,L|172:328,1,112,10|0,3:2|0:0,0:0:0:0:
364,328,82539,1,2,1:2:0:0:
428,328,82655,1,0,3:2:0:0:
424,268,82770,1,0,3:2:0:0:
232,268,83001,2,0,L|356:268,1,112,10|0,3:2|0:0,0:0:0:0:
52,268,83462,5,2,1:2:0:0:
48,208,83578,1,0,3:2:0:0:
112,208,83693,1,0,0:0:0:0:
304,208,83924,2,0,L|436:208,1,112,10|2,0:0|3:2,0:0:0:0:
224,208,84386,1,2,1:2:0:0:
160,208,84501,1,0,3:2:0:0:
164,148,84616,1,0,3:2:0:0:
356,148,84847,1,10,0:0:0:0:
420,148,84962,1,0,0:0:0:0:
416,88,85078,1,0,3:2:0:0:
124,88,85309,6,0,L|120:204,1,112,2|0,1:2|3:2,0:0:0:0:
312,200,85770,2,0,L|188:200,1,112,10|0,0:0|0:0,0:0:0:0:
392,200,86232,1,2,1:2:0:0:
456,200,86347,1,0,3:2:0:0:
392,200,86462,1,0,3:2:0:0:
200,200,86693,2,0,L|64:200,1,112,10|0,0:0|3:2,0:0:0:0:
380,200,87155,5,8,1:2:0:0:
444,200,87270,1,0,3:2:0:0:
380,200,87386,1,0,3:2:0:0:
192,200,87616,1,8,1:2:0:0:
268,200,87732,1,8,0:0:0:0:
344,200,87847,1,0,1:2:0:0:
52,200,88078,2,0,L|48:80,1,112,4|0,1:2|0:0,0:0:0:0:
152,88,88424,2,0,L|288:88,1,112,4|0,1:2|0:0,0:0:0:0:
72,88,88770,5,4,1:2:0:0:
