osu file format v14

[General]
AudioFilename: audio.mp3
AudioLeadIn: 0
PreviewTime: 55261
Countdown: 0
SampleSet: Soft
StackLeniency: 0.7
Mode: 2
LetterboxInBreaks: 0
WidescreenStoryboard: 1

[Editor]
DistanceSpacing: 1
BeatDivisor: 4
GridSize: 4
TimelineZoom: 1.6

[Metadata]
Title:OMEGA (TV Size)
TitleUnicode:OMEGA (TV Size)
Artist:STEREO DIVE FOUNDATION
ArtistUnicode:STEREO DIVE FOUNDATION
Creator:rew0825
Version:Platter
Source:憂国のモリアーティ
Tags:Yuukoku no Moriarty the Patriot Patriotism 2nd Season Anime Japanese J-Pop JPop Pop Iida Ryuta 飯田龍太 R·O·N RON Male Vocal ED Ending Sherlock Holmes William James Arthur Conan Doyle
BeatmapID:3136072
BeatmapSetID:1532376

[Difficulty]
HPDrainRate:4
CircleSize:3.5
OverallDifficulty:7.7
ApproachRate:7.7
SliderMultiplier:2.04
SliderTickRate:2

[Events]
//Background and Video events
0,0,"BG.jpg",0,0
Video,0,"VDO.mp4"
//Break Periods
//Storyboard Layer 0 (Background)
//Storyboard Layer 1 (Fail)
//Storyboard Layer 2 (Pass)
//Storyboard Layer 3 (Foreground)
//Storyboard Layer 4 (Overlay)
//Storyboard Sound Samples

[TimingPoints]
386,461.538461538462,4,2,1,40,1,0
14232,-100,4,2,1,50,0,0
15155,-100,4,2,1,60,0,0
22539,-100,4,2,1,55,0,0
37309,-100,4,2,1,50,0,0
44693,-100,4,2,1,55,0,0
50232,-100,4,2,1,60,0,0
54386,-100,4,2,1,50,0,0
55770,-100,4,2,1,65,0,1
66732,-100,4,2,1,65,0,0
66847,-100,4,2,1,65,0,1
67655,-100,4,2,1,65,0,0
67770,-100,4,2,1,65,0,1
68578,-100,4,2,1,65,0,0
68693,-100,4,2,1,65,0,1
70424,-100,4,2,1,65,0,0
70539,-100,4,2,1,65,0,1
80232,-100,4,2,1,40,0,1
81155,-100,4,2,1,65,0,1
81616,-100,4,2,1,60,0,0

[Colours]
Combo1 : 227,204,108
Combo2 : 70,108,208
Combo3 : 201,61,85

[HitObjects]
144,328,386,6,0,P|76:292|144:224,1,204,2|2,1:2|0:0,0:0:0:0:
256,224,1078,1,0,0:0:0:0:
368,224,1309,2,0,L|192:224,1,153,2|2,0:0|0:0,0:0:0:0:
220,72,2001,1,2,0:0:0:0:
424,68,2232,6,0,L|428:224,1,153,10|2,0:0|0:0,0:0:0:0:
276,224,2924,2,0,P|208:188|276:120,1,204,2|2,0:0|0:0,0:0:0:0:
388,120,3616,2,0,L|392:224,1,102,2|2,0:0|0:0,0:0:0:0:
188,224,4078,6,0,P|120:188|188:120,1,204,2|2,1:2|0:0,0:0:0:0:
300,120,4770,1,0,0:0:0:0:
188,120,5001,2,0,L|32:120,1,153,2|2,0:0|0:0,0:0:0:0:
40,272,5693,1,2,0:0:0:0:
244,272,5924,5,8,0:2:0:0:
356,272,6155,2,0,P|424:236|356:168,1,204,2|2,0:0|0:0,0:0:0:0:
242,168,6847,2,0,L|58:82,1,204,2|0,0:0|0:0,0:0:0:0:
160,60,7539,1,0,0:0:0:0:
364,60,7770,6,0,P|432:96|364:164,1,204,2|2,1:2|0:0,0:0:0:0:
252,164,8462,1,0,0:0:0:0:
140,164,8693,2,0,L|296:164,1,153,2|2,0:0|0:0,0:0:0:0:
288,316,9386,1,2,0:0:0:0:
84,316,9616,6,0,L|80:160,1,153,10|2,0:0|0:0,0:0:0:0:
232,160,10309,1,2,0:0:0:0:
436,156,10770,2,0,P|436:76|332:44,1,204,2|2,0:0|0:0,0:0:0:0:
128,48,11462,6,0,P|60:84|128:152,1,204,2|2,1:2|0:0,0:0:0:0:
240,152,12155,1,0,0:0:0:0:
352,152,12386,2,0,L|192:152,2,153,2|2|2,0:0|0:0|0:0,0:0:0:0:
148,156,13309,6,0,L|144:264,1,102,8|0,0:0|0:0,0:0:0:0:
256,256,13770,1,0,0:0:0:0:
144,256,14001,1,2,0:0:0:0:
348,256,14232,5,2,0:0:0:0:
400,256,14347,1,0,0:0:0:0:
348,256,14462,1,0,0:0:0:0:
236,256,14693,1,2,0:0:0:0:
184,256,14809,1,0,0:0:0:0:
180,312,14924,1,0,0:0:0:0:
476,316,15155,6,0,P|492:244|396:180,1,204,6|10,1:2|3:2,0:0:0:0:
284,184,15847,1,0,0:0:0:0:
80,184,16078,2,0,L|76:288,1,102,2|0,1:2|3:2,0:0:0:0:
188,284,16539,1,10,3:2:0:0:
76,284,16770,1,0,0:0:0:0:
280,284,17001,6,0,L|284:180,1,102,2|0,1:2|0:0,0:0:0:0:
172,180,17462,2,0,L|168:76,1,102,10|2,0:0|3:2,0:0:0:0:
372,80,17924,2,0,L|484:80,1,102,2|0,1:2|3:2,0:0:0:0:
360,80,18386,1,10,0:0:0:0:
416,80,18501,1,0,0:0:0:0:
472,80,18616,1,0,3:2:0:0:
176,80,18847,6,0,P|96:84|60:192,1,204,2|10,1:2|0:0,0:0:0:0:
172,188,19539,1,0,0:0:0:0:
376,184,19770,2,0,L|380:288,1,102,2|0,1:2|3:2,0:0:0:0:
268,284,20232,1,10,0:0:0:0:
380,284,20462,1,0,3:2:0:0:
176,284,20693,6,0,P|132:248|176:180,1,153,8|8,1:2|0:0,0:0:0:0:
232,180,21155,2,0,L|344:180,1,102,0|8,1:2|3:2,0:0:0:0:
128,180,21616,1,0,1:2:0:0:
72,180,21732,1,0,1:2:0:0:
128,180,21847,1,0,1:2:0:0:
332,180,22078,2,0,L|440:180,1,102,8|0,0:0|3:2,0:0:0:0:
136,180,22539,6,0,P|68:144|136:76,1,204,6|10,1:2|0:0,0:0:0:0:
248,76,23232,1,0,0:0:0:0:
252,128,23347,1,2,0:0:0:0:
140,128,23578,1,2,0:0:0:0:
136,184,23693,1,2,0:0:0:0:
248,184,23924,2,0,L|356:184,1,102,10|2,0:0|0:0,0:0:0:0:
144,186,24386,6,0,P|76:222|144:290,1,204,0|10,1:2|0:0,0:0:0:0:
256,290,25078,1,2,0:2:0:0:
144,288,25309,2,0,L|140:180,1,102,2|0,1:2|0:0,0:0:0:0:
252,188,25770,1,10,0:0:0:0:
140,188,26001,1,0,0:0:0:0:
436,188,26232,6,0,P|484:136|404:60,1,204,0|10,1:2|0:0,0:0:0:0:
292,60,26924,1,0,0:0:0:0:
264,60,27039,1,2,0:0:0:0:
292,60,27155,1,0,1:2:0:0:
404,60,27386,1,2,0:0:0:0:
200,60,27616,2,0,L|88:60,1,102,10|0,0:0|0:0,0:0:0:0:
304,60,28078,6,0,P|372:96|304:164,1,204,0|8,1:2|0:2,0:0:0:0:
192,164,28770,1,0,3:2:0:0:
396,164,29001,1,0,1:2:0:0:
284,164,29232,1,0,3:2:0:0:
256,164,29347,1,0,3:2:0:0:
284,164,29462,1,8,0:2:0:0:
396,164,29693,1,0,3:2:0:0:
93,164,29924,6,0,P|25:200|93:268,1,204,2|10,1:2|0:0,0:0:0:0:
205,268,30616,1,0,0:0:0:0:
209,212,30732,1,2,0:0:0:0:
97,212,30962,1,2,0:0:0:0:
209,212,31193,1,2,0:0:0:0:
152,211,31309,1,10,0:0:0:0:
127,160,31424,1,2,0:0:0:0:
158,113,31539,1,2,0:0:0:0:
359,126,31770,6,0,P|427:162|359:230,1,204,0|10,1:2|0:0,0:0:0:0:
247,230,32462,1,2,0:0:0:0:
134,230,32693,2,0,L|130:334,1,102,2|0,1:2|0:0,0:0:0:0:
242,330,33155,1,10,0:0:0:0:
130,330,33386,1,0,0:0:0:0:
332,208,33616,6,0,P|400:244|332:312,1,204,0|10,1:2|0:0,0:0:0:0:
220,308,34309,1,0,0:0:0:0:
192,260,34424,1,2,0:0:0:0:
220,308,34539,1,0,1:2:0:0:
332,308,34770,1,2,0:0:0:0:
128,308,35001,2,0,L|124:200,1,102,10|0,0:0|0:0,0:0:0:0:
328,200,35462,6,0,P|396:164|328:96,1,204,0|8,1:2|0:0,0:0:0:0:
216,96,36155,1,0,3:2:0:0:
420,96,36386,2,0,L|424:204,1,102,0|0,1:2|3:2,0:0:0:0:
220,208,36847,2,0,L|112:208,1,102,8|0,0:0|0:0,0:0:0:0:
416,208,37309,6,0,P|484:172|416:104,1,204,6|10,1:2|0:0,0:0:0:0:
304,104,38001,2,0,P|236:140|304:208,1,204,2|2,1:2|1:2,0:0:0:0:
416,208,38693,1,8,0:0:0:0:
212,208,38924,6,0,P|108:176|108:96,1,204,2|0,1:2|1:2,0:0:0:0:
220,96,39616,1,10,0:0:0:0:
332,96,39847,2,0,P|321:190|228:208,1,204,2|0,1:2|1:2,0:0:0:0:
116,212,40539,2,0,L|112:324,1,102,10|2,0:0|0:0,0:0:0:0:
316,316,41001,6,0,P|380:292|316:212,1,204,2|10,1:2|0:0,0:0:0:0:
204,208,41693,2,0,P|100:176|100:96,1,204,2|2,1:2|1:2,0:0:0:0:
212,92,42386,1,8,0:0:0:0:
416,88,42616,6,0,P|484:124|416:192,1,204,2|2,1:2|1:2,0:0:0:0:
304,188,43309,2,0,L|300:296,1,102,10|2,0:0|0:2,0:0:0:0:
412,292,43770,2,0,L|416:184,1,102,2|0,0:0|1:2,0:0:0:0:
304,188,44232,1,8,0:0:0:0:
360,188,44347,1,8,0:0:0:0:
416,188,44462,1,8,0:0:0:0:
120,188,44693,6,0,P|52:152|120:84,1,204,6|10,1:2|0:0,0:0:0:0:
233,83,45386,2,0,P|301:119|233:187,1,204,2|2,3:2|0:0,0:0:0:0:
121,187,46078,1,8,0:0:0:0:
324,188,46309,6,0,P|392:224|324:292,1,204,2|0,3:2|0:0,0:0:0:0:
212,288,47001,1,10,0:0:0:0:
100,288,47232,2,0,P|132:176|204:176,1,204,2|0,3:2|0:0,0:0:0:0:
408,176,47924,2,0,L|412:64,1,102,10|2,3:2|0:0,0:0:0:0:
116,36,48386,6,0,P|48:72|116:140,1,204,2|10,1:2|0:0,0:0:0:0:
228,36,49078,2,0,P|296:72|228:140,1,204,2|2,3:2|0:0,0:0:0:0:
116,140,49770,2,0,L|112:248,1,102,8|2,0:0|3:2,0:0:0:0:
316,240,50232,5,0,1:2:0:0:
372,236,50347,1,8,0:0:0:0:
396,188,50462,1,10,0:0:0:0:
372,236,50578,1,8,0:0:0:0:
316,240,50693,1,2,1:2:0:0:
204,240,50924,1,10,0:0:0:0:
408,240,51155,5,2,1:2:0:0:
440,192,51270,1,8,0:2:0:0:
408,240,51386,1,2,1:2:0:0:
204,240,51616,2,0,L|96:240,1,102,8|2,2:3|0:0,0:0:0:0:
308,240,52078,5,2,0:0:0:0:
360,240,52193,1,2,0:0:0:0:
360,136,52424,1,2,0:0:0:0:
240,136,52539,2,0,P|172:132|132:64,1,153,6|6,1:2|1:2,0:0:0:0:
132,64,53116,1,0,0:0:0:0:
252,64,53232,2,0,P|320:68|360:136,1,153,6|6,1:2|1:2,0:0:0:0:
76,136,53924,6,0,L|72:240,1,102,0|2,3:2|0:0,0:0:0:0:
184,236,54386,2,0,L|352:236,2,153,0|0|0,1:2|1:2|1:2,0:0:0:0:
72,236,55309,2,0,L|70:130,1,102,2|2,0:0|0:0,0:0:0:0:
366,134,55770,6,0,L|476:134,1,102,6|0,1:2|3:2,0:0:0:0:
411,134,56116,2,0,L|290:133,1,102,2|0,0:0|3:2,0:0:0:0:
432,133,56462,2,0,L|433:243,1,102,2|0,3:2|1:2,0:0:0:0:
320,248,56924,6,0,L|204:248,1,102,2|8,0:0|0:0,0:0:0:0:
220,136,57270,2,0,L|328:136,1,102,2|0,3:2|3:2,0:0:0:0:
200,136,57616,6,0,L|196:240,1,102,2|0,1:2|3:2,0:0:0:0:
256,240,57962,1,2,0:0:0:0:
260,344,58193,1,0,0:0:0:0:
140,344,58309,1,2,3:2:0:0:
84,344,58424,1,0,3:2:0:0:
140,344,58539,5,0,1:2:0:0:
344,344,58770,2,0,L|348:236,1,102,2|8,3:2|0:0,0:0:0:0:
284,240,59116,1,2,3:2:0:0:
172,240,59347,1,0,0:0:0:0:
292,240,59462,5,2,1:2:0:0:
404,240,59693,1,0,3:2:0:0:
432,192,59809,1,2,0:0:0:0:
404,240,59924,1,8,0:0:0:0:
200,240,60155,1,2,3:2:0:0:
88,240,60386,5,0,1:2:0:0:
60,192,60501,1,0,3:2:0:0:
88,240,60616,1,0,3:2:0:0:
200,240,60847,1,8,0:0:0:0:
312,240,61078,1,2,0:0:0:0:
256,240,61193,1,2,0:0:0:0:
136,240,61309,6,0,L|132:136,1,102,2|0,1:2|3:2,0:0:0:0:
244,136,61770,2,0,L|360:136,1,102,10|0,0:0|3:2,0:0:0:0:
140,136,62232,5,2,1:2:0:0:
136,192,62347,1,0,3:2:0:0:
248,192,62578,1,2,3:2:0:0:
252,248,62693,1,8,0:0:0:0:
140,248,62924,1,2,3:2:0:0:
436,252,63155,5,2,1:2:0:0:
444,140,63386,1,0,3:2:0:0:
392,140,63501,1,2,3:2:0:0:
340,140,63616,1,8,0:0:0:0:
136,140,63847,1,2,3:2:0:0:
248,140,64078,5,2,1:2:0:0:
276,92,64193,1,0,3:2:0:0:
248,140,64309,1,0,3:2:0:0:
136,140,64539,2,0,L|24:140,1,102,8|2,0:0|0:0,0:0:0:0:
332,140,65001,6,0,L|336:244,1,102,2|0,1:2|3:2,0:0:0:0:
224,240,65462,2,0,L|220:344,1,102,10|0,0:0|3:2,0:0:0:0:
424,336,65924,5,2,1:2:0:0:
456,288,66039,1,0,3:2:0:0:
424,336,66155,1,2,3:2:0:0:
312,336,66386,1,10,0:0:0:0:
364,336,66501,1,0,3:2:0:0:
416,336,66616,1,2,3:2:0:0:
120,336,66847,6,0,P|80:300|172:248,1,204,6|10,1:2|0:2,0:0:0:0:
120,240,67424,1,2,0:0:0:0:
68,232,67539,1,2,0:0:0:0:
408,336,67770,6,0,P|448:300|356:248,1,204,6|10,1:2|0:2,0:0:0:0:
408,240,68347,1,2,0:0:0:0:
460,232,68462,1,2,0:0:0:0:
120,336,68693,6,0,P|80:300|172:248,1,204,6|10,1:2|0:0,0:0:0:0:
120,240,69270,1,2,0:0:0:0:
68,232,69386,1,2,0:0:0:0:
272,232,69616,5,2,1:2:0:0:
328,228,69732,1,0,3:2:0:0:
332,172,69847,1,2,3:2:0:0:
128,172,70078,1,10,0:2:0:0:
72,168,70193,1,0,3:2:0:0:
68,112,70309,1,2,3:2:0:0:
364,108,70539,6,0,L|368:216,1,102,6|0,1:2|3:2,0:0:0:0:
312,208,70886,1,2,0:0:0:0:
200,208,71116,1,0,3:2:0:0:
320,208,71232,1,2,3:2:0:0:
432,208,71462,5,0,1:2:0:0:
320,208,71693,2,0,L|200:208,1,102,2|8,3:2|0:0,0:0:0:0:
276,208,72039,2,0,L|392:208,1,102,2|0,3:2|3:2,0:0:0:0:
256,208,72386,5,2,1:2:0:0:
144,208,72616,1,0,3:2:0:0:
148,152,72732,1,2,0:0:0:0:
260,152,72962,1,0,3:2:0:0:
380,152,73078,2,0,L|384:264,1,102,2|0,0:0|1:2,0:0:0:0:
272,252,73539,6,0,L|160:252,1,102,2|8,3:2|0:0,0:0:0:0:
228,252,73886,2,0,L|344:252,1,102,2|0,3:2|3:2,0:0:0:0:
208,252,74232,5,2,1:2:0:0:
96,252,74462,1,0,3:2:0:0:
68,204,74578,1,2,0:0:0:0:
96,252,74693,1,8,0:0:0:0:
300,252,74924,1,2,3:2:0:0:
412,252,75155,5,0,1:2:0:0:
440,204,75270,1,0,3:2:0:0:
412,252,75386,1,0,3:2:0:0:
300,252,75616,1,8,0:0:0:0:
188,252,75847,1,2,0:0:0:0:
184,196,75962,1,2,3:2:0:0:
304,196,76078,6,0,L|308:92,1,102,2|0,1:2|3:2,0:0:0:0:
196,92,76539,2,0,L|192:196,1,102,10|0,0:0|3:2,0:0:0:0:
396,208,77001,6,0,L|448:208,1,51,2|0,1:2|3:2,0:0:0:0:
336,208,77347,2,0,L|284:208,1,51,2|8,3:2|0:0,0:0:0:0:
396,208,77693,1,2,3:2:0:0:
100,208,77924,5,2,1:2:0:0:
96,96,78155,1,0,3:2:0:0:
148,96,78270,1,2,3:2:0:0:
200,96,78386,1,8,0:0:0:0:
404,100,78616,1,2,3:2:0:0:
292,100,78847,5,2,1:2:0:0:
236,108,78962,1,0,3:2:0:0:
216,160,79078,1,0,3:2:0:0:
236,108,79193,1,0,0:0:0:0:
292,100,79309,1,8,0:0:0:0:
404,100,79539,1,2,3:2:0:0:
348,100,79655,1,0,3:2:0:0:
228,100,79770,6,0,P|160:136|228:204,1,204,6|2,1:2|0:0,0:0:0:0:
332,204,80462,1,0,1:2:0:0:
128,200,80693,5,2,1:2:0:0:
76,200,80809,1,0,1:2:0:0:
128,200,80924,1,0,1:2:0:0:
332,204,81155,2,0,L|448:204,1,102,10|8,0:0|0:2,0:0:0:0:
136,200,81616,6,0,P|64:184|48:68,1,204,6|10,1:2|3:2,0:0:0:0:
160,64,82309,1,0,0:0:0:0:
364,68,82539,2,0,L|368:176,1,102,2|0,1:2|3:2,0:0:0:0:
256,172,83001,1,10,3:2:0:0:
368,168,83232,1,0,0:0:0:0:
164,168,83462,6,0,L|160:276,1,102,2|0,1:2|0:0,0:0:0:0:
272,276,83924,2,0,L|380:276,1,102,10|2,0:0|3:2,0:0:0:0:
168,276,84386,2,0,L|60:276,1,102,2|0,1:2|3:2,0:0:0:0:
180,276,84847,1,10,0:0:0:0:
124,276,84962,1,0,0:0:0:0:
68,276,85078,1,0,3:2:0:0:
364,280,85309,6,0,P|428:236|356:160,1,204,2|10,1:2|0:0,0:0:0:0:
248,156,86001,1,0,0:0:0:0:
44,156,86232,2,0,L|40:264,1,102,2|0,1:2|3:2,0:0:0:0:
152,256,86693,1,10,0:0:0:0:
40,252,86924,1,0,3:2:0:0:
244,256,87155,6,0,L|352:256,1,102,8|0,1:2|3:2,0:0:0:0:
140,256,87616,1,8,1:2:0:0:
88,256,87732,1,8,0:0:0:0:
140,256,87847,1,0,1:2:0:0:
436,256,88078,2,0,P|472:188|428:136,1,153,4|4,1:2|1:2,0:0:0:0:
16,132,88770,5,4,1:2:0:0:
