osu file format v14

[General]
AudioFilename: audio.mp3
AudioLeadIn: 0
PreviewTime: 55261
Countdown: 0
SampleSet: Soft
StackLeniency: 0.7
Mode: 2
LetterboxInBreaks: 0
WidescreenStoryboard: 1

[Editor]
DistanceSpacing: 1
BeatDivisor: 4
GridSize: 4
TimelineZoom: 1.6

[Metadata]
Title:OMEGA (TV Size)
TitleUnicode:OMEGA (TV Size)
Artist:STEREO DIVE FOUNDATION
ArtistUnicode:STEREO DIVE FOUNDATION
Creator:rew0825
Version:Cup
Source:憂国のモリアーティ
Tags:Yuukoku no Moriarty the Patriot Patriotism 2nd Season Anime Japanese J-Pop JPop Pop Iida Ryuta 飯田龍太 R·O·N RON Male Vocal ED Ending Sherlock Holmes William James Arthur Conan Doyle
BeatmapID:3136497
BeatmapSetID:1532376

[Difficulty]
HPDrainRate:2
CircleSize:2.5
OverallDifficulty:5.7
ApproachRate:5.7
SliderMultiplier:1.74
SliderTickRate:2

[Events]
//Background and Video events
0,0,"BG.jpg",0,0
Video,0,"VDO.mp4"
//Break Periods
//Storyboard Layer 0 (Background)
//Storyboard Layer 1 (Fail)
//Storyboard Layer 2 (Pass)
//Storyboard Layer 3 (Foreground)
//Storyboard Layer 4 (Overlay)
//Storyboard Sound Samples

[TimingPoints]
386,461.538461538462,4,2,1,40,1,0
14232,-100,4,2,1,50,0,0
15155,-100,4,2,1,60,0,0
22539,-100,4,2,1,55,0,0
37309,-100,4,2,1,50,0,0
44693,-100,4,2,1,55,0,0
50232,-100,4,2,1,60,0,0
54386,-100,4,2,1,50,0,0
55770,-100,4,2,1,65,0,1
66732,-100,4,2,1,65,0,0
66847,-100,4,2,1,65,0,1
67655,-100,4,2,1,65,0,0
67770,-100,4,2,1,65,0,1
68578,-100,4,2,1,65,0,0
68693,-100,4,2,1,65,0,1
70424,-100,4,2,1,65,0,0
70539,-100,4,2,1,65,0,1
80232,-100,4,2,1,40,0,1
81155,-100,4,2,1,65,0,1
81616,-100,4,2,1,60,0,0

[Colours]
Combo1 : 227,204,108
Combo2 : 70,108,208
Combo3 : 201,61,85

[HitObjects]
137,256,386,6,0,P|85:224|137:148,1,174,2|2,1:2|0:0,0:0:0:0:
313,148,1309,1,2,0:0:0:0:
317,280,1655,1,2,0:0:0:0:
101,280,2232,5,10,0:0:0:0:
97,148,2578,1,2,0:0:0:0:
229,144,2924,1,2,0:0:0:0:
405,144,3386,2,0,P|457:176|405:252,1,174,2|2,0:0|0:0,0:0:0:0:
317,252,4078,5,2,1:2:0:0:
145,252,4539,1,2,0:0:0:0:
317,252,5001,1,2,0:0:0:0:
321,120,5347,1,2,0:0:0:0:
189,120,5693,1,2,0:0:0:0:
185,208,5924,5,8,0:2:0:0:
273,208,6155,2,0,P|329:256|273:316,1,174,2|2,0:0|0:0,0:0:0:0:
185,316,6847,1,2,0:0:0:0:
28,316,7309,1,0,0:0:0:0:
201,316,7770,6,0,L|389:316,1,174,2|2,1:2|0:0,0:0:0:0:
200,316,8693,1,2,0:0:0:0:
196,184,9039,1,2,0:0:0:0:
412,184,9616,5,10,0:0:0:0:
416,316,9962,1,2,0:0:0:0:
284,316,10309,1,2,0:0:0:0:
112,316,10770,2,0,P|60:280|112:204,1,174,2|2,0:0|0:0,0:0:0:0:
196,204,11462,5,2,1:2:0:0:
372,204,11924,1,2,0:0:0:0:
196,204,12386,1,2,0:0:0:0:
192,72,12732,1,2,0:0:0:0:
324,72,13078,1,2,0:0:0:0:
328,160,13309,6,0,L|136:160,1,174,8|0,0:0|0:0,0:0:0:0:
156,332,14232,2,0,L|340:332,1,174,2|2,0:0|0:0,0:0:0:0:
328,244,14924,1,0,0:0:0:0:
240,244,15155,6,0,P|152:240|100:176,1,174,6|10,1:2|3:2,0:0:0:0:
276,168,16078,2,0,P|352:160|400:76,1,174,2|10,1:2|3:2,0:0:0:0:
224,88,17001,6,0,P|176:140|232:216,1,174,2|10,1:2|0:0,0:0:0:0:
400,208,17924,2,0,P|448:260|392:332,1,174,2|10,1:2|0:0,0:0:0:0:
308,332,18616,1,0,3:2:0:0:
220,336,18847,6,0,P|152:324|132:229,1,174,2|10,1:2|0:0,0:0:0:0:
309,236,19770,2,0,P|357:160|301:116,1,174,2|10,1:2|0:0,0:0:0:0:
130,116,20693,6,0,P|81:173|132:243,1,174,8|0,1:2|1:2,0:0:0:0:
305,242,21616,1,0,1:2:0:0:
217,242,21847,1,0,1:2:0:0:
130,242,22078,1,8,0:0:0:0:
304,236,22539,6,0,P|376:224|420:136,1,174,6|10,1:2|0:0,0:0:0:0:
288,132,23347,1,2,0:0:0:0:
156,132,23693,1,2,0:0:0:0:
152,220,23924,1,10,0:0:0:0:
328,220,24386,6,0,P|372:148|312:100,1,174,0|10,1:2|0:0,0:0:0:0:
140,112,25309,2,0,P|88:168|144:236,1,174,2|10,1:2|0:0,0:0:0:0:
312,232,26232,6,0,P|384:224|436:140,1,174,0|10,1:2|0:0,0:0:0:0:
260,148,27155,2,0,P|188:140|136:56,1,174,0|10,1:2|0:0,0:0:0:0:
312,60,28078,6,0,P|360:120|304:180,1,174,0|8,1:2|0:2,0:0:0:0:
128,180,29001,1,0,1:2:0:0:
40,176,29232,1,0,3:2:0:0:
128,180,29462,1,8,0:2:0:0:
304,180,29924,6,0,P|376:164|416:76,1,174,2|10,1:2|0:0,0:0:0:0:
284,84,30732,1,2,0:0:0:0:
280,172,30962,1,2,0:0:0:0:
412,172,31309,1,10,0:0:0:0:
416,260,31539,1,2,0:0:0:0:
328,260,31770,6,0,P|248:256|204:180,1,174,0|10,1:2|0:0,0:0:0:0:
380,180,32693,2,0,P|428:120|368:64,1,174,2|10,1:2|0:0,0:0:0:0:
196,68,33616,6,0,P|124:80|84:168,1,174,0|10,1:2|0:0,0:0:0:0:
256,168,34539,2,0,P|328:180|356:268,1,174,0|10,1:2|0:0,0:0:0:0:
180,272,35462,6,0,P|136:212|200:156,1,174,0|8,1:2|0:0,0:0:0:0:
372,164,36386,1,0,1:2:0:0:
456,148,36616,1,0,3:2:0:0:
372,164,36847,1,8,0:0:0:0:
196,164,37309,6,0,P|116:176|64:332,1,261,6|2,1:2|1:2,0:0:0:0:
236,336,38462,1,2,1:2:0:0:
412,340,38924,6,0,P|472:272|368:176,1,261,2|10,1:2|0:0,0:0:0:0:
284,172,39847,2,0,P|264:248|400:324,1,261,2|10,1:2|0:0,0:0:0:0:
228,324,41001,6,0,P|156:268|248:168,1,261,2|2,1:2|1:2,0:0:0:0:
424,168,42155,1,2,1:2:0:0:
252,168,42616,6,0,P|140:164|64:44,1,261,2|10,1:2|0:0,0:0:0:0:
151,47,43539,1,2,0:2:0:0:
240,40,43770,1,2,0:0:0:0:
416,44,44232,1,8,0:0:0:0:
244,44,44693,6,0,P|156:56|92:204,1,261,6|2,1:2|3:2,0:0:0:0:
264,208,45847,1,2,0:0:0:0:
440,204,46309,6,0,P|464:264|328:352,1,261,2|10,3:2|0:0,0:0:0:0:
240,352,47232,2,0,P|144:344|80:208,1,261,2|10,3:2|3:2,0:0:0:0:
256,208,48386,6,0,P|344:200|388:52,1,261,2|2,1:2|3:2,0:0:0:0:
216,48,49539,1,2,0:0:0:0:
40,52,50001,1,2,3:2:0:0:
36,140,50232,5,0,1:2:0:0:
84,212,50462,1,10,0:0:0:0:
172,220,50693,1,2,1:2:0:0:
348,220,51155,1,2,1:2:0:0:
432,200,51386,1,2,1:2:0:0:
348,220,51616,1,8,2:3:0:0:
172,220,52078,5,2,0:0:0:0:
348,220,52539,1,6,1:2:0:0:
480,216,52886,1,6,1:2:0:0:
348,220,53232,1,6,1:2:0:0:
216,216,53578,1,6,1:2:0:0:
208,348,53924,5,0,3:2:0:0:
384,348,54386,1,0,1:2:0:0:
252,348,54732,1,0,1:2:0:0:
120,348,55078,1,0,1:2:0:0:
116,260,55309,1,2,0:0:0:0:
288,256,55770,5,6,1:2:0:0:
420,260,56116,1,2,0:0:0:0:
288,256,56462,2,0,L|112:256,1,174,2|2,3:2|0:0,0:0:0:0:
252,260,57270,1,2,3:2:0:0:
120,260,57616,5,2,1:2:0:0:
116,128,57962,1,2,0:0:0:0:
248,128,58309,2,0,P|324:112|368:20,1,174,2|2,3:2|3:2,0:0:0:0:
240,24,59116,1,2,3:2:0:0:
108,24,59462,5,2,1:2:0:0:
112,156,59809,1,2,0:0:0:0:
244,156,60155,2,0,P|292:216|236:280,1,174,2|0,3:2|3:2,0:0:0:0:
152,280,60847,1,8,0:0:0:0:
328,280,61309,6,0,P|400:272|484:216,1,174,2|10,1:2|0:0,0:0:0:0:
312,148,62232,1,2,1:2:0:0:
180,148,62578,1,2,3:2:0:0:
312,148,62924,1,2,3:2:0:0:
404,148,63155,5,2,1:2:0:0:
272,148,63501,1,2,3:2:0:0:
140,148,63847,1,2,3:2:0:0:
136,236,64078,2,0,L|316:236,1,174,2|8,1:2|0:0,0:0:0:0:
136,248,65001,6,0,P|96:188|156:116,1,174,2|10,1:2|0:0,0:0:0:0:
324,116,65924,2,0,P|400:104|428:20,1,174,2|10,1:2|0:0,0:0:0:0:
256,20,66847,6,0,L|76:20,1,174,6|10,1:2|0:2,0:0:0:0:
256,20,67770,2,0,L|436:20,1,174,6|10,1:2|0:2,0:0:0:0:
256,20,68693,6,0,L|76:20,1,174,6|10,1:2|0:0,0:0:0:0:
256,20,69616,1,2,1:2:0:0:
344,20,69847,1,2,3:2:0:0:
348,108,70078,1,10,0:2:0:0:
176,112,70539,5,6,1:2:0:0:
44,112,70886,1,2,0:0:0:0:
44,244,71232,2,0,L|232:244,1,174,2|2,3:2|3:2,0:0:0:0:
348,248,72039,1,2,3:2:0:0:
216,248,72386,5,2,1:2:0:0:
212,116,72732,1,2,0:0:0:0:
344,116,73078,2,0,P|396:184|344:236,1,174,2|2,0:0|3:2,0:0:0:0:
212,236,73886,1,2,3:2:0:0:
344,236,74232,5,2,1:2:0:0:
348,104,74578,1,2,0:0:0:0:
216,104,74924,2,0,P|140:112|96:192,1,174,2|0,3:2|3:2,0:0:0:0:
184,196,75616,1,8,0:0:0:0:
360,196,76078,6,0,P|408:128|352:76,1,174,2|10,1:2|0:0,0:0:0:0:
180,80,77001,1,2,1:2:0:0:
176,212,77347,1,2,3:2:0:0:
308,212,77693,1,2,3:2:0:0:
308,300,77924,5,2,1:2:0:0:
176,300,78270,1,2,3:2:0:0:
308,300,78616,1,2,3:2:0:0:
396,300,78847,1,2,1:2:0:0:
392,212,79078,1,0,3:2:0:0:
304,212,79309,1,8,0:0:0:0:
132,212,79770,6,0,P|96:144|152:64,1,174,6|2,1:2|0:0,0:0:0:0:
316,68,80693,1,2,1:2:0:0:
228,68,80924,1,0,1:2:0:0:
140,68,81155,1,10,0:0:0:0:
312,68,81616,6,0,P|356:132|304:204,1,174,6|10,1:2|3:2,0:0:0:0:
132,196,82539,2,0,P|88:256|144:328,1,174,2|10,1:2|3:2,0:0:0:0:
312,336,83462,6,0,P|384:320|416:228,1,174,2|10,1:2|0:0,0:0:0:0:
244,236,84386,2,0,P|208:160|264:104,1,174,2|10,1:2|0:0,0:0:0:0:
352,104,85078,1,0,3:2:0:0:
264,104,85309,6,0,P|160:100|112:52,1,174,2|10,1:2|0:0,0:0:0:0:
288,52,86232,2,0,P|372:64|416:144,1,174,2|10,1:2|0:0,0:0:0:0:
240,128,87155,6,0,L|64:124,1,174,8|8,1:2|1:2,0:0:0:0:
240,128,88078,1,4,1:2:0:0:
372,128,88424,1,4,1:2:0:0:
240,128,88770,5,4,1:2:0:0:
