osu file format v14

[General]
AudioFilename: audio.mp3
AudioLeadIn: 0
PreviewTime: 54877
Countdown: 0
SampleSet: Soft
StackLeniency: 0.7
Mode: 0
LetterboxInBreaks: 0
WidescreenStoryboard: 0

[Editor]
Bookmarks: 6343,11860,22894,33929,44963,55998,67032,78067,87722
DistanceSpacing: 2.3
BeatDivisor: 4
GridSize: 4
TimelineZoom: 1.9

[Metadata]
Title:Genesis(TV Size)
TitleUnicode:Genesis(TV Size)
Artist:STEREO DIVE FOUNDATION
ArtistUnicode:STEREO DIVE FOUNDATION
Creator:-Maruk-
Version:Extreme
Source:Dimension W
Tags:opening Borokuzu
BeatmapID:1247906
BeatmapSetID:589560

[Difficulty]
HPDrainRate:7
CircleSize:4
OverallDifficulty:8
ApproachRate:9.2
SliderMultiplier:1.8
SliderTickRate:1

[Events]
//Background and Video events
Video,0,"Video.avi"
0,0,"BG.jpg",0,0
//Break Periods
//Storyboard Layer 0 (Background)
//Storyboard Layer 1 (Fail)
//Storyboard Layer 2 (Pass)
//Storyboard Layer 3 (Foreground)
//Storyboard Sound Samples

[TimingPoints]
826,344.827586206897,4,1,0,70,1,0
912,-100,4,2,0,70,0,0
4963,-100,4,2,2,70,0,0
5998,-71.4285714285714,4,2,2,70,0,0
6343,-100,4,2,1,60,0,0
10653,-100,4,2,2,60,0,0
11860,-100,4,2,1,70,0,0
33584,-100,4,2,2,70,0,0
33627,-100,4,2,2,5,0,0
33929,-71.4285714285714,4,2,1,60,0,0
34446,-142.857142857143,4,2,2,60,0,0
36343,-71.4285714285714,4,2,1,60,0,0
36688,-142.857142857143,4,2,2,60,0,0
38412,-100,4,2,1,60,0,0
38757,-125,4,2,1,60,0,0
39101,-166.666666666667,4,2,1,60,0,0
39446,-71.4285714285714,4,2,1,60,0,0
39963,-142.857142857143,4,2,1,60,0,0
41860,-100,4,2,1,60,0,0
42205,-142.857142857143,4,2,1,60,0,0
42550,-71.4285714285714,4,2,1,60,0,0
42894,-142.857142857143,4,2,1,60,0,0
43929,-100,4,2,1,60,0,0
44274,-125,4,2,1,60,0,0
44619,-166.666666666667,4,2,1,60,0,0
44963,-100,4,2,1,60,0,0
53929,-100,4,2,1,70,0,0
55653,-200,4,2,1,60,0,0
55998,-100,4,2,1,70,0,1
76688,-100,4,2,1,60,0,0
77032,-166.666666666667,4,2,1,60,0,0
77377,-125,4,2,1,60,0,0
77722,-100,4,2,2,60,0,0
78067,-71.4285714285714,4,2,1,60,0,0
78584,-142.857142857143,4,2,1,60,0,0
81170,-71.4285714285714,4,2,1,60,0,0
81515,-142.857142857143,4,2,1,60,0,0
83584,-71.4285714285714,4,2,1,60,0,0
84274,-142.857142857143,4,2,1,60,0,0
85308,-71.4285714285714,4,2,1,60,0,0
85653,-142.857142857143,4,2,1,60,0,0
86688,-71.4285714285714,4,2,1,60,0,0
87032,-100,4,2,1,60,0,0
87722,-100,4,2,3,70,0,0

[Colours]
Combo1 : 0,0,0
Combo2 : 128,0,0
Combo3 : 0,128,0
Combo4 : 0,0,255
Combo5 : 128,0,255

[HitObjects]
256,192,826,5,4,0:0:0:0:
256,192,912,12,0,4791,0:0:0:0:
228,176,4963,6,0,P|203:137|202:92,1,90,2|0,0:0|0:0,0:0:0:0:
342,171,5308,2,0,P|339:215|315:252,1,90,2|0,0:0|0:0,0:0:0:0:
201,326,5653,1,0,0:0:0:0:
94,203,5826,1,2,0:0:0:0:
94,203,5912,1,2,0:0:0:0:
94,203,5998,6,0,P|92:129|187:134,1,188.999994232178,2|0,0:0|0:0,0:0:0:0:
228,176,6343,5,2,0:0:0:0:
228,176,6688,1,2,0:0:0:0:
228,176,7032,1,2,0:0:0:0:
228,176,7377,1,2,0:0:0:0:
379,118,7722,5,2,0:0:0:0:
379,118,8067,1,2,0:0:0:0:
379,118,8412,1,2,0:0:0:0:
379,118,8757,1,2,0:0:0:0:
325,270,9101,5,2,0:0:0:0:
228,176,9274,1,2,0:0:0:0:
352,125,9446,1,2,0:0:0:0:
250,251,9619,1,2,0:0:0:0:
176,107,9791,5,2,0:0:0:0:
91,244,9963,1,2,0:0:0:0:
257,154,10136,1,2,0:0:0:0:
92,61,10308,1,2,0:0:0:0:
201,248,10481,5,2,0:0:0:0:
330,75,10653,1,2,0:0:0:0:
330,75,10739,1,2,0:0:0:0:
330,75,10826,2,0,P|317:26|287:-4,1,90,2|0,0:0|0:0,0:0:0:0:
163,124,11170,1,2,0:0:0:0:
330,75,11343,1,0,0:0:0:0:
201,248,11515,2,0,P|214:297|244:327,1,90,2|0,0:0|0:0,0:0:0:0:
336,228,11860,6,0,P|359:220|387:214,1,45,4|0,0:0|0:0,0:0:0:0:
283,337,12032,2,0,P|261:331|239:324,1,45
163,243,12205,2,0,P|123:255|72:266,1,90,8|0,0:0|0:0,0:0:0:0:
7,158,12550,1,2,0:0:0:0:
103,64,12722,2,0,P|146:73|190:86,1,90,0|8,0:0|0:0,0:0:0:0:
313,177,13067,6,0,P|337:137|340:86,1,90,0|2,0:0|0:0,0:0:0:0:
190,86,13412,1,0,0:0:0:0:
258,222,13584,1,8,0:0:0:0:
341,94,13757,1,0,0:0:0:0:
173,180,13929,2,0,P|126:156|103:123,1,90,2|0,0:0|0:0,0:0:0:0:
261,57,14274,1,8,0:0:0:0:
150,20,14446,1,0,0:0:0:0:
173,180,14619,6,0,P|182:226|190:270,1,90,2|0,0:0|0:0,0:0:0:0:
278,357,14963,1,8,0:0:0:0:
380,207,15136,2,0,P|335:215|285:231,1,90,0|2,0:0|0:0,0:0:0:0:
173,180,15481,1,0,0:0:0:0:
291,83,15653,1,8,0:0:0:0:
380,207,15826,6,0,P|424:198|475:183,1,90,0|2,0:0|0:0,0:0:0:0:
496,63,16170,1,0,0:0:0:0:
386,126,16343,1,8,0:0:0:0:
490,195,16515,1,0,0:0:0:0:
368,288,16688,2,0,P|320:277|286:252,1,90,2|0,0:0|0:0,0:0:0:0:
205,158,17032,2,0,P|212:112|223:66,1,90,8|0,0:0|0:0,0:0:0:0:
324,67,17377,6,0,L|316:112,1,45,2|0,0:0|0:0,0:0:0:0:
205,158,17550,2,0,P|182:151|155:143,1,45
126,136,17722,1,8,0:0:0:0:
31,219,17894,2,0,P|27:269|46:311,1,90,0|2,0:0|0:0,0:0:0:0:
171,242,18239,1,0,0:0:0:0:
41,305,18412,1,8,0:0:0:0:
189,368,18584,6,0,P|233:354|289:346,1,90,0|2,0:0|0:0,0:0:0:0:
390,274,18929,1,0,0:0:0:0:
286,245,19101,1,8,0:0:0:0:
368,363,19274,1,0,0:0:0:0:
449,244,19446,2,0,P|451:197|435:155,1,90,2|0,0:0|0:0,0:0:0:0:
322,93,19791,2,0,P|306:135|309:179,1,90,8|0,0:0|0:0,0:0:0:0:
390,274,20136,6,0,P|408:264|431:257,1,45,2|0,0:0|0:0,0:0:0:0:
350,162,20308,2,0,P|331:171|309:179,1,45
275,195,20481,1,8,0:0:0:0:
167,129,20653,2,0,P|173:82|205:51,1,90,0|2,0:0|0:0,0:0:0:0:
275,195,20998,1,0,0:0:0:0:
157,260,21170,1,8,0:0:0:0:
283,347,21343,6,0,P|332:341|365:317,1,90,2|2,0:0|0:0,0:0:0:0:
275,195,21688,1,0,0:0:0:0:
250,162,21774,1,0,0:0:0:0:
248,121,21860,1,2,0:0:0:0:
263,83,21946,1,0,0:0:0:0:
294,57,22032,1,0,0:0:0:0:
436,114,22205,5,2,0:0:0:0:
462,144,22291,1,8,0:3:0:0:
475,180,22377,1,8,0:3:0:0:
472,221,22463,1,8,0:3:0:0:
452,256,22550,1,2,0:0:0:0:
423,284,22636,1,0,0:0:0:0:
384,296,22722,1,0,0:0:0:0:
345,285,22808,1,0,0:0:0:0:
311,263,22894,6,0,P|264:266|222:282,1,90,4|0,0:0|0:0,0:0:0:0:
107,211,23239,1,8,0:0:0:0:
188,139,23412,2,0,P|187:88|168:51,1,90,0|2,0:0|0:0,0:0:0:0:
45,126,23757,1,0,0:0:0:0:
170,53,23929,1,8,0:0:0:0:
107,211,24101,6,0,P|94:277|85:344,1,135
106,373,24446,1,0,0:0:0:0:
230,282,24619,1,8,0:0:0:0:
137,226,24791,1,0,0:0:0:0:
184,351,24963,2,0,P|219:366|272:355,1,90,2|0,0:0|0:0,0:0:0:0:
342,191,25308,2,0,P|392:181|432:247,1,135,8|0,0:0|0:0,0:0:0:0:
442,279,25653,5,2,0:0:0:0:
442,279,25998,2,0,P|444:237|453:188,1,90,8|0,0:0|0:0,0:0:0:0:
352,98,26343,1,2,0:0:0:0:
462,59,26515,1,0,0:0:0:0:
448,175,26688,1,8,0:0:0:0:
376,19,26860,6,0,P|310:24|271:82,1,135
260,125,27205,2,0,P|213:111|165:102,1,90,0|8,0:0|0:0,0:0:0:0:
42,164,27550,1,0,0:0:0:0:
157,214,27722,1,2,0:0:0:0:
44,271,27894,1,0,0:0:0:0:
172,103,28067,2,0,P|216:111|309:143,1,135,8|0,0:0|0:0,0:0:0:0:
337,132,28412,5,2,0:0:0:0:
337,132,28757,2,0,P|381:123|424:110,1,90,8|0,0:0|0:0,0:0:0:0:
491,257,29101,2,0,P|447:243|403:235,1,90,2|0,0:0|0:0,0:0:0:0:
280,310,29446,1,8,0:0:0:0:
148,214,29619,6,0,P|154:145|164:79,1,135
187,53,29963,1,0,0:0:0:0:
25,34,30136,2,0,P|30:79|38:128,1,90,8|0,0:0|0:0,0:0:0:0:
148,214,30481,1,2,0:0:0:0:
37,252,30653,1,0,0:0:0:0:
160,126,30826,2,0,P|219:155|234:224,1,135,8|0,0:0|0:0,0:0:0:0:
230,253,31170,5,2,0:0:0:0:
230,253,31515,2,0,P|276:240|320:233,1,90,8|0,0:0|0:0,0:0:0:0:
192,365,31860,2,0,P|146:352|102:345,1,90,2|0,0:0|0:0,0:0:0:0:
37,252,32205,1,8,0:0:0:0:
122,104,32377,6,0,P|169:74|208:163,1,180
39,125,32894,2,0,P|40:76|65:39,1,90,8|0,0:0|0:0,0:0:0:0:
136,191,33239,2,0,P|107:225|65:239,1,90,2|0,0:0|0:0,0:0:0:0:
160,78,33584,6,0,P|171:80|182:84,1,22.5,4|0,0:0|0:0,0:0:0:0:
182,84,33929,6,2,B|196:110|212:102|214:77|206:50|181:46|155:48|145:80|146:95|154:112|232:161|177:230,1,251.999992309571,2|0,0:1|0:1,0:1:0:0:
116,330,34446,5,2,0:0:0:0:
93,318,34532,1,2,0:0:0:0:
76,298,34619,2,0,P|59:270|54:237,1,62.9999980773926,2|0,0:0|0:0,0:0:0:0:
95,88,34963,1,2,0:0:0:0:
139,153,35050,1,2,0:0:0:0:
209,188,35136,1,2,0:0:0:0:
287,185,35222,1,2,0:0:0:0:
348,135,35308,6,2,P|357:112|359:69,1,62.9999980773926,2|0,0:0|0:1,0:1:0:0:
278,20,35653,2,0,L|260:10,6,15.7499995193482,2|0|0|0|0|0|0,0:0|0:0|0:0|0:0|0:0|0:0|0:0,0:0:0:0:
348,135,35998,1,2,0:0:0:0:
358,141,36084,1,0,0:0:0:0:
368,147,36170,1,2,0:0:0:0:
379,153,36257,1,0,0:0:0:0:
386,157,36343,6,2,P|448:148|514:141,1,125.999996154785,2|0,0:1|0:1,0:1:0:0:
506,297,36688,5,2,0:0:0:0:
441,341,36774,1,0,0:0:0:0:
363,330,36860,1,2,0:0:0:0:
298,285,36946,1,0,0:0:0:0:
275,209,37032,1,2,0:0:0:0:
296,73,37205,6,0,P|288:59|278:46,2,31.4999990386963,2|0|2,0:0|0:0|0:0,0:0:0:0:
178,119,37550,2,0,P|168:131|161:144,1,31.4999990386963,2|0,0:0|0:0,0:0:0:0:
298,168,37722,2,0,P|306:166|314:164,2,15.7499995193482,2|0|0,0:0|0:0|0:0,0:0:0:0:
183,264,37894,2,0,P|175:250|165:237,1,31.4999990386963,2|0,0:0|0:0,0:0:0:0:
267,339,38067,6,0,P|286:314|297:285,1,62.9999980773926,2|0,0:0|0:0,0:0:0:0:
183,264,38412,6,0,P|112:265|61:313,1,135
1,257,38757,6,0,P|9:200|22:146,1,108
44,72,39101,6,0,P|74:88|100:138,1,80.9999975280763,2|0,0:0|0:0,0:0:0:0:
125,218,39446,6,2,B|152:278|109:363|109:363|183:364|192:281,1,251.999992309571,2|0,0:1|0:1,0:1:0:0:
226,204,39963,5,2,0:0:0:0:
226,204,40050,1,0,0:0:0:0:
226,204,40136,2,0,L|237:174,1,31.4999990386963,2|0,0:0|0:0,0:0:0:0:
318,121,40308,2,0,L|328:150,1,31.4999990386963,2|0,0:0|0:0,0:0:0:0:
409,198,40481,2,0,L|420:168,1,31.4999990386963,2|0,0:0|0:0,0:0:0:0:
502,131,40653,2,0,L|512:160,1,31.4999990386963,2|0,0:0|0:0,0:0:0:0:
494,274,40826,6,2,P|455:307|401:313,1,94.499997116089,2|0,0:1|0:1,0:1:0:0:
351,258,41170,2,0,P|346:223|341:192,1,62.9999980773926,2|0,0:0|0:0,0:0:0:0:
277,86,41515,1,2,0:0:0:0:
219,42,41601,1,2,0:0:0:0:
146,32,41688,1,2,0:0:0:0:
80,61,41774,1,2,0:0:0:0:
34,118,41860,6,0,P|24:156|30:209,1,90,2|0,0:0|0:0,0:0:0:0:
108,304,42205,6,2,P|123:299|140:295,1,31.4999990386963,2|0,0:1|0:1,0:1:0:0:
220,236,42377,2,2,P|235:239|250:244,1,31.4999990386963,2|0,0:1|0:1,0:1:0:0:
338,294,42550,6,2,P|347:226|357:169,1,125.999996154785,2|0,0:1|0:1,0:1:0:0:
450,101,42894,6,0,L|481:96,1,31.4999990386963,2|0,0:0|0:0,0:0:0:0:
357,169,43067,2,0,L|326:164,1,31.4999990386963,2|0,0:0|0:0,0:0:0:0:
481,227,43239,2,0,L|512:222,1,31.4999990386963,2|0,0:0|0:0,0:0:0:0:
369,299,43412,2,0,L|338:294,1,31.4999990386963,2|0,0:0|0:0,0:0:0:0:
299,307,43584,5,2,0:0:0:0:
299,307,43929,2,0,P|284:229|276:171,1,135
262,92,44274,6,0,P|217:112|194:165,1,108
113,143,44619,6,0,P|69:131|27:121,1,80.9999975280763
1,114,44963,5,6,0:0:0:0:
1,114,45308,1,2,0:0:0:0:
1,114,45653,1,2,0:0:0:0:
1,114,45998,1,2,0:0:0:0:
127,214,46343,5,2,0:0:0:0:
127,214,46688,1,2,0:0:0:0:
126,214,47032,2,0,P|104:251|99:299,1,90,2|0,0:0|0:0,0:0:0:0:
226,218,47377,2,0,P|209:156|148:116,1,135,2|0,0:0|0:0,0:0:0:0:
121,99,47722,6,0,P|129:49|139:9,1,90,2|0,0:0|0:0,0:0:0:0:
138,10,48067,1,2,0:0:0:0:
252,117,48239,2,0,P|296:115|335:94,1,90,0|2,0:0|0:0,0:0:0:0:
431,11,48584,1,0,0:0:0:0:
465,200,48757,2,0,P|426:179|382:177,1,90,2|0,0:0|0:0,0:0:0:0:
270,270,49101,5,2,0:0:0:0:
270,270,49274,2,0,P|276:314|287:358,1,90,0|2,0:0|0:0,0:0:0:0:
401,302,49619,1,0,0:0:0:0:
284,187,49791,2,0,P|239:194|198:227,1,90,2|0,0:0|0:0,0:0:0:0:
137,135,50136,2,0,P|145:86|157:42,1,90,2|0,0:0|0:0,0:0:0:0:
46,56,50481,6,0,L|38:100,1,45,2|0,0:0|0:0,0:0:0:0:
128,179,50653,2,0,L|136:135,1,45,2|0,0:0|0:0,0:0:0:0:
80,27,50826,6,0,L|45:55,1,45,2|0,0:0|0:0,0:0:0:0:
93,207,50998,2,0,L|127:178,1,45,2|0,0:0|0:0,0:0:0:0:
124,27,51170,6,0,L|79:26,1,45,2|0,0:0|0:0,0:0:0:0:
48,206,51342,2,0,L|92:206,1,45,2|0,0:0|0:0,0:0:0:0:
158,56,51515,6,0,L|123:27,1,45,2|0,0:0|0:0,0:0:0:0:
13,176,51687,2,0,L|47:204,1,45,2|0,0:0|0:0,0:0:0:0:
165,100,51860,6,0,L|157:55,1,45,2|0,0:0|0:0,0:0:0:0:
259,158,52032,2,0,L|251:202,1,45,2|0,0:0|0:0,0:0:0:0:
339,79,52205,2,0,L|331:34,1,45,2|0,0:0|0:0,0:0:0:0:
431,140,52377,2,0,L|423:184,1,45,2|0,0:0|0:0,0:0:0:0:
349,268,52550,6,0,L|304:260,1,45,2|0,0:0|0:0,0:0:0:0:
214,150,52722,2,0,L|258:157,1,45,2|0,0:0|0:0,0:0:0:0:
365,283,52894,2,0,L|320:275,1,45,2|0,0:0|0:0,0:0:0:0:
193,135,53066,2,0,L|237:142,1,45,2|0,0:0|0:0,0:0:0:0:
380,301,53239,5,2,0:0:0:0:
386,307,53326,1,2,0:0:0:0:
391,312,53412,1,2,0:0:0:0:
397,318,53498,1,2,0:0:0:0:
402,323,53584,1,2,0:0:0:0:
408,329,53670,1,2,0:0:0:0:
414,335,53757,1,2,0:0:0:0:
419,340,53843,1,2,0:0:0:0:
425,346,53929,5,2,0:0:0:0:
377,312,54015,1,2,0:0:0:0:
319,301,54101,1,2,0:0:0:0:
262,318,54188,1,2,0:0:0:0:
215,353,54274,1,2,0:0:0:0:
156,357,54360,1,2,0:0:0:0:
101,335,54446,1,2,0:0:0:0:
60,292,54532,1,2,0:0:0:0:
48,234,54619,6,0,P|51:211|60:190,1,45,10|2,0:3|0:0,0:0:0:0:
178,103,54791,1,2,0:0:0:0:
178,103,54877,1,2,0:0:0:0:
178,103,54963,2,0,P|186:123|189:145,1,45,10|2,0:3|0:0,0:0:0:0:
48,234,55136,1,2,0:0:0:0:
48,234,55222,1,2,0:0:0:0:
48,234,55308,2,0,P|25:231|5:222,1,45,10|2,0:3|0:0,0:0:0:0:
178,103,55481,1,2,0:0:0:0:
178,103,55567,1,2,0:0:0:0:
178,103,55653,6,0,P|222:114|246:130,1,67.5,8|0,0:0|0:0,0:0:0:0:
271,158,55998,6,0,P|262:88|259:23,1,135,4|0,0:0|0:0,0:0:0:0:
300,4,56343,1,8,0:0:0:0:
402,150,56515,2,0,P|400:196|373:238,1,90,0|2,0:0|0:0,0:0:0:0:
271,158,56860,1,0,0:0:0:0:
162,289,57032,2,0,P|91:276|25:269,1,135,8|0,0:0|0:0,0:0:0:0:
17,234,57377,6,0,P|27:189|54:152,1,90,2|0,0:0|0:0,0:0:0:0:
171,89,57722,1,8,0:0:0:0:
72,46,57894,1,0,0:0:0:0:
127,187,58067,2,0,P|134:255|140:328,1,135,2|0,0:0|0:0,0:0:0:0:
166,345,58412,2,0,P|212:340|258:309,1,90,8|0,0:0|0:0,0:0:0:0:
348,205,58757,6,0,P|287:169|218:170,1,135,2|0,0:0|0:0,0:0:0:0:
192,184,59101,1,8,0:0:0:0:
288,324,59274,2,0,P|324:294|340:251,1,90,0|2,0:0|0:0,0:0:0:0:
308,141,59619,1,0,0:0:0:0:
446,57,59791,2,0,P|458:122|467:195,1,135,8|0,0:0|0:0,0:0:0:0:
461,226,60136,5,2,0:0:0:0:
370,354,60308,2,0,P|325:347|288:324,1,90,0|8,0:0|0:0,0:0:0:0:
240,206,60653,1,0,0:0:0:0:
152,114,60826,2,0,P|94:105|69:175,1,135,2|0,0:0|0:0,0:0:0:0:
41,140,61170,2,0,P|46:88|53:49,1,90,8|0,0:0|0:0,0:0:0:0:
152,114,61515,6,0,L|133:248,1,135,2|0,0:0|0:0,0:0:0:0:
110,276,61860,1,8,0:0:0:0:
196,366,62032,2,0,P|236:362|280:323,1,90,0|2,0:0|0:0,0:0:0:0:
342,236,62377,1,0,0:0:0:0:
233,140,62550,2,0,P|244:64|261:1,1,135,8|0,0:0|0:0,0:0:0:0:
282,34,62894,6,0,P|324:54|368:66,1,90,2|0,0:0|0:0,0:0:0:0:
483,131,63239,1,8,0:0:0:0:
459,25,63412,1,0,0:0:0:0:
380,168,63584,2,0,P|391:243|408:307,1,135,2|0,0:0|0:0,0:0:0:0:
420,333,63929,2,0,P|376:320|336:301,1,90,8|0,0:0|0:0,0:0:0:0:
236,209,64274,6,0,P|166:218|97:235,1,135,2|0,0:0|0:0,0:0:0:0:
69,246,64619,1,8,0:0:0:0:
11,144,64791,2,0,P|15:99|39:63,1,90,0|2,0:0|0:0,0:0:0:0:
166,14,65136,1,0,0:0:0:0:
224,154,65308,2,0,P|237:211|251:289,1,135,8|0,0:0|0:0,0:0:0:0:
279,308,65653,6,0,P|281:256|284:214,1,90,2|0,0:0|0:0,0:0:0:0:
342,106,65998,2,0,P|392:84|417:153,1,135,8|0,0:0|0:0,0:0:0:0:
397,227,66343,2,0,B|436:271|417:331|417:331|445:301,1,135,2|0,0:0|0:0,0:0:0:0:
336,294,66688,2,0,P|268:299|201:313,1,135,8|0,0:0|0:0,0:0:0:0:
126,273,67032,6,0,P|136:198|150:135,1,135,4|0,0:0|0:0,0:0:0:0:
174,114,67377,1,8,0:0:0:0:
44,74,67550,2,0,L|60:162,1,90,0|2,0:0|0:0,0:0:0:0:
29,293,67894,1,0,0:0:0:0:
159,255,68067,2,0,P|226:265|298:273,1,135,8|0,0:0|0:0,0:0:0:0:
324,254,68412,6,0,P|321:207|298:172,1,90,2|0,0:0|0:0,0:0:0:0:
213,66,68757,1,8,0:0:0:0:
319,50,68929,1,0,0:0:0:0:
239,181,69101,2,0,P|174:178|119:136,1,135,2|0,0:0|0:0,0:0:0:0:
95,164,69446,2,0,P|86:211|82:256,1,90,8|0,0:0|0:0,0:0:0:0:
195,342,69791,6,0,P|206:271|213:208,1,135,2|0,0:0|0:0,0:0:0:0:
239,181,70136,1,8,0:0:0:0:
333,98,70308,2,0,P|332:45|316:6,1,90,0|2,0:0|0:0,0:0:0:0:
190,76,70653,1,0,0:0:0:0:
239,181,70826,2,0,P|277:214|361:220,1,135,8|0,0:0|0:0,0:0:0:0:
392,207,71170,5,2,0:0:0:0:
482,118,71343,2,0,P|476:71|453:26,1,90,0|8,0:0|0:0,0:0:0:0:
346,110,71688,1,0,0:0:0:0:
409,238,71860,2,0,P|424:309|433:373,1,135,2|0,0:0|0:0,0:0:0:0:
400,353,72205,2,0,P|352:346|308:344,1,90,8|0,0:0|0:0,0:0:0:0:
212,225,72550,6,0,P|157:203|123:265,1,135,2|0,0:0|0:0,0:0:0:0:
125,293,72894,1,8,0:0:0:0:
8,223,73067,2,0,P|17:173|43:139,1,90,0|2,0:0|0:0,0:0:0:0:
152,66,73412,1,0,0:0:0:0:
212,225,73584,2,0,P|252:221|289:189,1,90,8|0,0:0|0:0,0:0:0:0:
338,63,73929,5,2,0:0:0:0:
233,90,74101,1,0,0:0:0:0:
378,181,74274,2,0,P|422:170|478:162,1,90,8|0,0:0|0:0,0:0:0:0:
424,318,74619,2,0,P|379:307|290:298,1,135,2|0,0:0|0:0,0:0:0:0:
258,313,74963,2,0,P|213:323|158:332,1,90,8|0,0:0|0:0,0:0:0:0:
55,258,75308,6,0,P|67:184|82:119,1,135,2|0,0:0|0:0,0:0:0:0:
103,97,75653,1,8,0:0:0:0:
230,51,75826,2,0,L|214:139,1,90,0|2,0:0|0:0,0:0:0:0:
111,227,76170,1,0,0:0:0:0:
169,330,76343,2,0,P|211:329|256:305,1,90,8|0,0:0|0:0,0:0:0:0:
351,166,76688,5,2,0:0:0:0:
351,166,77032,2,0,P|392:169|424:201,1,80.9999975280763
447,275,77377,6,0,P|434:335|428:385,1,108
346,357,77722,6,0,P|334:359|322:362,1,22.5,4|0,0:0|0:0,0:0:0:0:
323,361,78067,6,2,B|335:337|351:345|353:370|345:397|320:401|294:399|284:367|285:352|293:335|371:286|322:225,1,251.999992309571,2|0,0:1|0:1,0:1:0:0:
288,125,78584,1,2,0:0:0:0:
265,135,78670,1,0,0:0:0:0:
245,151,78757,2,0,P|229:166|224:184,1,31.4999990386963,8|0,0:0|0:0,0:0:0:0:
130,161,78929,2,0,P|128:182|135:199,1,31.4999990386963,8|0,0:0|0:0,0:0:0:0:
49,242,79101,2,0,P|61:259|77:268,1,31.4999990386963,8|0,0:0|0:0,0:0:0:0:
39,357,79274,2,0,P|59:362|78:358,1,31.4999990386963,8|0,0:0|0:0,0:0:0:0:
166,321,79446,6,2,P|195:313|235:307,1,62.9999980773926,2|0,0:1|0:1,0:1:0:0:
302,355,79791,2,0,L|327:359,6,15.7499995193482,2|0|0|0|0|0|0,0:0|0:0|0:0|0:0|0:0|0:0|0:0,0:0:0:0:
227,307,80136,1,8,0:0:0:0:
197,244,80222,1,2,0:0:0:0:
206,175,80308,1,2,0:0:0:0:
241,115,80394,1,2,0:0:0:0:
303,83,80481,2,2,P|336:87|367:101,1,62.9999980773926,2|0,0:1|0:1,0:1:0:0:
458,190,80826,5,2,0:0:0:0:
462,198,80912,1,0,0:0:0:0:
466,206,80998,1,0,0:0:0:0:
470,214,81084,1,0,0:0:0:0:
474,221,81170,6,2,P|476:149|483:90,1,125.999996154785,2|0,0:1|0:1,0:1:0:0:
345,135,81515,5,8,0:0:0:0:
372,284,81688,1,2,0:0:0:0:
352,326,81774,1,2,0:0:0:0:
310,349,81860,1,2,0:0:0:0:
264,360,81946,1,2,0:0:0:0:
218,346,82032,1,2,0:0:0:0:
131,228,82205,5,2,0:0:0:0:
226,179,82377,1,0,0:0:0:0:
128,119,82550,1,0,0:0:0:0:
231,60,82722,1,0,0:0:0:0:
131,228,82894,2,0,P|99:220|63:211,1,62.9999980773926,8|0,0:0|0:0,0:0:0:0:
156,361,83239,2,0,P|187:353|224:344,1,62.9999980773926
309,230,83584,6,2,P|445:160|386:320,1,377.999988464356,2|0,0:1|0:1,0:1:0:0:
397,233,84274,6,0,P|403:217|411:203,1,31.4999990386963,8|0,0:0|0:0,0:0:0:0:
319,303,84446,2,0,P|326:316|332:331,1,31.4999990386963,2|0,0:0|0:0,0:0:0:0:
242,214,84619,2,0,P|248:198|256:184,1,31.4999990386963,2|0,0:0|0:0,0:0:0:0:
160,300,84791,2,0,P|167:313|173:328,1,31.4999990386963,10|0,0:0|0:0,0:0:0:0:
73,220,84963,6,2,P|96:170|116:132,1,94.499997116089,2|0,0:1|0:1,0:1:0:0:
170,66,85308,6,2,P|232:80|293:91,1,125.999996154785,2|0,0:0|0:1,0:1:0:0:
419,44,85653,5,8,0:0:0:0:
436,114,85739,1,2,0:0:0:0:
449,185,85826,1,2,0:0:0:0:
460,256,85912,1,2,0:0:0:0:
470,327,85998,2,0,P|436:319|408:314,1,62.9999980773926,2|0,0:0|0:0,0:0:0:0:
304,271,86343,2,2,P|286:273|271:277,3,31.4999990386963,2|2|2|2,0:1|0:1|0:1|0:1,0:1:0:0:
203,326,86688,6,2,P|138:312|77:304,1,125.999996154785,2|0,0:1|0:1,0:1:0:0:
27,198,87032,6,0,L|34:150,1,45,8|0,0:0|0:0,0:0:0:0:
136,156,87205,2,0,L|143:108,1,45,2|0,0:0|0:0,0:0:0:0:
245,112,87377,2,0,L|252:64,1,45,2|0,0:0|0:0,0:0:0:0:
355,66,87550,2,0,L|362:18,1,45,2|0,0:0|0:0,0:0:0:0:
465,198,87722,5,6,0:0:0:0:
