osu file format v14

[General]
AudioFilename: audio.mp3
AudioLeadIn: 0
PreviewTime: 54826
Countdown: 0
SampleSet: None
StackLeniency: 0.3
Mode: 0
LetterboxInBreaks: 1
WidescreenStoryboard: 1

[Editor]
DistanceSpacing: 2.3
BeatDivisor: 4
GridSize: 32
TimelineZoom: 1

[Metadata]
Title:Genesis
TitleUnicode:Genesis
Artist:STEREO DIVE FOUNDATION
ArtistUnicode:STEREO DIVE FOUNDATION
Creator:sionKotori
Version:EXTREME
Source:Dimension W
Tags:OJBC
BeatmapID:1177112
BeatmapSetID:556184

[Difficulty]
HPDrainRate:7
CircleSize:4.4
OverallDifficulty:8
ApproachRate:9.4
SliderMultiplier:1.8
SliderTickRate:1

[Events]
//Background and Video events
0,0,"BG.jpg",0,0
//Break Periods
//Storyboard Layer 0 (Background)
//Storyboard Layer 1 (Fail)
//Storyboard Layer 2 (Pass)
//Storyboard Layer 3 (Foreground)
//Storyboard Sound Samples

[TimingPoints]
775,344.827586206897,4,2,32,50,1,0
775,-50,4,2,32,50,0,0
3533,-66.6666666666667,4,2,32,50,0,0
4912,-55.5555555555556,4,2,32,50,0,0
5257,-166.666666666667,4,2,32,50,0,0
5947,-66.6666666666667,4,2,32,50,0,0
6292,-83.3333333333333,4,2,32,50,0,0
9050,-166.666666666667,4,2,32,50,0,0
9223,-166.666666666667,4,2,32,52,0,0
9395,-111.111111111111,4,2,32,54,0,0
9568,-111.111111111111,4,2,32,56,0,0
9740,-83.3333333333333,4,2,32,58,0,0
9912,-83.3333333333333,4,2,32,60,0,0
10085,-66.6666666666667,4,2,32,62,0,0
10257,-66.6666666666667,4,2,32,64,0,0
10430,-52.6315789473684,4,2,32,66,0,0
10775,-142.857142857143,4,2,33,90,0,0
11464,-66.6666666666667,4,2,0,50,0,0
11809,-66.6666666666667,4,2,32,60,0,0
22240,-66.6666666666667,4,2,32,40,0,0
22499,-66.6666666666667,4,2,32,60,0,0
22585,-66.6666666666667,4,2,32,40,0,0
22843,-66.6666666666667,4,2,32,55,0,0
32843,-111.111111111111,4,2,32,60,0,0
33533,-50,4,2,32,60,0,0
33878,-71.4285714285714,4,2,33,95,0,0
33964,-71.4285714285714,4,2,33,80,0,0
34568,689.655172413793,4,2,33,80,1,0
34568,-200,4,2,33,80,0,0
35257,344.827586206897,4,2,33,80,1,0
35257,-66.6666666666667,4,2,33,80,0,0
35946,-66.6666666666667,4,2,33,70,0,0
36032,-66.6666666666667,4,2,33,50,0,0
36119,-66.6666666666667,4,2,33,60,0,0
36205,-66.6666666666667,4,2,33,40,0,0
36291,-58.8235294117647,4,2,33,80,0,0
36636,-66.6666666666667,4,2,33,80,0,0
38015,-125,4,2,33,80,0,0
38360,-111.111111111111,4,2,33,80,0,0
38705,-100,4,2,33,80,0,0
39050,-100,4,2,32,80,0,0
39395,344.827586206897,4,2,32,70,1,0
39395,-76.9230769230769,4,2,32,70,0,0
40774,-66.6666666666667,4,2,32,70,0,0
41119,-76.9230769230769,4,2,32,70,0,0
41808,-66.6666666666667,4,2,32,70,0,0
42153,-90.9090909090909,4,2,32,70,0,0
42843,-76.9230769230769,4,2,32,70,0,0
43532,-58.8235294117647,4,2,32,70,0,0
43877,-125,4,2,32,60,0,0
44567,-125,4,2,32,10,0,0
44653,-125,4,2,32,25,0,0
44739,-125,4,2,32,40,0,0
44826,-125,4,2,32,65,0,0
44912,-111.111111111111,4,2,32,40,0,0
50084,-99.9999999999999,4,2,32,40,0,0
50429,-99.9999999999999,4,2,32,50,0,0
53188,-99.9999999999999,4,2,32,40,0,0
54567,-66.6666666666667,4,2,32,60,0,0
55601,-200,4,2,32,60,0,0
55946,-71.4285714285714,4,2,32,70,0,0
65257,-66.6666666666667,4,2,32,70,0,0
65601,-71.4285714285714,4,2,32,70,0,0
65946,-62.5,4,2,33,90,0,0
66981,-66.6666666666667,4,2,32,70,0,0
76636,-111.111111111111,4,2,32,70,0,0
76981,-95.2380952380952,4,2,32,30,0,0
77067,-95.2380952380952,4,2,32,45,0,0
77153,-95.2380952380952,4,2,32,60,0,0
77239,-95.2380952380952,4,2,32,75,0,0
77326,-125,4,2,32,60,0,0
77670,-50,4,2,32,60,0,0
78015,-142.857142857143,4,2,33,90,0,0
78705,-142.857142857143,4,2,32,65,0,0
79395,-76.9230769230769,4,2,32,65,0,0
80084,-142.857142857143,4,2,32,65,0,0
80429,-90.9090909090909,4,2,32,65,0,0
80774,-76.9230769230769,4,2,32,65,0,0
81119,-142.857142857143,4,2,32,65,0,0
81808,-71.4285714285714,4,2,32,65,0,0
82153,-62.5,4,2,33,90,0,0
82843,-76.9230769230769,4,2,32,70,0,0
83188,-76.9230769230769,4,2,33,80,0,0
83532,-142.857142857143,4,2,32,65,0,0
84912,-71.4285714285714,4,2,32,65,0,0
85946,-66.6666666666667,4,2,32,65,0,0
86291,-90.9090909090909,4,2,32,65,0,0
86808,-76.9230769230769,4,2,32,65,0,0
87670,-125,4,2,32,65,0,0

[Colours]
Combo1 : 87,87,87
Combo2 : 255,128,128
Combo3 : 18,124,255
Combo4 : 128,255,128
Combo5 : 255,255,128
Combo6 : 202,202,202

[HitObjects]
195,247,775,6,0,B|230:193|191:141|191:141|256:164|256:164|320:141|320:141|282:192|319:252,1,360,12|0,0:0|0:0,0:0:0:0:
427,137,3533,6,0,B|445:114|402:81|344:96|318:146|341:205|407:205|402:242|376:330,1,270.000010299683,2|0,0:0|0:0,0:0:0:0:
330,334,4912,6,0,P|336:246|455:302,1,242.999992584229
386,295,5257,6,0,L|384:274,3,13.4999995880127
328,202,5430,38,0,L|326:223,3,13.4999995880127
233,277,5602,5,0,0:0:0:0:
220,279,5688,1,0,0:0:0:0:
163,252,5775,5,0,0:0:0:0:
150,254,5861,1,0,0:0:0:0:
105,273,5947,6,0,B|259:253|259:253|202:289,1,202.500007724762
197,135,6292,38,0,B|221:57|221:57|272:120,1,161.999995056153,4|0,0:0|0:0,0:0:0:0:
219,278,6637,6,0,B|139:295|139:295|168:219,1,161.999995056153,4|0,0:0|0:0,0:0:0:0:
332,187,6981,6,0,B|386:246|386:246|306:259,1,161.999995056153,4|0,0:0|0:0,0:0:0:0:
158,145,7326,6,0,B|186:142|186:142|220:161,1,53.9999983520508,4|0,0:0|0:0,0:0:0:0:
319,339,7499,2,0,B|291:342|291:342|257:323,1,53.9999983520508
271,120,7671,38,0,B|322:57|322:57|346:135,1,161.999995056153,4|0,0:0|0:0,0:0:0:0:
237,259,8016,6,0,B|157:246|157:246|211:187,1,161.999995056153,4|0,0:0|0:0,0:0:0:0:
375,220,8361,6,0,B|404:295|404:295|324:278,1,161.999995056153,4|0,0:0|0:0,0:0:0:0:
237,259,8706,5,4,0:0:0:0:
467,221,8878,1,0,0:0:0:0:
188,224,9050,6,0,P|194:242|196:270,1,26.9999991760254,4|0,0:0|0:0,0:0:0:0:
295,196,9223,2,0,P|289:214|287:242,1,26.9999991760254,4|0,0:0|0:0,0:0:0:0:
170,174,9395,6,0,P|180:189|190:221,1,40.4999987640381,4|0,0:0|0:0,0:0:0:0:
313,146,9568,2,0,P|302:161|292:193,1,40.4999987640381,4|0,0:0|0:0,0:0:0:0:
139,130,9740,6,0,P|156:143|176:173,1,53.9999983520508,4|0,0:0|0:0,0:0:0:0:
344,102,9913,2,0,P|327:115|307:145,1,53.9999983520508,4|0,0:0|0:0,0:0:0:0:
97,95,10085,6,0,P|120:102|153:130,1,67.5000025749208,4|0,0:0|0:0,0:0:0:0:
386,67,10258,2,0,P|363:74|330:102,1,67.5000025749208,4|0,0:0|0:0,0:0:0:0:
39,72,10430,6,0,P|131:43|67:150,1,256.499993150711,12|0,0:0|0:0,0:0:0:0:
97,95,10775,22,0,B|148:76|148:76|197:94|197:94|245:69|245:69|304:86,1,220.499993270874,6|0,0:0|0:0,0:0:0:0:
388,111,11464,22,0,B|397:171|397:171|375:235|375:235|386:313,1,202.500007724762
387,323,11809,5,4,0:0:0:0:
512,205,11981,2,0,P|482:216|457:242,1,67.5000025749208
259,127,12154,2,0,P|289:138|314:164,1,67.5000025749208,8|0,0:0|0:0,0:0:0:0:
392,359,12326,6,0,B|375:301|380:220|380:220|367:260|338:287,1,202.500007724762
262,331,12671,1,4,0:0:0:0:
257,338,12757,1,0,0:0:0:0:
252,345,12843,2,0,L|166:356,1,67.5000025749208,8|0,0:0|0:0,0:0:0:0:
39,271,13016,6,0,B|81:265|81:265|123:277|123:277|176:271,1,135.000005149842,0|4,0:0|0:0,0:0:0:0:
82,143,13361,1,0,0:0:0:0:
76,353,13533,1,8,0:0:0:0:
261,253,13706,38,0,B|269:219|269:219|262:185,1,67.5000025749208
212,50,13878,2,0,B|220:84|220:84|213:115,1,67.5000025749208
158,309,14050,2,0,B|150:275|150:275|156:243,1,67.5000025749208,4|0,0:0|0:0,0:0:0:0:
0,182,14223,6,0,B|71:180|136:167|136:167|101:182|78:215,1,202.500007724762,8|0,0:0|0:0,0:0:0:0:
77,284,14568,6,0,B|67:215|67:215|86:161|86:161|75:83,1,202.500007724762,4|0,0:0|0:0,0:0:0:0:
73,71,14912,1,8,0:0:0:0:
171,212,15085,2,0,P|208:247|156:229,1,135.000005149842
1,152,15430,5,4,0:0:0:0:
198,118,15602,1,8,0:0:0:0:
127,329,15775,2,0,P|58:347|16:297,1,135.000005149842,0|4,0:0|0:0,0:0:0:0:
190,228,16119,38,0,B|201:249|201:249|207:308,1,67.5000025749208
297,351,16292,6,0,B|308:330|308:330|314:271,1,67.5000025749208,8|0,0:0|0:0,0:0:0:0:
313,347,16464,2,0,B|324:326|324:326|330:267,1,67.5000025749208
495,236,16637,5,0,0:0:0:0:
283,207,16809,2,0,P|310:196|354:201,1,67.5000025749208,4|0,0:0|0:0,0:0:0:0:
474,137,16981,2,0,B|437:153|437:153|410:264|410:264|435:312,1,202.500007724762,8|0,0:0|0:0,0:0:0:0:
512,370,17326,6,0,L|494:224,1,135.000005149842,4|0,0:0|0:0,0:0:0:0:
401,15,17671,2,0,B|411:47|411:47|403:94,1,67.5000025749208,8|0,0:0|0:0,0:0:0:0:
272,258,17843,2,0,B|301:220|303:162|303:162|326:210|378:235,1,202.500007724762
489,184,18188,1,4,0:0:0:0:
494,177,18274,1,0,0:0:0:0:
499,170,18360,2,0,B|466:157|466:157|418:166,1,67.5000025749208,8|0,0:0|0:0,0:0:0:0:
341,311,18533,38,0,B|377:329|377:329|480:315,1,135.000005149842,0|4,0:0|0:0,0:0:0:0:
323,73,18878,1,0,0:0:0:0:
210,193,19050,1,8,0:0:0:0:
371,231,19223,6,0,B|338:218|338:218|290:227,1,67.5000025749208
104,299,19395,2,0,B|137:312|137:312|185:303,1,67.5000025749208
380,241,19568,2,0,B|347:228|347:228|299:237,1,67.5000025749208,4|0,0:0|0:0,0:0:0:0:
243,364,19740,2,0,B|253:301|253:301|228:243|228:243|238:160,1,202.500007724762,8|0,0:0|0:0,0:0:0:0:
292,104,20085,6,0,P|287:26|221:89,1,202.500007724762,4|0,0:0|0:0,0:0:0:0:
218,86,20430,1,8,0:0:0:0:
41,229,20602,2,0,B|106:247|106:247|167:217,1,135.000005149842
90,105,20947,1,4,0:0:0:0:
117,334,21119,1,8,0:0:0:0:
89,93,21292,2,0,L|96:166,1,67.5000025749208
240,270,21464,6,0,L|247:197,1,67.5000025749208,12|0,0:0|0:0,0:0:0:0:
259,102,21637,1,0,0:0:0:0:
117,334,21809,38,0,L|110:261,1,67.5000025749208,12|0,0:0|0:0,0:0:0:0:
98,166,21982,1,0,0:0:0:0:
369,364,22154,5,12,0:0:0:0:
374,326,22240,1,4,0:0:0:0:
379,288,22326,1,4,0:0:0:0:
384,250,22412,1,4,0:0:0:0:
357,173,22499,2,0,B|392:168|392:168|422:181,1,67.5000025749208,8|4,0:0|0:0,0:0:0:0:
259,102,22671,2,0,B|224:96|224:96|194:109,1,67.5000025749208,4|4,0:0|0:0,0:0:0:0:
354,25,22843,6,0,P|432:8|380:87,1,202.500007724762,4|0,0:0|0:0,0:0:0:0:
391,91,23188,1,8,0:0:0:0:
225,174,23361,2,0,P|287:161|359:173,1,135.000005149842
311,314,23706,2,0,P|314:282|327:246,1,67.5000025749208,4|0,0:0|0:0,0:0:0:0:
278,116,23878,2,0,P|275:84|262:48,1,67.5000025749208,8|0,0:0|0:0,0:0:0:0:
66,192,24050,6,0,B|136:162|205:173|205:173|157:207|148:228,1,202.500007724762,4|0,0:0|0:0,0:0:0:0:
149,221,24395,1,4,0:0:0:0:
111,80,24568,1,8,0:0:0:0:
235,252,24740,1,0,0:0:0:0:
24,273,24912,1,0,0:0:0:0:
251,255,25085,2,0,P|224:244|179:246,1,67.5000025749208,4|0,0:0|0:0,0:0:0:0:
10,268,25257,2,0,B|53:272|88:253|88:253|57:315|64:373,1,202.500007724762,8|0,0:0|0:0,0:0:0:0:
40,357,25602,38,0,P|100:370|176:346,1,135.000005149842,4|0,0:0|0:0,0:0:0:0:
263,126,25947,2,0,B|257:191|257:191|280:249|280:249|271:332,1,202.500007724762,8|0,0:0|0:0,0:0:0:0:
271,339,26292,1,0,0:0:0:0:
131,282,26464,2,0,P|162:275|193:258,1,67.5000025749208,4|0,0:0|0:0,0:0:0:0:
412,207,26637,2,0,P|381:200|350:183,1,67.5000025749208,8|0,0:0|0:0,0:0:0:0:
189,151,26809,6,0,B|198:99|181:18|181:18|221:85,1,202.500007724762,4|0,0:0|0:0,0:0:0:0:
222,91,27154,1,4,0:0:0:0:
67,86,27326,1,8,0:0:0:0:
301,110,27499,1,0,0:0:0:0:
37,94,27671,6,0,L|114:99,1,67.5000025749208
318,124,27843,2,0,B|286:135|286:135|185:127,1,135.000005149842,4|8,0:0|0:0,0:0:0:0:
37,290,28188,6,0,L|114:285,1,67.5000025749208
321,351,28361,38,0,P|289:288|178:332,1,202.500007724762,4|0,0:0|0:0,0:0:0:0:
248,344,28706,6,0,B|295:327|295:327|341:344|341:344|384:322|384:322|436:344,1,202.500007724762,8|0,0:0|0:0,0:0:0:0:
471,346,29050,6,0,L|393:314,1,67.5000025749208
298,164,29223,2,0,L|376:196,1,67.5000025749208,4|0,0:0|0:0,0:0:0:0:
503,345,29395,2,0,L|425:313,1,67.5000025749208,8|0,0:0|0:0,0:0:0:0:
193,136,29568,6,0,B|262:145|318:131|366:106|366:106|338:151|281:170,1,270.000010299683,4|4,0:0|0:0,0:0:0:0:
443,24,30085,2,0,P|517:13|475:96,1,202.500007724762,8|0,0:0|0:0,0:0:0:0:
471,97,30430,1,0,0:0:0:0:
211,37,30602,2,0,P|245:39|284:56,1,67.5000025749208,4|0,0:0|0:0,0:0:0:0:
390,156,30775,2,0,L|315:163,1,67.5000025749208,8|0,0:0|0:0,0:0:0:0:
233,171,30947,2,0,L|158:178,1,67.5000025749208
11,301,31119,38,0,B|41:272|41:272|156:282|156:282|183:321,1,202.500007724762,4|0,0:0|0:0,0:0:0:0:
313,356,31464,2,0,P|267:295|361:303,1,202.500007724762,8|0,0:0|0:0,0:0:0:0:
358,298,31809,1,0,0:0:0:0:
202,218,31981,1,4,0:0:0:0:
447,258,32154,2,0,P|455:289|448:327,1,67.5000025749208,8|0,0:0|0:0,0:0:0:0:
292,367,32326,2,0,B|277:299|277:299|295:239|295:239|282:166,1,202.500007724762,4|0,0:0|0:0,0:0:0:0:
259,158,32671,2,0,L|337:169,1,67.5000025749208,4|0,0:0|0:0,0:0:0:0:
499,62,32843,54,0,P|515:139|407:76,1,283.499991348267,8|0,0:0|0:0,0:0:0:0:
490,88,33533,54,2,P|463:161|421:103,1,180,2|0,0:2|0:2,0:2:0:0:
412,109,33878,6,0,B|545:88|545:88|501:137,1,188.999994232178,8|0,0:0|0:0,0:0:0:0:
449,253,34223,2,0,B|438:226|438:226|446:190,1,62.9999980773926,2|0,0:0|0:0,0:0:0:0:
468,337,34395,1,0,0:0:0:0:
468,337,34481,1,0,0:0:0:0:
507,348,34568,6,0,L|511:368,1,16.875,2|0,0:0|0:0,0:0:0:0:
342,331,34740,2,0,L|338:311,1,16.875,2|0,0:0|0:0,0:0:0:0:
455,175,34912,2,0,L|435:179,1,16.875,2|0,0:0|0:0,0:0:0:0:
220,256,35085,2,0,L|240:252,1,16.875,2|0,0:0|0:0,0:0:0:0:
430,180,35257,38,0,B|357:192|357:192|326:236|326:236|253:250,1,202.500007724762,6|0,0:0|0:0,0:0:0:0:
407,262,35601,2,0,L|457:270,7,33.7500012874604,2|2|2|2|2|2|2|2,0:0|0:0|0:0|0:0|0:0|0:0|0:0|0:0,0:0:0:0:
280,168,35946,5,2,0:0:0:0:
282,153,36032,1,2,0:0:0:0:
322,107,36119,1,2,0:0:0:0:
324,92,36205,1,2,0:0:0:0:
285,49,36291,2,0,P|203:23|224:129,1,229.500004377365,6|0,0:0|0:0,0:0:0:0:
458,47,36636,6,0,B|433:38|433:38|376:44,1,67.5000025749208,2|0,0:0|0:0,0:0:0:0:
394,48,36808,2,0,B|435:44|435:44|460:53,1,67.5000025749208,2|0,0:0|0:0,0:0:0:0:
294,170,36981,2,0,P|277:181|302:178,1,67.5000025749208,6|0,0:0|0:0,0:0:0:0:
420,121,37153,1,0,0:0:0:0:
420,121,37239,1,0,0:0:0:0:
420,121,37325,38,0,L|429:196,1,67.5000025749208,2|0,0:0|0:0,0:0:0:0:
409,357,37498,1,0,0:0:0:0:
413,344,37584,1,0,0:0:0:0:
467,339,37670,2,0,B|417:329|417:329|378:357|378:357|327:339|327:339|267:371,1,202.500007724762,6|0,0:0|0:0,0:0:0:0:
152,352,38015,6,0,L|129:349,7,18
249,286,38360,6,0,L|276:282,7,20.2499993820191
149,227,38705,6,0,L|117:222,7,22.5
277,173,39050,37,4,0:0:0:0:
293,255,39395,6,0,P|211:120|356:199,1,438.74997991562,4|0,0:0|0:0,0:0:0:0:
277,173,40084,2,0,L|348:166,1,58.4999973220826,8|0,0:0|0:0,0:0:0:0:
193,325,40257,2,0,L|264:332,1,58.4999973220826
54,179,40429,2,0,L|125:172,1,58.4999973220826
336,65,40601,1,0,0:0:0:0:
336,65,40688,1,0,0:0:0:0:
336,65,40774,6,0,B|193:54|193:54|271:81,1,202.500007724762,4|0,0:0|0:0,0:0:0:0:
261,90,41119,2,0,L|255:24,1,58.4999973220826
112,173,41291,2,0,L|118:107,1,58.4999973220826
241,223,41463,5,8,0:0:0:0:
242,242,41550,1,0,0:0:0:0:
200,287,41636,1,0,0:0:0:0:
199,306,41723,1,0,0:0:0:0:
240,347,41808,2,0,B|264:330|264:330|135:334|135:334|179:370,1,202.500007724762
136,234,42153,38,0,L|131:183,3,49.5000015106202,4|0|0|0,0:0|0:0|0:0|0:0,0:0:0:0:
57,272,42498,2,0,L|52:221,1,49.5000015106202
36,79,42670,1,0,0:0:0:0:
36,79,42757,1,0,0:0:0:0:
36,79,42843,6,0,L|104:87,1,58.4999973220826,8|0,0:0|0:0,0:0:0:0:
251,102,43015,1,0,0:0:0:0:
52,222,43188,1,0,0:0:0:0:
176,17,43360,2,0,P|180:45|173:79,1,58.4999973220826
211,293,43532,6,0,B|154:271|155:206|201:170|201:170|249:185|244:235,1,229.500004377365,4|0,0:0|0:0,0:0:0:0:
278,255,43877,22,0,B|225:239|225:239|180:260|180:260|122:244|122:244|69:270,1,216
30,328,44481,1,0,0:0:0:0:
24,339,44567,2,0,L|47:336,7,18,2|2|2|2|2|2|2|2,0:0|0:0|0:0|0:0|0:0|0:0|0:0|0:0,0:0:0:0:
118,349,44912,21,4,0:0:0:0:
118,349,45257,1,4,0:0:0:0:
118,349,45601,1,4,0:0:0:0:
118,349,45946,1,4,0:0:0:0:
258,313,46291,1,4,0:0:0:0:
258,313,46636,1,4,0:0:0:0:
408,324,46981,1,4,0:0:0:0:
172,276,47326,1,4,0:0:0:0:
428,220,47670,5,4,0:0:0:0:
183,369,48015,1,4,0:0:0:0:
183,369,48188,1,0,0:0:0:0:
172,276,48360,2,0,L|163:195,1,80.9999975280763,4|0,0:0|0:0,0:0:0:0:
504,164,48705,5,4,0:0:0:0:
284,77,49050,1,4,0:0:0:0:
284,77,49223,1,0,0:0:0:0:
273,170,49395,2,0,L|264:251,1,80.9999975280763,4|0,0:0|0:0,0:0:0:0:
77,327,49739,6,0,L|209:315,1,121.499996292114,4|0,0:0|0:0,0:0:0:0:
398,263,50084,2,0,L|254:249,1,135
171,231,50429,38,0,L|175:282,1,45,4|0,0:0|0:0,0:0:0:0:
154,218,50601,2,0,L|158:269,1,45,4|0,0:0|0:0,0:0:0:0:
137,205,50774,2,0,L|141:256,1,45,4|0,0:0|0:0,0:0:0:0:
120,192,50946,2,0,L|124:243,1,45,4|0,0:0|0:0,0:0:0:0:
48,98,51119,6,0,L|52:149,1,45,4|0,0:0|0:0,0:0:0:0:
186,75,51291,2,0,L|182:126,1,45,4|0,0:0|0:0,0:0:0:0:
48,74,51463,6,0,L|52:125,1,45,4|0,0:0|0:0,0:0:0:0:
186,51,51635,2,0,L|182:102,1,45,4|0,0:0|0:0,0:0:0:0:
161,226,51808,6,0,B|185:230|185:230|214:223,1,45,4|0,0:0|0:0,0:0:0:0:
323,193,51981,2,0,B|347:189|347:189|376:196,1,45,4|0,0:0|0:0,0:0:0:0:
472,298,52153,1,4,0:0:0:0:
476,260,52239,1,0,0:0:0:0:
480,222,52326,1,4,0:0:0:0:
484,184,52412,1,0,0:0:0:0:
488,146,52498,38,0,L|428:157,1,45,4|0,0:0|0:0,0:0:0:0:
281,85,52671,2,0,L|341:74,1,45,4|0,0:0|0:0,0:0:0:0:
415,12,52843,2,0,L|426:72,1,45,4|0,0:0|0:0,0:0:0:0:
367,193,53015,2,0,L|356:253,1,45,4|0,0:0|0:0,0:0:0:0:
336,367,53188,5,4,0:0:0:0:
319,367,53274,1,4,0:0:0:0:
302,367,53360,1,4,0:0:0:0:
285,367,53446,1,4,0:0:0:0:
268,367,53532,1,4,0:0:0:0:
251,367,53619,1,4,0:0:0:0:
234,367,53705,1,4,0:0:0:0:
217,367,53791,1,4,0:0:0:0:
199,366,53877,5,4,0:0:0:0:
138,347,53963,1,4,0:0:0:0:
104,294,54050,1,4,0:0:0:0:
112,232,54136,1,4,0:0:0:0:
158,189,54222,1,4,0:0:0:0:
221,185,54308,1,4,0:0:0:0:
271,223,54395,1,4,0:0:0:0:
285,285,54481,1,4,0:0:0:0:
195,277,54567,5,4,0:0:0:0:
199,192,54653,2,0,L|204:48,1,135.000005149842,4|0,0:0|0:0,0:0:0:0:
355,141,54912,2,0,L|284:136,1,67.5000025749208
52,65,55084,2,0,L|123:60,1,67.5000025749208,4|0,0:0|0:0,0:0:0:0:
280,281,55257,1,0,0:0:0:0:
195,277,55343,2,0,L|51:272,1,135.000005149842,4|0,0:0|0:0,0:0:0:0:
131,195,55601,6,0,L|206:191,1,67.5,4|0,0:0|0:0,0:0:0:0:
330,136,55946,22,0,B|264:141|264:141|219:175|219:175|152:181,1,188.999994232178,4|0,0:0|0:0,0:0:0:0:
131,195,56291,2,0,L|124:118,1,62.9999980773926,8|0,0:0|0:0,0:0:0:0:
115,39,56463,1,0,0:0:0:0:
287,227,56636,5,0,0:0:0:0:
76,271,56808,1,4,0:0:0:0:
223,75,56981,2,0,L|216:152,1,62.9999980773926,8|0,0:0|0:0,0:0:0:0:
201,286,57153,2,0,L|207:224,1,62.9999980773926
141,52,57326,5,4,0:0:0:0:
305,98,57498,1,0,0:0:0:0:
144,229,57670,2,0,L|206:223,1,62.9999980773926,8|0,0:0|0:0,0:0:0:0:
292,212,57842,2,0,L|355:207,1,62.9999980773926
509,113,58015,6,0,P|487:91|458:79,1,62.9999980773926
262,142,58188,2,0,P|279:115|305:98,1,62.9999980773926,4|0,0:0|0:0,0:0:0:0:
373,9,58360,2,0,L|392:196,1,188.999994232178,8|0,0:0|0:0,0:0:0:0:
341,276,58705,38,0,B|402:290|402:290|466:256,1,125.999996154785,4|0,0:0|0:0,0:0:0:0:
218,208,59050,1,8,0:0:0:0:
392,197,59222,1,0,0:0:0:0:
251,344,59395,2,0,L|263:247,1,62.9999980773926
281,144,59567,1,4,0:0:0:0:
21,209,59739,6,0,B|63:209|94:188|94:188|129:210|129:210|156:197|202:205,1,188.999994232178,8|0,0:0|0:0,0:0:0:0:
218,208,60084,1,4,0:0:0:0:
100,314,60257,1,0,0:0:0:0:
211,123,60429,2,0,P|243:123|282:149,1,62.9999980773926,8|0,0:0|0:0,0:0:0:0:
270,279,60601,2,0,P|242:293|211:293,1,62.9999980773926
113,213,60773,5,0,0:0:0:0:
323,203,60946,2,0,L|249:196,1,62.9999980773926,4|0,0:0|0:0,0:0:0:0:
121,117,61119,2,0,L|134:331,1,188.999994232178,8|0,0:0|0:0,0:0:0:0:
92,341,61463,6,0,B|197:324|158:389|277:366,1,188.999994232178,4|0,0:0|0:0,0:0:0:0:
375,363,61808,2,0,L|385:298,1,62.9999980773926,8|0,0:0|0:0,0:0:0:0:
401,208,61981,1,0,0:0:0:0:
231,289,62153,37,0,0:0:0:0:
472,268,62326,1,4,0:0:0:0:
175,224,62498,2,0,P|198:210|239:207,1,62.9999980773926
399,187,62670,2,0,P|376:173|335:170,1,62.9999980773926
175,106,62843,5,4,0:0:0:0:
356,71,63015,1,0,0:0:0:0:
242,333,63188,2,0,L|261:125,1,188.999994232178,8|0,0:0|0:0,0:0:0:0:
265,52,63532,5,0,0:0:0:0:
112,116,63705,2,0,L|198:101,1,62.9999980773926,4|0,0:0|0:0,0:0:0:0:
371,40,63877,2,0,B|227:27|227:27|269:54,1,188.999994232178,8|0,0:0|0:0,0:0:0:0:
455,151,64222,6,0,P|476:92|454:29,1,125.999996154785,4|0,0:0|0:0,0:0:0:0:
294,134,64567,1,8,0:0:0:0:
512,233,64739,38,0,B|448:239|448:239|407:269|407:269|325:277,1,188.999994232178
241,314,65084,2,0,L|253:244,1,62.9999980773926,4|0,0:0|0:0,0:0:0:0:
351,103,65257,2,0,P|396:129|308:156,1,202.500007724762,8|0,0:0|0:0,0:0:0:0:
216,36,65601,6,0,L|226:176,1,125.999996154785,4|0,0:0|0:0,0:0:0:0:
384,365,65946,2,0,L|400:138,1,216,4|0,0:2|0:0,0:0:0:0:
362,64,66291,6,0,B|395:52|395:52|437:61,1,72,4|0,0:0|0:0,0:0:0:0:
512,248,66463,2,0,B|475:255|475:255|442:243,1,72
241,165,66636,2,0,B|400:148|400:148|343:202,1,216,4|0,0:0|0:0,0:0:0:0:
310,369,66981,6,0,L|296:214,1,135.000005149842,4|0,0:0|0:0,0:0:0:0:
278,38,67326,1,8,0:0:0:0:
100,246,67498,38,0,P|161:217|144:312,1,202.500007724762
144,312,67843,1,4,0:0:0:0:
39,132,68015,2,0,P|69:132|110:153,1,67.5000025749208,8|0,0:0|0:0,0:0:0:0:
332,218,68188,2,0,P|302:224|267:254,1,67.5000025749208
200,362,68360,6,0,L|182:141,1,202.500007724762,4|0,0:0|0:0,0:0:0:0:
170,79,68705,2,0,L|255:94,1,67.5000025749208,8|0,0:0|0:0,0:0:0:0:
364,195,68877,2,0,L|279:180,1,67.5000025749208
91,65,69050,5,0,0:0:0:0:
309,47,69222,1,4,0:0:0:0:
242,260,69395,2,0,B|173:255|173:255|116:280|116:280|24:276,1,202.500007724762,8|0,0:0|0:0,0:0:0:0:
55,183,69739,6,0,P|73:148|86:206,1,135.000005149842,4|0,0:0|0:0,0:0:0:0:
266,349,70084,2,0,L|182:341,1,67.5000025749208,8|0,0:0|0:0,0:0:0:0:
44,276,70257,2,0,L|128:284,1,67.5000025749208
289,147,70429,2,0,L|263:369,1,202.500007724762
188,248,70774,38,0,B|283:219|283:219|372:280,1,202.500007724762,12|0,0:0|0:0,0:0:0:0:
378,286,71119,1,0,0:0:0:0:
257,132,71291,2,0,L|335:145,1,67.5000025749208,4|0,0:0|0:0,0:0:0:0:
429,164,71463,1,8,0:0:0:0:
188,248,71636,1,0,0:0:0:0:
245,65,71808,6,0,L|258:143,1,67.5000025749208
285,265,71981,1,4,0:0:0:0:
149,49,72153,2,0,L|355:67,1,202.500007724762,8|0,0:0|0:0,0:0:0:0:
498,164,72498,6,0,P|502:80|426:116,1,202.500007724762,4|0,0:0|0:0,0:0:0:0:
326,213,72843,2,0,L|404:206,1,67.5000025749208,8|0,0:0|0:0,0:0:0:0:
512,193,73015,1,0,0:0:0:0:
243,61,73188,5,0,0:0:0:0:
462,87,73360,1,4,0:0:0:0:
316,10,73532,2,0,L|327:239,1,202.500007724762,8|0,0:0|0:0,0:0:0:0:
395,299,73877,38,0,B|360:324|360:324|249:302|249:302|225:261,1,202.500007724762,4|0,0:0|0:0,0:0:0:0:
201,186,74222,1,8,0:0:0:0:
352,75,74395,2,0,L|357:156,1,67.5000025749208
302,312,74567,6,0,B|325:272|325:272|436:250|436:250|471:275,1,202.500007724762
475,368,74912,2,0,B|464:303|464:303|480:249|480:249|466:162,1,202.500007724762,8|0,0:0|0:0,0:0:0:0:
375,46,75257,6,0,P|418:11|413:104,1,202.500007724762,4|0,0:0|0:0,0:0:0:0:
268,125,75601,2,0,L|346:132,1,67.5000025749208,8|0,0:0|0:0,0:0:0:0:
465,210,75774,2,0,L|262:223,1,202.500007724762
178,229,76119,1,4,0:0:0:0:
400,328,76291,1,8,0:0:0:0:
209,84,76463,2,0,L|213:152,1,67.5000025749208
316,372,76636,6,0,L|307:250,1,121.499996292114,4|0,0:0|0:0,0:0:0:0:
346,186,76981,2,0,L|324:162,7,23.6249992790222,2|2|2|2|2|2|2|2,0:0|0:0|0:0|0:0|0:0|0:0|0:0|0:0,0:0:0:0:
344,161,77326,6,0,L|335:46,1,108
345,52,77670,54,0,P|240:29|304:111,1,270,12|0,0:0|0:0,0:0:0:0:
496,45,78015,22,0,B|448:28|448:28|393:50|393:50|343:34|343:34|277:63,1,220.499993270874,14|0,0:0|0:0,0:0:0:0:
35,194,78705,6,0,L|90:189,1,31.4999990386963,8|0,0:0|0:0,0:0:0:0:
217,126,78877,2,0,L|162:121,1,31.4999990386963
49,110,79050,1,0,0:0:0:0:
193,21,79222,1,0,0:0:0:0:
193,21,79308,1,0,0:0:0:0:
193,21,79395,6,0,L|182:150,1,116.999994644165,4|0,0:0|0:0,0:0:0:0:
137,250,79653,1,0,0:0:0:0:
139,273,79739,2,0,L|142:312,7,29.2499986610413
224,263,80084,6,0,L|259:266,1,31.4999990386963,8|0,0:0|0:0,0:0:0:0:
54,290,80257,2,0,L|19:287,1,31.4999990386963
133,203,80429,2,0,L|144:351,1,148.50000453186
213,176,80774,6,0,L|211:146,7,29.2499986610413,4|0|0|0|0|0|0|0,0:0|0:0|0:0|0:0|0:0|0:0|0:0|0:0,0:0:0:0:
158,78,81119,22,0,L|254:72,1,94.499997116089
310,17,81463,5,8,0:0:0:0:
350,19,81550,1,0,0:0:0:0:
401,79,81636,1,0,0:0:0:0:
441,77,81723,1,0,0:0:0:0:
512,20,81808,6,0,L|503:149,1,125.999996154785
451,271,82067,1,0,0:0:0:0:
461,320,82153,6,0,P|474:218|401:239,1,216,4|0,0:0|0:0,0:0:0:0:
203,314,82498,2,0,L|284:311,1,72,4|0,0:0|0:0,0:0:0:0:
374,308,82670,1,0,0:0:0:0:
154,243,82843,6,0,P|241:235|278:310,1,175.499991966248,8|0,0:0|0:0,0:0:0:0:
378,366,83188,2,0,L|365:183,1,175.499991966248,4|0,0:0|0:0,0:0:0:0:
203,314,83532,22,0,B|280:307|280:307|334:325|334:325|423:316,1,220.499993270874,4|0,0:0|0:0,0:0:0:0:
493,124,84222,6,0,L|448:119,1,31.4999990386963,8|0,0:0|0:0,0:0:0:0:
334,194,84395,2,0,L|379:189,1,31.4999990386963
496,256,84567,2,0,L|451:251,1,31.4999990386963
356,48,84739,1,0,0:0:0:0:
356,48,84826,1,0,0:0:0:0:
356,48,84912,6,0,L|371:252,1,188.999994232178,4|0,0:0|0:0,0:0:0:0:
377,316,85257,2,0,L|331:312,7,31.4999990386963
272,304,85601,5,8,0:0:0:0:
233,300,85688,1,0,0:0:0:0:
153,268,85774,1,0,0:0:0:0:
114,272,85861,1,0,0:0:0:0:
23,290,85946,6,0,B|50:243|47:155|47:155|66:202|104:245,1,202.500007724762
141,135,86291,6,0,P|145:154|135:139,1,49.5000015106202,4|0,0:0|0:0,0:0:0:0:
56,52,86463,1,0,0:0:0:0:
56,52,86550,1,0,0:0:0:0:
56,52,86636,2,0,L|117:47,1,49.5000015106202
225,16,86808,38,0,L|235:197,1,175.499991966248
237,208,87153,1,0,0:0:0:0:
369,82,87326,2,0,L|310:87,1,58.4999973220826
89,173,87498,2,0,L|148:168,1,58.4999973220826
380,281,87670,54,0,B|335:276|314:254|314:254|302:283|260:305,1,144,12|0,0:0|0:0,0:0:0:0:
