osu file format v14

[General]
AudioFilename: DW-OP_test.mp3
AudioLeadIn: 0
PreviewTime: 55055
Countdown: 0
SampleSet: Normal
StackLeniency: 0.7
Mode: 0
LetterboxInBreaks: 0
WidescreenStoryboard: 0

[Editor]
Bookmarks: 75055
DistanceSpacing: 1
BeatDivisor: 4
GridSize: 4
TimelineZoom: 1.7

[Metadata]
Title:Genesis (TV Size)
TitleUnicode:Genesis(TV Size)
Artist:STEREO DIVE FOUNDATION
ArtistUnicode:STEREO DIVE FOUNDATION
Creator:Warpyc
Version:Insane
Source:Dimension W
Tags:Yuii- Arf StarrStyx -Mo- rfandomization ディメンション ダブリュー Studio 3Hz Yurizaki Mira 百合崎・ミラ Kyouma Mabuchi マブチ・キョーマ Loser ルーザー ジュリアン・タイラー=スミス
BeatmapID:880889
BeatmapSetID:405236

[Difficulty]
HPDrainRate:6.5
CircleSize:4
OverallDifficulty:8
ApproachRate:9
SliderMultiplier:1.5
SliderTickRate:1

[Events]
//Background and Video events
0,0,"Dimension W new bg.jpg",0,0
//Break Periods
//Storyboard Layer 0 (Background)
//Storyboard Layer 1 (Fail)
//Storyboard Layer 2 (Pass)
//Storyboard Layer 3 (Foreground)
//Storyboard Sound Samples

[TimingPoints]
1004,344.827586206897,4,1,1,60,1,0
1004,-100,4,3,0,20,0,0
2383,-100,4,3,0,25,0,0
2900,-100,4,3,0,30,0,0
3417,-100,4,3,0,35,0,0
3935,-100,4,3,0,40,0,0
4452,-100,4,3,0,45,0,0
5141,-100,4,3,0,50,0,0
6521,-100,4,3,0,60,0,0
33590,-76.9230769230769,4,2,0,60,0,0
33848,-76.9230769230769,4,1,1,60,0,0
38590,-100,4,1,1,60,0,0
40314,-100,4,3,0,60,0,0
40400,-100,4,1,1,60,0,0
41693,-100,4,3,0,60,0,0
42383,-76.9230769230769,4,3,0,60,0,0
42728,-100,4,1,1,60,0,0
43072,-100,4,3,0,60,0,0
43590,-76.9230769230769,4,3,0,60,0,0
44107,-100,4,2,1,20,0,0
45141,-100,4,1,0,25,0,0
50659,-100,4,1,1,30,0,0
51348,-90.9090909090909,4,1,1,35,0,0
52038,-83.3333333333333,4,1,1,40,0,0
52728,-76.9230769230769,4,1,1,45,0,0
53417,-71.4285714285714,4,1,1,50,0,0
54107,-66.6666666666667,4,1,1,55,0,0
54797,-66.6666666666667,4,3,0,60,0,0
56176,-83.3333333333333,4,1,1,70,0,1
56521,-83.3333333333333,4,3,0,70,0,1
67210,-83.3333333333333,4,1,1,70,0,1
67555,-83.3333333333333,4,3,0,70,0,1
78245,-133.333333333333,4,1,1,60,0,0
78935,-76.9230769230769,4,3,0,60,0,0
81348,-133.333333333333,4,1,1,60,0,0
81693,-76.9230769230769,4,3,0,60,0,0
82383,-66.6666666666667,4,3,0,60,0,0
83676,-66.6666666666667,4,1,1,60,0,0
83848,-76.9230769230769,4,3,0,60,0,0
85141,-133.333333333333,4,3,0,60,0,0
85659,-76.9230769230769,4,3,0,60,0,0
86176,-133.333333333333,4,3,0,60,0,0
87383,-76.9230769230769,4,3,0,60,0,0
87900,-100,4,1,1,60,0,0

[Colours]
Combo1 : 74,74,74
Combo2 : 128,255,128
Combo3 : 0,234,234
Combo4 : 255,145,255

[HitObjects]
127,241,1004,6,0,P|127:202|141:160,1,75,4|0,0:0|0:0,0:0:0:0:
213,120,1348,2,0,P|223:155|223:193,1,75
132,70,1693,1,0,0:0:0:0:
237,27,1866,1,0,0:0:0:0:
213,120,2038,1,0,0:0:0:0:
312,107,2210,1,0,0:0:0:0:
361,193,2383,5,0,0:0:0:0:
407,111,2555,1,0,0:0:0:0:
454,193,2728,1,0,0:0:0:0:
335,232,2900,5,0,0:0:0:0:
390,133,3072,1,0,0:0:0:0:
446,232,3245,1,0,0:0:0:0:
309,276,3417,5,0,0:0:0:0:
375,157,3589,1,0,0:0:0:0:
442,276,3762,1,0,0:0:0:0:
335,341,3935,5,0,0:0:0:0:
256,217,4107,2,0,P|238:181|233:124,1,75
278,12,4452,2,0,P|296:48|301:105,1,75
256,217,4797,1,0,0:0:0:0:
278,12,4969,1,0,0:0:0:0:
428,155,5141,6,0,B|455:226|455:226|415:300,1,150,8|8,0:0|0:0,0:0:0:0:
335,243,5659,2,0,L|335:319,1,75,8|8,0:0|0:0,0:0:0:0:
234,292,6004,1,8,0:0:0:0:
233,272,6090,1,8,0:0:0:0:
233,253,6176,2,0,B|233:157,1,75,8|0,0:0|0:0,0:0:0:0:
101,171,6521,5,12,0:0:0:0:
107,96,6866,1,12,0:0:0:0:
115,21,7210,1,12,0:0:0:0:
163,199,7555,5,12,0:0:0:0:
186,127,7900,1,12,0:0:0:0:
210,57,8245,1,12,0:0:0:0:
207,250,8590,5,12,0:0:0:0:
268,187,8935,1,12,0:0:0:0:
293,104,9279,5,4,0:0:0:0:
304,274,9452,1,4,0:0:0:0:
196,143,9624,1,4,0:0:0:0:
360,184,9797,1,4,0:0:0:0:
202,248,9969,1,4,0:0:0:0:
293,104,10141,1,4,0:0:0:0:
304,274,10314,1,4,0:0:0:0:
168,349,10486,1,4,0:0:0:0:
31,274,10659,6,0,B|21:238|21:238|31:186,1,75,4|0,0:0|0:0,0:0:0:0:
88,327,11004,1,0,0:0:0:0:
125,56,11348,1,0,0:0:0:0:
153,45,11435,1,0,0:0:0:0:
183,47,11521,1,0,0:0:0:0:
212,52,11607,1,0,0:0:0:0:
241,57,11693,2,0,P|310:62|377:56,1,112.5
375,60,12038,5,8,0:0:0:0:
464,157,12210,1,0,0:0:0:0:
360,239,12383,1,4,0:0:0:0:
455,330,12555,2,0,L|374:330,1,75
249,350,12900,1,8,0:0:0:0:
148,216,13072,1,4,0:0:0:0:
316,227,13245,6,0,P|352:203|371:164,1,75,0|8,0:0|0:0,0:0:0:0:
388,8,13590,1,0,0:0:0:0:
291,149,13762,2,0,L|209:149,1,75,4|0,0:0|0:0,0:0:0:0:
141,236,14107,1,0,0:0:0:0:
84,137,14279,1,8,0:0:0:0:
164,5,14452,1,4,0:0:0:0:
221,104,14624,1,8,0:0:0:0:
354,45,14797,6,0,P|401:107|424:185,1,150,8|4,0:0|0:0,0:0:0:0:
435,309,15314,1,0,0:0:0:0:
306,343,15486,1,0,0:0:0:0:
337,213,15659,1,8,0:0:0:0:
203,290,15831,1,4,0:0:0:0:
359,284,16004,6,0,L|335:207,1,75
401,82,16348,1,0,0:0:0:0:
482,204,16521,2,0,L|397:204,1,75,4|0,0:0|0:0,0:0:0:0:
260,226,16866,1,0,0:0:0:0:
201,339,17038,1,8,0:0:0:0:
143,201,17210,1,4,0:0:0:0:
202,88,17383,1,0,0:0:0:0:
334,225,17555,6,0,B|249:225,2,75,8|0|4,0:0|0:0|0:0,0:0:0:0:
412,122,18072,2,0,P|440:148|457:194,1,75
443,311,18417,1,8,0:0:0:0:
295,341,18590,1,4,0:0:0:0:
355,226,18762,1,0,0:0:0:0:
462,169,18935,6,0,B|461:79,2,75,8|0|4,0:0|0:0|0:0,0:0:0:0:
405,275,19452,2,0,P|370:292|321:290,1,75
216,239,19797,1,8,0:0:0:0:
356,184,19969,1,4,0:0:0:0:
356,184,20056,1,4,0:0:0:0:
356,184,20141,1,4,0:0:0:0:
275,62,20314,6,0,B|315:53|354:38,2,75,8|0|4,0:0|0:0|0:0,0:0:0:0:
120,111,20831,2,0,B|124:152|160:179,1,75
334,266,21176,1,8,0:0:0:0:
275,62,21348,1,4,0:0:0:0:
431,155,21521,1,8,0:0:0:0:
299,330,21693,5,4,0:0:0:0:
302,111,21866,1,8,0:0:0:0:
428,290,22038,1,4,0:0:0:0:
221,219,22210,1,8,0:0:0:0:
431,155,22383,1,4,0:0:0:0:
435,192,22469,1,0,0:0:0:0:
430,229,22555,1,0,0:0:0:0:
417,264,22641,1,0,0:0:0:0:
396,295,22727,1,4,0:0:0:0:
368,320,22813,1,0,0:0:0:0:
335,336,22900,1,0,0:0:0:0:
298,345,22986,1,0,0:0:0:0:
261,352,23072,6,0,B|228:348|207:357|207:357|168:341|133:280,1,150,4|8,0:0|0:0,0:0:0:0:
87,166,23590,2,0,B|100:131|134:109,1,75
265,61,23935,1,8,0:0:0:0:
178,194,24107,1,4,0:0:0:0:
221,349,24279,6,0,B|307:379|363:303,1,150,0|8,0:0|0:0,0:0:0:0:
214,258,24797,2,0,P|155:221|130:140,1,150
189,5,25314,1,8,0:0:0:0:
240,149,25486,1,4,0:0:0:0:
365,262,25659,1,0,0:0:0:0:
267,382,25831,6,0,B|267:333|267:333|255:280|255:280|255:224,1,150,8|4,0:0|0:0,0:0:0:0:
184,149,26348,2,0,L|184:234,1,75
236,346,26693,1,8,0:0:0:0:
277,165,26866,1,4,0:0:0:0:
476,274,27038,6,0,B|403:283|403:283|316:275,1,150,8|8,0:0|0:0,0:0:0:0:
187,214,27555,1,4,0:0:0:0:
276,90,27728,2,0,B|275:177,1,75
265,321,28072,1,8,0:0:0:0:
177,181,28245,1,4,0:0:0:0:
276,90,28417,1,0,0:0:0:0:
413,306,28590,6,0,B|363:306|363:306|318:321|318:321|259:321,1,150,8|4,0:0|0:0,0:0:0:0:
178,226,29107,2,0,L|195:300,1,75
70,299,29452,1,8,0:0:0:0:
184,144,29624,1,4,0:0:0:0:
319,317,29797,6,0,P|379:292|415:215,1,150,0|8,0:0|0:0,0:0:0:0:
322,74,30314,2,0,B|283:141|320:233,1,150,4|0,0:0|0:0,0:0:0:0:
416,308,30831,1,8,0:0:0:0:
446,159,31004,1,4,0:0:0:0:
322,74,31176,1,0,0:0:0:0:
194,154,31348,2,0,B|175:226|175:226|194:306,1,150,8|4,0:0|0:0,0:0:0:0:
425,332,32038,5,0,0:0:0:0:
293,224,32210,1,8,0:0:0:0:
465,204,32383,1,4,0:0:0:0:
308,102,32555,2,0,B|222:45|222:45|245:108,1,150,0|8,0:0|0:0,0:0:0:0:
280,210,33072,2,0,P|280:259|198:232,1,150
200,250,33590,6,0,L|295:301,1,97.4999955368044
275,154,34107,6,0,B|275:184|309:208|309:208|408:241|370:333|370:333,1,194.999991073609,4|0,0:0|0:0,0:0:0:0:
283,345,34624,1,0,0:0:0:0:
283,345,34710,1,0,0:0:0:0:
283,345,34797,2,0,L|249:311,1,48.7499977684022
142,178,34969,6,0,L|190:144,1,48.7499977684022
344,95,35141,2,0,L|296:129,1,48.7499977684022
191,254,35314,2,0,L|239:220,1,48.7499977684022
357,185,35486,2,0,P|404:189|448:223,1,97.4999955368044
466,249,35745,1,0,0:0:0:0:
481,284,35831,2,0,L|490:310,7,24.3749988842011
448,363,36176,5,0,0:0:0:0:
401,376,36262,1,0,0:0:0:0:
359,350,36348,1,0,0:0:0:0:
350,302,36434,1,0,0:0:0:0:
372,257,36521,2,0,P|430:219|446:124,1,146.249993305207
454,99,36866,6,0,L|399:107,1,48.7499977684022
298,185,37038,2,0,L|353:193,1,48.7499977684022
511,220,37210,2,0,B|511:274|511:274|467:311,1,97.4999955368044
435,328,37469,1,0,0:0:0:0:
387,338,37555,2,0,L|326:338,1,48.7499977684022
200,313,37728,1,0,0:0:0:0:
166,292,37814,1,0,0:0:0:0:
148,262,37900,1,0,0:0:0:0:
145,232,37986,1,0,0:0:0:0:
150,208,38072,1,0,0:0:0:0:
159,190,38159,1,0,0:0:0:0:
167,178,38245,6,0,P|186:153|210:130,1,48.7499977684022
385,59,38590,6,0,P|395:118|381:175,1,112.5
365,200,38935,2,0,B|358:226|369:257|362:287,1,75
215,310,39279,2,0,P|181:292|146:261,1,75
49,154,39624,6,0,P|130:134|201:158,1,150,4|0,0:0|0:0,0:0:0:0:
324,231,40141,1,0,0:0:0:0:
362,247,40228,1,0,0:0:0:0:
402,250,40314,2,0,P|439:244|482:222,1,75,4|0,0:0|0:0,0:0:0:0:
417,78,40659,2,0,P|381:91|334:95,1,75
303,95,40917,1,0,0:0:0:0:
261,88,41004,6,0,B|145:57|27:108,1,225
14,248,41693,1,8,0:0:0:0:
43,276,41779,1,4,0:0:0:0:
81,290,41866,1,4,0:0:0:0:
120,299,41952,1,4,0:0:0:0:
160,304,42038,2,0,P|214:300|285:276,1,112.5,4|0,0:0|0:0,0:0:0:0:
303,267,42383,6,0,L|358:244,1,48.7499977684022
491,192,42555,2,0,L|433:177,1,48.7499977684022
317,145,42728,6,0,P|306:104|301:69,1,75
262,56,42986,1,0,0:0:0:0:
224,67,43072,2,0,P|215:104|201:146,1,75,4|0,0:0|0:0,0:0:0:0:
182,213,43331,1,0,0:0:0:0:
170,245,43417,1,0,0:0:0:0:
158,277,43504,1,0,0:0:0:0:
140,316,43590,6,0,L|94:341,1,48.7499977684022
0,246,43762,2,0,L|46:221,1,48.7499977684022
126,176,43935,2,0,L|152:164,3,24.3749988842011
126,176,44107,6,0,P|131:233|161:289,1,112.5
178,311,44452,2,0,P|222:332|285:304,1,112.5
301,280,44797,2,0,P|357:256|411:277,1,112.5
360,342,45141,5,0,0:0:0:0:
427,319,45486,1,8,0:0:0:0:
427,248,45831,1,0,0:0:0:0:
359,226,46176,1,8,0:0:0:0:
318,284,46521,5,0,0:0:0:0:
276,342,46866,1,8,0:0:0:0:
209,319,47211,1,0,0:0:0:0:
209,248,47555,1,8,0:0:0:0:
277,226,47900,5,0,0:0:0:0:
327,175,48245,1,8,0:0:0:0:
274,125,48590,1,0,0:0:0:0:
224,176,48936,1,8,0:0:0:0:
154,160,49279,5,0,0:0:0:0:
104,109,49624,1,8,0:0:0:0:
157,59,49969,1,0,0:0:0:0:
207,110,50315,1,8,0:0:0:0:
240,31,50659,6,0,L|265:58,3,37.5
337,122,51004,2,0,L|312:149,3,37.5
248,222,51348,2,0,L|276:254,3,41.2500012588501
344,320,51693,2,0,L|316:352,3,41.2500012588501
223,364,52038,6,0,L|183:330,3,44.999998626709
121,267,52383,2,0,L|81:233,3,44.999998626709
127,152,52728,2,0,L|180:152,3,48.7499977684022
258,202,53072,2,0,L|316:202,3,48.7499977684022
260,293,53417,5,0,0:0:0:0:
249,324,53503,1,0,0:0:0:0:
228,351,53589,1,0,0:0:0:0:
200,370,53675,1,0,0:0:0:0:
168,378,53761,1,0,0:0:0:0:
134,376,53848,1,0,0:0:0:0:
103,364,53934,1,0,0:0:0:0:
78,342,54020,1,0,0:0:0:0:
61,313,54106,5,0,0:0:0:0:
54,280,54192,1,0,0:0:0:0:
58,247,54279,1,0,0:0:0:0:
73,216,54365,1,0,0:0:0:0:
97,192,54452,1,0,0:0:0:0:
127,177,54538,1,0,0:0:0:0:
160,174,54624,1,0,0:0:0:0:
192,182,54710,1,0,0:0:0:0:
215,206,54797,6,4,L|262:248,1,56.2500021457673
405,262,54969,2,4,L|357:219,1,56.2500021457673
318,83,55141,2,4,L|365:125,1,56.2500021457673
511,109,55314,2,4,L|463:66,1,56.2500021457673
330,11,55486,1,4,0:0:0:0:
286,17,55572,1,4,0:0:0:0:
246,38,55659,1,4,0:0:0:0:
203,52,55745,1,4,0:0:0:0:
158,48,55831,1,2,0:0:0:0:
204,196,56176,6,0,B|244:178|244:178|308:174,1,89.9999972534181,4|0,0:0|0:0,0:0:0:0:
391,117,56521,1,4,0:0:0:0:
353,226,56693,2,0,B|313:244|313:244|249:248,1,89.9999972534181
167,177,57038,1,8,0:0:0:0:
353,226,57210,1,4,0:0:0:0:
438,116,57383,1,0,0:0:0:0:
419,257,57555,6,0,B|381:300|381:300|328:295|328:295|304:335|245:333,1,179.999994506836,8|4,0:0|0:0,0:0:0:0:
105,356,58072,2,0,B|102:313|102:313|110:247,1,89.9999972534181
141,144,58417,1,8,0:0:0:0:
204,333,58590,1,4,0:0:0:0:
238,211,58762,1,0,0:0:0:0:
412,291,58935,6,0,B|430:232|430:232|424:164|424:164|438:110,1,179.999994506836,8|4,0:0|0:0,0:0:0:0:
286,156,59452,1,0,0:0:0:0:
137,107,59624,1,0,0:0:0:0:
63,246,59797,1,8,0:0:0:0:
209,134,59969,2,0,P|209:183|189:228,1,89.9999972534181,4|0,0:0|0:0,0:0:0:0:
121,371,60314,5,0,0:0:0:0:
268,303,60486,1,8,0:0:0:0:
357,121,60659,1,4,0:0:0:0:
236,208,60831,2,0,L|155:246,1,89.9999972534181
84,166,61176,1,8,0:0:0:0:
195,337,61348,1,4,0:0:0:0:
343,269,61521,1,0,0:0:0:0:
476,195,61693,6,0,B|480:89|390:38,1,179.999994506836,8|4,0:0|0:0,0:0:0:0:
252,13,62210,1,0,0:0:0:0:
149,121,62383,1,0,0:0:0:0:
277,196,62555,1,8,0:0:0:0:
138,328,62728,2,0,B|185:344|185:344|249:344,1,89.9999972534181,4|0,0:0|0:0,0:0:0:0:
442,306,63072,6,0,B|476:229|406:194|451:115,1,179.999994506836,8|4,0:0|0:0,0:0:0:0:
314,156,63590,1,0,0:0:0:0:
314,300,63762,1,0,0:0:0:0:
170,300,63935,1,8,0:0:0:0:
314,156,64107,2,0,B|274:123|216:123,1,89.9999972534181,4|0,0:0|0:0,0:0:0:0:
40,111,64452,6,0,B|37:234|37:234|64:285,1,179.999994506836,8|4,0:0|0:0,0:0:0:0:
179,381,64969,1,0,0:0:0:0:
166,226,65141,1,0,0:0:0:0:
294,135,65314,1,8,0:0:0:0:
354,334,65486,1,4,0:0:0:0:
376,348,65572,1,0,0:0:0:0:
399,361,65659,1,0,0:0:0:0:
424,368,65745,1,0,0:0:0:0:
450,372,65831,1,0,0:0:0:0:
445,242,66004,5,8,0:0:0:0:
332,97,66176,1,4,0:0:0:0:
261,254,66349,1,8,0:0:0:0:
148,109,66521,1,4,0:0:0:0:
120,313,66693,1,8,0:0:0:0:
7,168,66865,1,4,0:0:0:0:
20,144,66952,1,0,0:0:0:0:
33,120,67038,1,0,0:0:0:0:
47,97,67124,1,0,0:0:0:0:
61,74,67210,6,0,B|118:70|157:60|157:60|191:83|244:97,1,179.999994506836,4|4,0:0|0:0,0:0:0:0:
374,210,67728,2,0,B|333:231|333:231|288:240,1,89.9999972534181
170,188,68072,1,8,0:0:0:0:
28,297,68245,2,0,B|28:252|28:252|21:228|26:196,1,89.9999972534181,4|0,0:0|0:0,0:0:0:0:
132,363,68590,6,0,P|238:357|319:322,1,179.999994506836,8|4,0:0|0:0,0:0:0:0:
454,238,69107,2,0,B|454:193|454:193|461:169|456:137,1,89.9999972534181
369,36,69452,1,8,0:0:0:0:
261,201,69624,1,4,0:0:0:0:
149,97,69797,1,0,0:0:0:0:
25,184,69969,6,0,L|25:307,1,89.9999972534181,8|0,0:0|0:0,0:0:0:0:
185,346,70314,2,0,L|185:255,1,89.9999972534181,4|0,0:0|0:0,0:0:0:0:
235,130,70659,1,0,0:0:0:0:
295,251,70831,1,8,0:0:0:0:
455,166,71004,2,0,B|436:212|384:260,1,89.9999972534181,4|0,0:0|0:0,0:0:0:0:
268,322,71348,5,0,0:0:0:0:
127,244,71521,1,8,0:0:0:0:
240,92,71693,1,4,0:0:0:0:
309,199,71866,2,0,B|290:245|238:293,1,89.9999972534181,4|0,0:0|0:0,0:0:0:0:
113,227,72210,1,8,0:0:0:0:
224,78,72382,1,4,0:0:0:0:
309,199,72555,1,0,0:0:0:0:
148,163,72728,6,0,B|125:226|125:226|126:351|126:351,1,179.999994506836
204,221,73245,2,0,B|222:168|222:168|213:131,1,89.9999972534181
175,30,73590,1,8,0:0:0:0:
381,49,73762,2,0,L|349:133,1,89.9999972534181
315,280,74107,6,0,B|315:323|315:323|341:367,2,89.9999972534181,8|0|4,0:0|0:0|0:0,0:0:0:0:
312,122,74624,1,0,0:0:0:0:
170,191,74797,1,0,0:0:0:0:
103,49,74969,1,8,0:0:0:0:
77,253,75141,2,0,B|76:300|76:300|94:348,1,89.9999972534181,4|0,0:0|0:0,0:0:0:0:
297,359,75486,6,0,B|315:311|315:311|315:267,1,89.9999972534181,8|4,0:0|0:0,0:0:0:0:
314,245,75745,1,0,0:0:0:0:
313,218,75831,1,4,0:0:0:0:
413,90,76004,2,0,L|322:90,1,89.9999972534181
131,91,76348,1,4,0:0:0:0:
218,311,76521,1,4,0:0:0:0:
362,143,76693,1,4,0:0:0:0:
121,237,76866,5,4,0:0:0:0:
256,192,76952,12,8,77900,0:0:0:0:
188,133,78245,6,0,B|163:192|163:192|194:235|181:306,1,168.750006437302,4|0,0:0|0:0,0:0:0:0:
187,318,78848,1,0,0:0:0:0:
189,346,78935,6,0,B|263:367|263:367|336:333,1,146.249993305207,4|0,0:0|0:0,0:0:0:0:
439,171,79366,2,0,L|440:236,2,48.7499977684022
439,146,79624,5,8,0:0:0:0:
200,199,79797,1,0,0:0:0:0:
200,199,79883,1,0,0:0:0:0:
200,199,79969,2,0,B|215:148|215:148|241:138|257:112,1,97.4999955368044
366,93,80314,1,8,0:0:0:0:
352,139,80400,1,0,0:0:0:0:
358,187,80486,1,0,0:0:0:0:
377,231,80572,1,0,0:0:0:0:
381,280,80659,6,0,P|370:311|299:228,1,194.999991073609,0|8,0:0|0:0,0:0:0:0:
292,211,81090,1,0,0:0:0:0:
318,170,81176,2,0,L|353:123,1,48.7499977684022
443,29,81348,6,0,B|459:57|459:57|462:89|462:89|479:120,1,84.3750032186509
503,117,81693,6,0,P|473:163|432:196,1,97.4999955368044,4|0,0:0|0:0,0:0:0:0:
380,239,81952,1,0,0:0:0:0:
343,271,82038,1,0,0:0:0:0:
337,319,82124,1,0,0:0:0:0:
361,361,82210,1,0,0:0:0:0:
407,378,82297,1,0,0:0:0:0:
453,362,82383,6,0,B|367:260,1,112.500004291535
173,236,82728,2,0,B|258:340,1,112.500004291535
303,117,83072,2,0,B|215:15,1,112.500004291535
7,19,83417,2,0,P|69:100|40:218,1,225.000008583069,0|4,0:0|0:0,0:0:0:0:
0,337,83935,5,0,0:0:0:0:
0,337,84021,1,0,0:0:0:0:
0,337,84107,2,0,L|46:317,1,48.7499977684022
188,254,84279,2,0,L|234:232,1,48.7499977684022
361,162,84452,2,0,B|412:137|412:137|412:280,1,194.999991073609,4|0,0:0|0:0,0:0:0:0:
245,338,84969,1,0,0:0:0:0:
245,338,85055,1,0,0:0:0:0:
245,338,85141,6,0,B|232:307|232:307|244:269|244:269|229:225,1,112.500004291535
254,76,85659,6,0,L|315:76,1,48.7499977684022
445,109,85831,1,4,0:0:0:0:
472,148,85917,1,0,0:0:0:0:
483,195,86004,1,0,0:0:0:0:
473,242,86090,1,0,0:0:0:0:
469,290,86176,6,0,B|442:335|442:335|416:306|369:307,1,112.500004291535,0|4,0:0|0:0,0:0:0:0:
221,234,86693,1,0,0:0:0:0:
221,234,86779,1,0,0:0:0:0:
221,234,86866,2,0,B|194:197|194:197|219:169|219:131,1,112.500004291535,0|4,0:0|0:0,0:0:0:0:
125,31,87383,6,0,L|93:76,1,48.7499977684022
23,180,87555,1,0,0:0:0:0:
277,272,87728,1,0,0:0:0:0:
277,272,87814,1,0,0:0:0:0:
277,272,87900,6,0,B|300:307|300:307|328:291|328:291|356:307|356:307|379:271,1,150,4|0,0:0|0:0,0:0:0:0:
