osu file format v14

[General]
AudioFilename: audio.mp3
AudioLeadIn: 0
PreviewTime: 54826
Countdown: 0
SampleSet: Soft
StackLeniency: 0.2
Mode: 0
LetterboxInBreaks: 0
WidescreenStoryboard: 0

[Editor]
Bookmarks: 775,39395
DistanceSpacing: 2.1
BeatDivisor: 4
GridSize: 32
TimelineZoom: 1

[Metadata]
Title:Genesis (TV Size)
TitleUnicode:Genesis (TV Size)
Artist:STEREO DIVE FOUNDATION
ArtistUnicode:STEREO DIVE FOUNDATION
Creator:LowComboFC
Version:tyui's Extra
Source:Dimension W
Tags:anime wubs opening electronic CookieBite LCFC Firis Mistlud Moonlit Arf _Meep_ Kujinn -Mo- Akitoshi Mir Meg Silky xLolicore- Nanashima Asami InternalLight rrtyui
BeatmapID:1207630
BeatmapSetID:568693

[Difficulty]
HPDrainRate:6
CircleSize:4
OverallDifficulty:8.5
ApproachRate:9.3
SliderMultiplier:0.999999999999999
SliderTickRate:1

[Events]
//Background and Video events
0,0,"BG.jpg",0,0
//Break Periods
//Storyboard Layer 0 (Background)
//Storyboard Layer 1 (Fail)
//Storyboard Layer 2 (Pass)
//Storyboard Layer 3 (Foreground)
//Storyboard Sound Samples

[TimingPoints]
775,344.827586206897,4,2,0,80,1,0
775,-28.5714285714286,4,2,0,80,0,0
1119,-58.8235294117647,4,2,0,80,0,0
3533,-50,4,2,0,80,0,0
4912,-41.6666666666667,4,2,0,80,0,0
5257,-71.4285714285714,4,2,0,80,0,0
5430,-62.5,4,2,0,80,0,0
5947,-20,4,2,0,80,0,0
6292,-62.5,4,2,0,80,0,0
7326,-28.5714285714286,4,2,0,80,0,0
7671,-62.5,4,2,0,80,0,0
8706,-28.5714285714286,4,2,0,80,0,0
10430,-142.857142857143,4,2,0,80,0,0
10775,-47.6190476190476,4,2,0,80,0,0
11119,-33.3333333333333,4,2,0,80,0,0
11464,-25,4,2,52,80,0,0
11809,-33.3333333333333,4,2,52,80,0,0
14568,-47.6190476190476,4,2,52,80,0,0
15085,-33.3333333333333,4,2,52,80,0,0
15775,-33.3333333333333,4,2,52,80,0,0
18188,-33.3333333333333,4,2,52,80,0,0
18533,-33.3333333333333,4,2,52,80,0,0
20085,-47.6190476190476,4,2,52,80,0,0
20602,-33.3333333333333,4,2,52,80,0,0
22843,-47.6190476190476,4,2,52,80,0,0
23188,-52.0833333333333,4,2,52,80,0,0
24568,-47.6190476190476,4,2,52,80,0,0
25257,-52.0833333333333,4,2,52,80,0,0
28361,-47.6190476190476,4,2,52,80,0,0
29050,-52.0833333333333,4,2,52,80,0,0
29568,-52.0833333333333,4,2,52,80,0,0
30085,-52.0833333333333,4,2,52,80,0,0
30430,-47.6190476190476,4,2,52,80,0,0
31119,-52.0833333333333,4,2,52,80,0,0
32843,-100,4,2,52,80,0,0
33188,-25,4,2,52,80,0,0
33533,-33.3333333333333,4,2,52,80,0,0
33878,-100,4,2,52,80,0,0
34568,-50,4,2,52,80,0,0
35257,-41.6666666666667,4,2,52,80,0,0
35602,-66.6666666666667,4,2,52,80,0,0
35947,-50,4,2,52,80,0,0
36292,-50,4,2,52,80,0,0
36637,-50,4,2,52,80,0,0
37499,-28.5714285714286,4,2,52,80,0,0
38016,-33.3333333333333,4,2,52,80,0,0
38361,-66.6666666666667,4,2,52,80,0,0
39050,-66.6666666666667,4,2,52,80,0,0
39223,-41.6666666666667,4,2,52,80,0,0
39395,-25,4,2,52,80,0,1
40085,-25,4,2,52,80,0,1
40430,-20,4,2,52,80,0,1
40775,-25,4,2,52,80,0,1
41119,-18.1818181818182,4,2,52,80,0,1
41292,-16.6666666666667,4,2,52,80,0,1
41809,-18.1818181818182,4,2,52,80,0,1
42154,-71.4285714285714,4,2,52,80,0,1
42499,-25,4,2,52,80,0,1
42843,-20,4,2,52,80,0,1
43361,-16.6666666666667,4,2,52,80,0,1
43533,-25,4,2,52,80,0,0
43878,-66.6666666666667,4,2,52,80,0,0
44223,-52.0833333333333,4,2,52,80,0,0
44568,-50,4,2,52,80,0,0
44912,-41.6666666666667,4,2,52,80,0,0
45430,-83.3333333333333,4,2,52,80,0,0
46981,-41.6666666666667,4,2,52,80,0,0
48361,-83.3333333333333,4,2,52,80,0,0
48706,-41.6666666666667,4,2,52,80,0,0
49223,-83.3333333333333,4,2,52,80,0,0
49740,-41.6666666666667,4,2,52,80,0,0
50430,-50,4,2,52,60,0,0
50602,-51.2820512820513,4,2,52,60,0,0
50775,-52.6315789473684,4,2,52,60,0,0
50947,-54.054054054054,4,2,52,60,0,0
51119,-55.5555555555556,4,2,52,60,0,0
51292,-57.1428571428571,4,2,52,60,0,0
51464,-58.8235294117647,4,2,52,60,0,0
51637,-60.6060606060606,4,2,52,60,0,0
51809,-62.5,4,2,52,60,0,0
51981,-64.5161290322581,4,2,52,65,0,0
52154,-66.6666666666667,4,2,52,70,0,0
52326,-68.9655172413793,4,2,52,70,0,0
52499,-71.4285714285714,4,2,52,70,0,0
52671,-74.0740740740741,4,2,52,70,0,0
52843,-76.9230769230769,4,2,52,70,0,0
53016,-80,4,2,52,75,0,0
53188,-83.3333333333333,4,2,52,80,0,0
55602,-25,4,2,0,80,0,0
55947,-41.6666666666668,4,2,52,80,0,0
57671,-47.6190476190478,4,2,52,80,0,0
58016,-50,4,2,52,80,0,0
58706,-55.5555555555556,4,2,52,80,0,0
60775,-37.037037037037,4,2,52,80,0,0
61464,-41.6666666666667,4,2,52,80,0,0
62843,-47.6190476190476,4,2,52,80,0,0
63533,-23.8095238095239,4,2,52,80,0,0
63878,-47.6190476190476,4,2,52,80,0,0
64223,-52.0833333333333,4,2,52,80,0,0
65947,-50,4,2,52,80,0,0
66981,-41.6666666666667,4,2,52,80,0,0
68706,-47.6190476190476,4,2,52,80,0,0
69050,-50,4,2,52,80,0,0
69740,-55.5555555555556,4,2,52,80,0,0
71809,-37.037037037037,4,2,52,80,0,0
74223,-47.6190476190476,4,2,52,80,0,0
74568,-23.8095238095239,4,2,52,80,0,0
75085,-50,4,2,52,80,0,0
77240,-50,4,2,52,50,0,0
77326,-50,4,2,52,80,0,0
77585,-50,4,2,52,50,0,0
77671,-50,4,2,52,80,0,0
78016,-27.0270270270272,4,2,52,80,0,0
78361,-35.7142857142857,4,2,52,80,0,0
78706,-50,4,2,52,80,0,0
79395,-23.5294117647059,4,2,52,80,0,0
79740,-25,4,2,2,80,0,0
80775,-100,4,2,2,80,0,0
81119,-166.666666666667,4,2,2,60,0,0
81464,-25,4,2,52,80,0,0
81809,-50,4,2,52,80,0,0
82843,-33.3333333333333,4,2,52,80,0,0
83533,-28.5714285714286,4,2,52,80,0,0
83878,-35.7142857142857,4,2,52,80,0,0
84223,-50,4,2,52,80,0,0
84912,-25,4,2,52,80,0,0
85257,-16.6666666666667,4,2,52,80,0,0
85430,-25,4,2,52,80,0,0
85947,-28.5714285714286,4,2,52,80,0,0
86292,-16.6666666666667,4,2,52,80,0,0
86637,-50,4,2,52,80,0,0
86981,-20,4,2,52,80,0,0
87326,-50,4,2,52,80,0,0
87671,-40,4,2,52,80,0,0

[Colours]
Combo1 : 186,125,215
Combo2 : 245,95,99
Combo3 : 242,185,98
Combo4 : 255,255,85
Combo5 : 115,225,181
Combo6 : 124,184,216

[HitObjects]
178,205,775,6,0,P|140:132|155:42,1,175.00000166893,4|0,0:0|0:0,0:0:0:0:
154,43,1119,6,0,P|176:78|183:122,1,85.0000016212463,2|0,0:0|0:0,0:0:0:0:
128,272,1464,5,0,0:0:0:0:
178,205,1637,1,0,0:0:0:0:
245,255,1809,1,0,0:0:0:0:
195,322,1981,1,0,0:0:0:0:
189,269,2154,5,0,0:0:0:0:
184,267,2326,1,0,0:0:0:0:
184,262,2499,1,0,0:0:0:0:
189,261,2671,1,0,0:0:0:0:
191,265,2843,5,0,0:0:0:0:
265,229,3016,1,0,0:0:0:0:
346,242,3188,1,0,0:0:0:0:
399,303,3361,1,0,0:0:0:0:
399,303,3533,6,0,B|385:326|392:356|392:356|407:331|403:309,2,99.9999999999999,2|0|0,0:0|0:0|0:0,0:0:0:0:
426,226,4050,1,0,0:0:0:0:
373,165,4223,1,0,0:0:0:0:
447,111,4395,1,0,0:0:0:0:
343,44,4568,1,0,0:0:0:0:
467,0,4740,1,0,0:0:0:0:
373,165,4912,6,0,B|365:122|365:122|353:132|353:132|342:190|342:190|329:201|329:201|317:158,1,179.999994506836,2|0,0:0|0:0,0:0:0:0:
267,97,5257,6,0,L|231:102,1,34.9999989318848
173,158,5430,6,0,P|158:148|135:146,1,40
120,64,5602,2,0,P|102:65|83:79,1,40
46,259,5775,1,2,0:0:0:0:
44,254,5861,1,2,0:0:0:0:
42,249,5947,6,2,B|119:214|215:243|222:314|169:362|108:326|99:256|187:207|265:225,1,375,2|0,0:0|0:0,2:1:0:0:
287,232,6292,6,0,P|281:191|261:158,1,79.9999999999999,2|0,1:2|0:0,0:0:0:0:
369,249,6637,2,0,P|382:212|383:172,1,79.9999999999999,2|0,1:2|0:0,0:0:0:0:
431,306,6981,2,0,P|462:280|492:206,1,120,2|0,1:2|0:0,0:0:0:0:
468,131,7326,6,0,P|473:97|493:126,1,87.5000008344649,2|0,1:2|0:0,0:0:0:0:
420,1,7499,2,0,P|424:34|397:13,1,87.5000008344649,2|0,0:2|0:0,0:0:0:0:
369,249,7671,6,0,P|382:212|383:172,1,79.9999999999999,0|2,1:2|0:0,0:0:0:0:
287,231,8016,2,0,P|281:192|261:158,1,79.9999999999999,2|0,1:2|0:0,0:0:0:0:
205,255,8361,2,0,P|165:213|108:197,1,120,2|0,1:2|0:0,0:0:0:0:
32,226,8706,6,0,P|-2:220|25:200,1,87.5000008344649,2|0,1:2|0:0,0:0:0:0:
280,284,8878,2,0,P|314:278|287:258,1,87.5000008344649,2|0,0:2|0:0,0:0:0:0:
107,197,9050,5,0,1:2:0:0:
264,366,9223,1,0,1:2:0:0:
96,79,9395,5,2,1:2:0:0:
57,307,9568,1,0,1:2:0:0:
240,51,9740,5,2,1:2:0:0:
32,226,9912,1,0,1:2:0:0:
130,0,10085,5,2,1:2:0:0:
200,310,10257,1,2,1:2:0:0:
166,156,10430,6,0,B|210:162,1,34.9999989318848,0|2,1:0|0:0,0:0:0:0:
279,172,10688,1,0,0:0:0:0:
271,184,10775,6,0,P|243:112|201:151,1,157.499995193481,2|0,0:0|0:0,0:0:0:0:
378,99,11119,2,0,P|362:171|366:246,1,150.000005722046,2|0,0:0|0:0,0:0:0:0:
366,246,11464,6,0,P|350:128|445:198,1,300,2|0,0:0|0:0,0:0:0:0:
439,278,11809,6,0,P|404:265|366:268,1,75.000002861023,4|0,0:0|0:0,0:0:0:0:
282,163,11981,2,0,B|302:222|302:222|277:259|295:306,1,150.000005722046,2|8,0:2|2:0,1:0:0:0:
295,306,12326,6,2,B|198:313|198:313|184:289|157:281,1,150.000005722046,2|0,2:0|2:0,1:0:0:0:
44,60,12671,2,2,P|116:72|148:140,1,150.000005722046,2|8,1:2|0:0,1:0:0:0:
128,359,13016,6,2,P|132:284|115:212,2,150.000005722046,2|0|2,2:0|1:2|2:0,1:0:0:0:
312,52,13533,1,8,0:0:0:0:
72,140,13706,2,2,B|176:100|180:212|292:168,1,225.000008583069,2|0,2:0|2:0,1:0:0:0:
236,24,14050,6,0,P|232:68|243:98,1,75.000002861023,0|0,1:2|0:0,0:0:0:0:
432,196,14223,2,0,P|395:170|364:165,1,75.000002861023,10|0,0:0|0:0,0:0:0:0:
204,292,14395,2,0,P|244:273|264:248,1,75.000002861023,2|0,0:0|0:0,0:0:0:0:
284,171,14568,6,2,P|300:261|300:329,1,157.499995193481,2|0,1:2|2:0,1:0:0:0:
376,348,14912,1,8,0:0:0:0:
220,116,15085,6,2,P|248:24|310:90,1,225.000008583069,2|0,0:2|0:0,1:0:0:0:
284,171,15430,1,0,1:0:0:0:
6,75,15602,1,8,0:0:0:0:
90,277,15775,6,2,B|147:311|118:375|15:324|43:207,1,225.000008583069,2|0,0:0|0:0,1:0:0:0:
86,52,16119,2,0,P|88:93|72:129,1,75.000002861023,2|0,0:0|0:0,0:0:0:0:
43,208,16292,6,2,L|120:199,1,75.000002861023,10|0,0:0|0:0,1:0:0:0:
348,172,16464,2,2,L|273:180,1,75.000002861023,2|0,2:0|2:0,1:0:0:0:
195,189,16637,6,2,L|199:149,4,37.5000014305115,0|0|0|0|0,2:0|2:0|2:0|2:0|1:0,1:0:0:0:
409,223,16981,2,2,L|412:260,4,37.5000014305115,8|0|0|0|0,2:0|2:0|2:0|2:0|2:0,1:0:0:0:
64,24,17326,6,0,P|92:40|112:77,1,75.000002861023,0|0,1:2|0:0,0:0:0:0:
199,152,17499,2,0,P|188:68|216:8,1,150.000005722046,2|8,2:0|2:0,1:0:0:0:
433,77,17843,6,2,B|426:116|387:134|387:134|348:129|325:100,1,150.000005722046,2|0,2:0|2:0,1:0:0:0:
136,192,18188,2,2,P|204:168|280:176,1,150.000005722046,2|10,1:2|2:0,1:0:0:0:
484,308,18533,6,2,P|426:267|433:194,2,150.000005722046,2|0|2,2:0|1:0|2:0,1:0:0:0:
510,62,19050,1,8,0:0:0:0:
269,142,19223,2,2,B|330:79|423:116|423:116|381:123|363:162,1,225.000008583069,2|0,0:2|0:0,1:0:0:0:
426,267,19568,6,0,P|438:232|432:194,1,75.000002861023,2|0,1:2|0:0,0:0:0:0:
323,83,19740,2,0,P|303:51|270:31,1,75.000002861023,10|0,0:2|0:0,0:0:0:0:
115,43,19912,2,0,P|78:37|42:49,1,75.000002861023,2|0,0:2|0:0,0:0:0:0:
232,272,20085,6,2,P|254:196|248:118,1,157.499995193481,2|0,1:2|0:0,1:0:0:0:
195,60,20430,1,8,0:0:0:0:
432,195,20602,6,2,P|415:277|336:213,1,225.000008583069,2|0,0:0|0:0,1:0:0:0:
373,137,20947,2,0,P|405:116|466:121,1,75.000002861023,0|0,1:2|0:0,0:0:0:0:
468,336,21119,6,0,L|394:327,1,75.000002861023,8|0,0:2|0:0,0:0:0:0:
168,300,21292,2,0,L|242:309,1,75.000002861023,2|0,1:0|0:0,0:0:0:0:
394,327,21464,5,8,0:0:0:0:
342,88,21637,2,0,P|343:118|352:162,1,75.000002861023,2|0,1:2|0:0,0:0:0:0:
168,300,21809,5,8,0:0:0:0:
248,36,21981,2,0,P|244:71|234:109,1,75.000002861023,2|0,1:2|0:0,0:0:0:0:
496,157,22154,5,8,0:0:0:0:
458,192,22240,1,4,0:3:0:0:
407,200,22326,1,4,0:3:0:0:
360,179,22412,1,4,0:3:0:0:
332,135,22499,1,4,0:3:0:0:
333,84,22585,1,4,0:3:0:0:
363,41,22671,1,4,0:3:0:0:
411,22,22757,1,4,0:3:0:0:
462,33,22843,6,0,B|484:53|484:53|467:-22,1,104.999996795654,4|0,0:0|0:0,0:0:0:0:
419,112,23188,1,10,0:0:0:0:
512,228,23361,2,0,B|484:203|484:203|326:184,1,192.0000046875,2|2,0:0|1:2,0:0:0:0:
185,252,23878,1,8,0:0:0:0:
257,144,24050,6,0,B|251:199|251:199|268:238|268:238|261:296,1,156.000003808594,2|0,0:0|0:0,0:0:0:0:
300,366,24395,2,0,B|277:375|277:375|254:377,1,48.000001171875,0|0,1:2|0:0,0:0:0:0:
37,231,24568,2,0,B|186:252|186:252|127:263,1,209.999993591309,10|2,0:0|0:0,0:0:0:0:
128,263,25085,1,0,1:0:0:0:
13,14,25257,2,0,B|-5:38|-5:38|14:101,1,96.0000023437501,10|0,0:0|0:0,0:0:0:0:
242,130,25602,5,0,1:0:0:0:
242,130,25775,1,0,0:0:0:0:
412,97,25947,2,0,B|401:114|401:114|319:123,1,96.0000023437501,10|0,0:0|0:0,0:0:0:0:
72,162,26292,2,0,B|83:145|83:145|158:136,1,96.0000023437501,2|0,0:0|1:0,0:0:0:0:
448,255,26637,1,10,0:0:0:0:
336,364,26809,6,0,B|362:327|362:327|370:180,1,192.0000046875,2|2,1:2|1:2,0:0:0:0:
370,180,27326,2,0,L|274:194,1,96.00000234375,8|2,0:0|0:0,0:0:0:0:
102,13,27671,1,0,0:0:0:0:
284,111,27843,1,2,1:2:0:0:
186,294,28016,2,0,L|196:198,1,96.0000023437501,10|0,0:0|0:0,0:0:0:0:
208,81,28275,1,0,0:0:0:0:
208,81,28361,6,0,B|158:94|158:94|204:120,1,104.999996795654,0|0,1:0|0:0,0:0:0:0:
484,134,28706,2,0,B|500:153|500:153|509:233,1,104.999996795654,10|0,0:0|0:0,0:0:0:0:
268,285,29050,1,2,0:0:0:0:
268,285,29223,2,0,L|278:189,1,96.0000023437501,0|8,1:2|0:0,0:0:0:0:
454,296,29568,6,0,B|492:323|492:323|348:305,1,192.0000046875,2|0,1:2|1:0,0:0:0:0:
278,189,30085,2,0,L|268:285,1,96.0000023437501,10|0,0:2|0:0,0:0:0:0:
261,368,30343,1,0,0:0:0:0:
261,368,30430,2,0,B|237:389|237:389|165:381,1,104.999996795654,2|0,0:0|1:0,0:0:0:0:
48,38,30775,2,0,B|103:47|103:47|137:78|137:78|192:88,1,157.499995193481,10|0,0:0|0:0,0:0:0:0:
337,55,31119,5,0,1:0:0:0:
337,55,31292,1,0,0:0:0:0:
279,191,31464,2,0,B|264:164|264:164|270:95,1,96.0000023437501,10|0,0:0|0:0,0:0:0:0:
340,255,31809,2,0,B|355:282|355:282|349:351,1,96.0000023437501,2|0,0:0|1:0,0:0:0:0:
495,91,32154,1,8,0:0:0:0:
495,91,32326,2,2,B|512:118|512:118|352:107,1,192.0000046875,2|0,2:0|1:0,2:1:0:0:
352,107,32843,6,0,L|341:31,1,75,10|0,0:0|0:0,0:0:0:0:
341,33,33188,6,0,B|344:13|353:0|353:0|370:48|337:112|274:123,1,200
196,108,33447,1,0,0:0:0:0:
196,108,33533,6,0,L|191:70,1,37.5000014305115,2|0,0:0|0:0,0:0:0:0:
191,71,33878,6,0,P|155:56|116:62,1,75,4|0,0:0|0:0,0:0:0:0:
164,152,34223,2,0,P|150:137|131:132,1,25,2|0,2:0|0:0,0:3:0:0:
80,232,34395,1,2,0:0:0:0:
94,230,34481,1,2,0:0:0:0:
107,228,34568,6,0,P|106:215|102:203,2,25,2|0|0,2:0|0:0|0:3,0:3:0:0:
189,250,34740,2,0,P|197:240|202:229,2,25,2|0|0,2:0|0:0|0:3,0:3:0:0:
231,323,34912,1,2,0:0:0:0:
231,323,35085,1,2,0:0:0:0:
65,315,35257,6,0,B|55:338|55:338|149:330,1,119.999996337891,2|0,0:0|0:0,0:0:0:0:
312,314,35516,1,2,0:0:0:0:
329,312,35602,6,0,L|327:334,6,18.7500007152558,2|2|2|2|2|2|2,0:0|0:0|0:0|0:0|0:0|0:0|0:0,0:0:0:0:
313,233,35947,6,0,L|338:229,1,25,2|0,0:0|0:0,0:0:0:0:
319,202,36033,2,0,L|340:212,1,25,2|0,0:0|0:0,0:0:0:0:
337,175,36119,2,0,L|348:196,1,25,2|0,0:0|0:0,0:0:0:0:
362,158,36206,2,0,L|357:182,1,25,2|0,0:0|0:0,0:0:0:0:
442,150,36292,6,0,L|480:147,4,25,2|2|2|2|2,0:0|0:0|0:0|0:0|0:0,0:0:0:0:
162,2,36637,6,0,P|149:-1|108:7,1,50,2|0,0:0|0:0,0:0:0:0:
114,118,36809,2,0,P|123:95|141:78,1,50,2|0,0:0|0:0,0:0:0:0:
217,136,36981,6,0,L|192:140,2,25,2|0|0,0:0|0:0|0:0,0:0:0:0:
304,75,37154,1,0,0:0:0:0:
302,88,37240,1,0,0:0:0:0:
300,103,37326,2,0,L|296:128,2,25,2|0|0,0:0|0:0|0:0,0:0:0:0:
283,266,37499,1,0,0:0:0:0:
285,253,37585,1,0,0:0:0:0:
287,238,37671,6,0,P|322:201|360:193,3,87.5000008344649,2|2|2|2,0:0|0:0|0:0|0:0,0:0:0:0:
359,272,38016,6,0,B|381:254|381:254|350:162|396:93|396:93|379:70,1,225.000008583069,4|0,2:0|2:2,0:0:0:0:
338,0,38361,6,0,P|391:-10|440:17,1,112.500004291534,2|0,0:0|0:0,0:0:0:0:
412,178,38706,2,0,P|358:188|309:160,1,112.500004291534,2|0,0:0|0:0,0:0:0:0:
379,70,39050,6,0,P|375:91|372:106,1,37.5000014305115,0|0,1:0|0:0,0:0:0:0:
239,237,39223,6,0,P|236:212|229:177,1,59.9999981689453,2|0,0:0|0:0,0:0:0:0:
39,42,39395,6,2,B|50:55|51:72|51:72|114:73|106:133|174:128|225:88|225:64|225:64|155:30|77:93|57:169|91:253|91:253|85:215|103:188,1,599.999999999999,6|4,2:0|2:3,1:0:0:0:
456,220,40085,6,0,P|432:176|476:84,1,99.9999999999999,8|0,0:0|0:0,0:0:0:0:
393,2,40257,2,0,B|414:-15|414:-15|397:58,1,99.9999999999999,2|0,0:0|0:0,0:0:0:0:
512,160,40430,6,0,B|362:133|362:133|343:142|343:142|257:127,1,250,2|2,0:2|0:0,0:0:0:0:
116,104,40688,1,2,0:0:0:0:
196,92,40775,6,0,B|187:143,4,50,2|2|0|0|0,1:2|0:0|0:0|0:0|0:0,0:0:0:0:
232,351,41033,1,2,0:0:0:0:
246,344,41119,6,2,B|280:325|280:325|272:220|272:220|237:204,1,183.333335081736,2|0,0:1|0:0,0:0:0:0:
39,240,41292,2,0,B|4:248|4:248|116:263,1,150.000005722046,2|0,0:0|0:0,0:0:0:0:
390,234,41464,5,10,0:0:0:0:
418,229,41550,1,2,0:0:0:0:
401,249,41637,1,2,0:0:0:0:
415,243,41723,1,2,0:0:0:0:
410,260,41809,2,2,B|495:249|495:249|467:288|467:288|383:300|383:300|367:289|367:289|285:278|285:278|267:285|267:285|195:275,1,412.500003933906,2|0,0:2|0:0,2:1:0:0:
177,126,42154,6,2,L|185:195,1,69.9999978637695,0|0,1:2|0:0,2:1:0:0:
195,275,42412,1,0,0:0:0:0:
213,278,42499,6,2,P|121:344|108:211,1,300,2|0,2:0|2:0,2:1:0:0:
292,253,42843,6,0,B|371:270|371:270|332:106,1,250,8|0,0:0|0:0,0:0:0:0:
328,13,43102,1,2,0:0:0:0:
316,27,43188,6,0,P|374:36|410:89,1,125,2|0,0:0|0:0,0:0:0:0:
499,186,43361,2,2,B|444:238|444:238|424:152,1,150.000005722046,2|0,2:0|2:0,1:0:0:0:
128,72,43533,6,0,B|332:105|332:105|282:95|249:135,1,300,0|0,1:0|0:0,0:0:0:0:
331,284,43878,6,0,P|304:236|313:182,1,112.500004291534,2|0,0:0|0:0,0:0:0:0:
385,222,44223,2,0,P|370:286|368:377,1,144.000003515625,2|0,0:0|0:0,0:0:0:0:
455,353,44568,6,2,P|478:324|446:341,1,99.9999999999999,2|0,2:0|2:0,1:0:0:0:
63,149,44912,6,0,P|172:111|261:198,1,239.999992675781,4|0,3:2|3:0,0:0:0:0:
213,316,45430,1,0,0:0:0:0:
213,316,45602,2,0,L|204:231,1,59.9999981689454,0|0,3:0|0:0,0:0:0:0:
345,165,45947,2,0,L|336:250,1,59.9999981689454,0|0,3:0|0:0,0:0:0:0:
421,357,46292,2,0,P|391:359|362:350,1,59.9999981689454,0|0,3:0|0:0,0:0:0:0:
243,33,46637,2,0,P|229:59|229:89,1,59.9999981689453,0|0,3:0|0:0,0:0:0:0:
490,79,46981,6,0,B|428:61|411:-3|411:-3|410:63|361:101,1,239.999992675781,0|0,3:0|3:0,0:0:0:0:
462,358,47671,6,0,P|493:246|433:146,1,239.999992675781,0|0,3:0|3:0,0:0:0:0:
432,145,48188,1,0,0:0:0:0:
333,208,48361,2,0,P|301:215|253:204,1,59.9999981689453,0|0,3:0|0:0,0:0:0:0:
167,14,48706,6,0,P|185:109|251:38,1,239.999992675781,0|0,3:0|3:0,0:0:0:0:
250,37,49223,1,0,0:0:0:0:
149,185,49395,2,0,P|143:219|148:251,1,59.9999981689453,0|0,3:0|0:0,0:0:0:0:
304,334,49740,6,0,B|480:318|480:318|445:320|425:344,1,239.999992675781,0|0,3:0|3:0,0:0:0:0:
425,344,50430,6,0,L|432:292,1,50,0|0,1:2|0:0,0:0:0:0:
388,5,50602,2,0,L|395:57,1,48.7500001859664,0|0,1:2|0:0,0:0:0:0:
348,329,50775,6,0,L|355:277,1,47.4999987316131,0|0,1:2|0:0,0:0:0:0:
311,20,50947,2,0,L|318:72,1,46.2499998235702,0|0,1:2|0:0,0:0:0:0:
271,315,51119,6,0,L|278:263,1,44.999998626709,0|0,1:2|0:0,0:0:0:0:
234,34,51292,2,0,L|241:86,1,43.7500004172325,0|0,1:2|0:0,0:0:0:0:
195,300,51464,6,0,L|202:248,1,42.5000008106231,0|0,1:2|0:0,0:0:0:0:
158,49,51637,2,0,L|165:101,1,41.2500003933906,0|0,1:2|0:0,0:0:0:0:
117,285,51809,6,0,L|124:233,1,40,0|0,1:2|0:0,0:0:0:0:
80,64,51981,2,0,L|87:116,1,38.750000295639,0|0,1:2|0:0,0:0:0:0:
39,270,52154,6,0,L|46:218,1,37.5000014305115,0|0,1:2|0:0,0:0:0:0:
2,79,52326,2,0,L|9:131,1,36.2500011062622,0|0,1:2|0:0,0:0:0:0:
95,174,52499,6,0,L|130:168,1,34.9999989318848,0|0,1:2|0:0,0:0:0:0:
243,151,52671,2,0,L|208:157,1,33.750000128746,0|0,1:2|0:0,0:0:0:0:
153,62,52843,6,0,L|159:97,1,32.4999985122681,0|0,1:2|0:0,0:0:0:0:
181,230,53016,2,0,L|186:260,1,31.25,0|0,1:2|0:0,0:0:0:0:
352,338,53188,5,0,1:0:0:0:
362,337,53275,1,0,1:0:0:0:
376,336,53361,5,0,1:0:0:0:
398,329,53447,1,0,1:0:0:0:
421,317,53533,5,0,1:0:0:0:
444,297,53619,1,0,1:0:0:0:
462,271,53706,5,0,1:0:0:0:
476,233,53792,1,0,1:0:0:0:
477,192,53878,5,0,1:0:0:0:
461,141,53964,1,0,1:0:0:0:
424,103,54050,5,0,1:0:0:0:
363,83,54137,1,0,1:0:0:0:
299,88,54223,5,0,1:0:0:0:
242,142,54309,1,0,1:0:0:0:
230,220,54395,5,0,1:0:0:0:
278,292,54481,1,0,1:0:0:0:
359,223,54568,5,4,1:3:0:0:
365,187,54654,1,4,0:3:0:0:
339,213,54740,1,4,0:3:0:0:
375,207,54826,1,4,0:3:0:0:
343,190,54912,1,4,0:3:0:0:
91,99,55085,5,4,1:3:0:0:
169,113,55171,1,0,0:2:0:0:
112,55,55257,1,4,0:3:0:0:
125,135,55343,1,4,0:3:0:0:
162,63,55430,1,4,0:3:0:0:
306,296,55602,6,0,P|323:173|243:253,1,300,0|0,1:0|0:0,0:0:0:0:
315,280,55947,6,2,B|357:257|397:282|397:282|428:320|480:312,1,179.999994506836,6|0,2:2|2:0,1:0:0:0:
510,238,56292,1,8,0:0:0:0:
306,142,56464,2,2,B|304:189|263:212|263:212|214:219|195:268,1,179.999994506836,2|0,2:2|2:0,1:0:0:0:
244,331,56809,1,0,1:0:0:0:
430,203,56981,2,2,B|389:178|390:130|390:130|408:85|375:44,1,179.999994506836,10|0,2:2|2:0,1:0:0:0:
297,55,57326,5,0,1:0:0:0:
195,268,57499,1,2,0:0:0:0:
61,73,57671,2,0,P|114:73|159:102,1,104.999996795654,8|2,0:0|0:0,0:0:0:0:
243,200,57930,1,0,0:0:0:0:
243,200,58016,6,2,B|226:153|226:153|235:104,1,99.9999999999999,2|0,0:0|1:2,1:0:0:0:
440,85,58361,2,2,B|458:132|458:132|449:182,1,99.9999999999999,10|0,2:0|0:0,1:0:0:0:
344,368,58706,6,0,P|323:305|327:238,1,134.999995880127,2|0,1:2|0:0,0:0:0:0:
374,175,59050,1,8,0:0:0:0:
497,318,59223,2,0,P|500:234|436:264,1,179.999994506836,2|0,0:0|1:0,0:0:0:0:
434,273,59740,6,0,P|394:294|350:290,1,89.999997253418,10|0,0:2|0:0,0:0:0:0:
240,137,60085,1,2,0:0:0:0:
379,214,60257,2,0,P|339:193|295:197,1,89.999997253418,2|8,1:2|0:0,0:0:0:0:
185,350,60602,1,2,0:0:0:0:
28,195,60775,6,0,B|52:175|52:175|32:309,1,135.000000514984,2|0,0:0|1:0,0:0:0:0:
125,41,61119,2,0,B|101:21|101:21|121:155,1,135.000000514984,10|0,0:0|0:0,0:0:0:0:
353,28,61464,6,2,B|305:37|270:7|270:7|252:50|203:63,1,179.999994506836,2|0,1:2|2:0,1:0:0:0:
125,41,61809,1,8,0:0:0:0:
328,254,61981,2,2,B|344:207|387:192|387:192|359:155|372:106,1,179.999994506836,2|0,2:2|2:0,1:0:0:0:
430,50,62326,1,0,1:0:0:0:
144,119,62499,2,2,B|175:156|167:201|167:201|213:195|249:231,1,179.999994506836,10|0,2:2|2:0,1:0:0:0:
270,309,62843,5,0,1:0:0:0:
203,63,63016,1,2,0:0:0:0:
24,245,63188,2,0,P|67:218|119:211,1,104.999996795654,8|2,0:0|0:0,0:0:0:0:
249,232,63447,1,0,0:0:0:0:
249,232,63533,6,2,B|276:159|225:102|165:117|156:189|195:235|239:215|261:182|295:211|306:269|302:318|260:350|260:350|269:329|270:310,1,419.999987182617,2|8,0:2|0:0,1:0:0:0:
408,59,64050,1,0,0:0:0:0:
507,239,64223,6,0,P|443:264|366:259,1,144.000003515625,2|0,1:2|0:0,0:0:0:0:
342,185,64568,1,8,0:0:0:0:
90,341,64740,2,0,P|175:301|271:310,1,192.0000046875,2|0,0:0|1:0,0:0:0:0:
36,208,65257,6,0,L|33:183,8,22.4999993133545,8|0|0|0|0|0|0|0|0,0:0|0:0|0:0|0:0|0:0|0:0|0:0|0:0|0:0,0:0:0:0:
219,28,65775,1,0,1:0:0:0:
344,128,65947,6,0,P|308:101|255:100,1,99.9999999999999,10|0,0:2|0:0,0:0:0:0:
461,183,66292,2,0,P|454:138|417:100,1,99.9999999999999,2|0,0:2|1:0,0:0:0:0:
504,304,66637,2,0,P|532:263|532:214,1,99.9999999999999,10|0,0:2|0:0,0:0:0:0:
370,31,66981,6,2,P|360:119|386:206,1,179.999994506836,6|0,2:0|2:0,1:0:0:0:
442,260,67326,1,8,0:0:0:0:
134,184,67499,2,2,P|215:147|277:82,1,179.999994506836,2|0,2:0|2:0,1:0:0:0:
296,7,67843,1,0,1:0:0:0:
385,312,68016,2,2,P|313:259|225:238,1,179.999994506836,10|0,2:2|2:0,1:0:0:0:
150,259,68361,5,0,1:0:0:0:
220,28,68533,1,2,0:0:0:0:
385,204,68706,2,0,P|360:143|356:95,1,104.999996795654,8|2,0:0|0:0,0:0:0:0:
354,29,68964,1,0,0:0:0:0:
357,16,69050,6,2,B|405:7|405:7|452:25,1,99.9999999999999,2|0,2:0|1:0,1:0:0:0:
427,279,69395,2,2,B|378:287|378:287|331:269,1,99.9999999999999,10|0,2:0|2:0,1:0:0:0:
244,39,69740,6,0,P|269:103|266:170,1,134.999995880127,0|0,1:0|0:0,0:0:0:0:
225,234,70085,1,8,0:0:0:0:
51,35,70257,2,0,P|126:16|108:95,1,179.999994506836,2|0,0:0|1:0,0:0:0:0:
106,100,70775,6,0,P|146:79|190:83,1,89.999997253418,10|0,0:2|0:0,0:0:0:0:
300,236,71119,1,2,0:0:0:0:
161,159,71292,2,0,P|201:180|245:176,1,89.999997253418,2|8,1:2|0:0,0:0:0:0:
355,23,71637,1,2,0:0:0:0:
511,177,71809,6,0,B|487:197|487:197|507:63,1,135.000000514984,2|0,0:0|1:0,0:0:0:0:
420,338,72154,2,0,B|444:358|444:358|424:224,1,135.000000514984,10|0,0:0|0:0,0:0:0:0:
404,21,72499,6,2,B|375:52|382:98|382:98|319:120|265:80,1,202.500000772476,2|0,1:2|2:0,1:0:0:0:
229,16,72843,1,8,0:0:0:0:
343,326,73016,2,2,B|330:285|287:268|287:268|299:202|361:176,1,202.500000772476,2|0,2:2|2:0,1:0:0:0:
434,178,73361,1,0,1:0:0:0:
109,120,73533,2,2,B|150:129|186:100|186:100|237:144|229:210,1,202.500000772476,10|0,2:2|2:0,1:0:0:0:
191,275,73878,5,0,1:0:0:0:
229,16,74050,1,2,0:0:0:0:
434,178,74223,2,0,P|383:163|347:127,1,104.999996795654,8|2,0:0|0:0,0:0:0:0:
351,49,74481,1,0,0:0:0:0:
351,49,74568,6,2,B|386:16|431:12|431:12|368:32|308:102|319:206|319:206|312:160|347:127,1,419.999987182617,2|8,0:0|0:0,1:0:0:0:
509,186,75085,1,0,0:0:0:0:
380,330,75257,6,0,P|405:287|398:189,1,150,2|0,1:2|0:0,0:0:0:0:
347,127,75602,1,8,0:0:0:0:
140,306,75775,6,0,P|190:303|235:275,1,99.9999999999999,2|0,0:0|0:0,0:0:0:0:
301,193,76119,2,0,L|314:293,1,99.9999999999999,2|8,1:2|0:0,0:0:0:0:
282,57,76464,2,0,L|288:106,1,50,2|0,0:2|0:0,0:0:0:0:
232,278,76637,5,4,0:0:0:0:
448,209,76981,6,0,B|448:176|404:157|404:157|378:195|398:230,1,150,2|0,0:2|0:0,0:0:0:0:
500,310,77326,2,0,B|529:326|567:297|567:297|547:255|507:255,1,150,2|0,0:2|0:0,0:0:0:0:
388,304,77671,2,0,B|359:321|364:369|364:369|410:372|431:337,1,150,2|0,0:2|0:0,0:0:0:0:
445,200,78016,6,0,B|387:238|305:214|280:138|280:138|304:174|349:174,1,277.499998941421,6|0,0:2|0:0,0:0:0:0:
323,30,78361,2,0,P|340:58|347:95,1,69.9999978637695,2|0,0:0|0:0,0:0:0:0:
243,321,78533,2,0,P|249:286|267:256,1,69.9999978637695,2|0,0:0|0:0,0:0:0:0:
458,189,78706,5,8,0:0:0:0:
343,340,78878,2,0,L|337:291,1,50,2|0,0:0|0:0,0:0:0:0:
222,58,79050,1,2,0:0:0:0:
228,49,79137,1,2,0:0:0:0:
234,40,79223,2,0,L|228:89,1,50,2|0,0:0|0:0,0:0:0:0:
48,244,79395,6,2,B|123:235|123:235|144:214|144:214|168:229|168:229|246:220,1,212.500004053116,0|0,1:0|2:0,1:0:0:0:
329,212,79654,1,2,0:0:0:0:
329,212,79740,2,0,L|335:163,6,50,2|0|0|0|0|0|0,0:0|0:0|0:0|0:0|0:0|0:0|0:0,0:0:0:0:
381,345,80085,6,0,P|406:297|390:240,1,99.9999999999999,10|2,0:0|0:0,0:0:0:0:
309,86,80257,2,0,P|362:85|405:119,1,99.9999999999999,2|2,0:0|0:0,0:0:0:0:
482,298,80430,2,2,B|450:229|350:202|279:244|279:244|314:255|328:288,1,300,2|0,2:0|2:0,1:0:0:0:
196,211,80775,6,0,L|200:235,3,25,0|0|0|0,1:0|0:0|0:0|0:0,0:0:0:0:
327,286,81119,6,2,L|325:277,1,9.99999969482422,2|0,2:0|2:0,1:0:0:0:
345,203,81234,6,2,L|343:194,1,9.99999969482422,2|0,2:2|2:2,1:0:0:0:
363,119,81349,6,2,L|361:110,1,9.99999969482422,2|0,2:2|2:2,1:0:0:0:
250,16,81464,6,0,B|222:52|222:52|376:33,1,200,8|2,0:0|0:0,0:0:0:0:
498,16,81723,1,2,0:0:0:0:
502,20,81809,6,0,B|450:26,1,50,2|0,0:0|0:0,0:0:0:0:
345,203,81981,2,0,B|295:197,1,50,2|0,0:0|0:0,0:0:0:0:
477,146,82154,5,0,1:0:0:0:
287,109,82326,1,2,0:0:0:0:
419,251,82499,1,0,0:0:0:0:
396,59,82671,1,2,0:0:0:0:
302,229,82843,6,2,B|402:173|506:243|451:300|419:251,1,225.000008583069,10|0,2:0|2:0,1:0:0:0:
280,112,83188,2,2,B|231:80|288:25|358:129|302:229,1,225.000008583069,2|0,0:0|0:0,1:0:0:0:
49,247,83533,6,0,B|114:240|114:240|155:255|155:255|226:245|226:245|185:264|179:309,1,262.500002503395,4|0,0:0|0:0,0:0:0:0:
285,377,83878,6,0,P|279:342|256:316,1,69.9999978637695,2|0,0:0|0:0,0:0:0:0:
136,116,84050,2,0,P|142:150|165:177,1,69.9999978637695,2|0,0:0|0:0,0:0:0:0:
406,338,84223,6,0,L|357:331,1,50,8|0,0:0|0:0,0:0:0:0:
179,307,84395,2,0,L|130:300,1,50,2|0,0:0|0:0,0:0:0:0:
486,350,84568,6,0,L|480:301,1,50,2|0,0:0|0:0,0:0:0:0:
457,27,84740,1,2,0:0:0:0:
459,47,84826,1,2,0:0:0:0:
511,106,84912,6,2,B|484:60|412:40|357:67|357:67|399:64|441:82|459:127,1,300,2|0,1:2|0:0,1:0:0:0:
480,300,85257,6,2,B|336:276|336:276|324:218,1,200.000007629395,2|0,2:0|2:0,1:0:0:0:
358,67,85430,2,2,B|385:100|385:100|374:166,1,99.9999999999999,0|0,0:0|0:0,1:0:0:0:
104,239,85603,5,8,0:0:0:0:
128,243,85689,1,0,0:0:0:0:
153,247,85775,1,0,0:0:0:0:
178,252,85861,1,0,0:0:0:0:
253,264,85947,2,2,B|266:327|266:327|129:369|129:369|105:320,1,262.500002503395,2|0,2:2|2:0,1:0:0:0:
128,243,86292,6,0,P|127:189|104:239,1,150.000005722046,2|2,1:2|0:0,0:0:0:0:
59,37,86464,2,0,P|79:87|83:32,1,150.000005722046,2|2,0:0|0:0,0:0:0:0:
317,102,86637,6,2,B|239:88|254:134|168:116,1,150,0|0,0:0|0:0,1:0:0:0:
171,116,86981,6,0,P|265:97|348:209,1,250,8|2,0:0|0:0,0:0:0:0:
332,286,87240,1,2,0:0:0:0:
336,290,87326,6,0,P|359:291|385:282,1,50,2|0,0:0|0:0,0:0:0:0:
472,75,87499,1,2,0:0:0:0:
472,75,87585,1,2,0:0:0:0:
510,147,87671,6,0,B|492:175|487:209|487:209|467:188|462:157|462:157|451:186|427:202|427:202|429:168|415:137,1,250,2|0,1:0|0:0,0:0:0:0:
