osu file format v14

[General]
AudioFilename: audio.mp3
AudioLeadIn: 0
PreviewTime: 54826
Countdown: 0
SampleSet: Soft
StackLeniency: 0.2
Mode: 0
LetterboxInBreaks: 0
WidescreenStoryboard: 0

[Editor]
DistanceSpacing: 0.6
BeatDivisor: 4
GridSize: 32
TimelineZoom: 3.099999

[Metadata]
Title:Genesis (TV Size)
TitleUnicode:Genesis (TV Size)
Artist:STEREO DIVE FOUNDATION
ArtistUnicode:STEREO DIVE FOUNDATION
Creator:LowComboFC
Version:Mir's Insane
Source:Dimension W
Tags:anime wubs opening electronic CookieBite LCFC Firis Mistlud Moonlit Arf _Meep_ Kujinn -Mo- Akitoshi Mir Meg Silky xLolicore- Nanashima Asami InternalLight rrtyui
BeatmapID:1212034
BeatmapSetID:568693

[Difficulty]
HPDrainRate:6
CircleSize:4
OverallDifficulty:7.5
ApproachRate:9
SliderMultiplier:1.6
SliderTickRate:1

[Events]
//Background and Video events
0,0,"BG.jpg",0,0
//Break Periods
//Storyboard Layer 0 (Background)
//Storyboard Layer 1 (Fail)
//Storyboard Layer 2 (Pass)
//Storyboard Layer 3 (Foreground)
//Storyboard Sound Samples

[TimingPoints]
775,344.827586206897,4,2,14,70,1,0
775,-100,4,2,14,70,0,0
6292,-100,4,2,14,100,0,0
11809,-71.4285714285714,4,2,13,100,0,0
22154,-100,4,2,13,100,0,0
39395,-58.8235294117647,4,2,13,100,0,1
41809,-100,4,2,13,100,0,1
42154,-133.333333333333,4,2,13,100,0,1
42499,-58.8235294117647,4,2,13,100,0,1
43188,-71.4285714285714,4,2,13,100,0,1
43533,-90.9090909090909,4,2,13,100,0,0
43878,-71.4285714285714,4,2,13,100,0,0
44912,-100,4,2,14,70,0,0
54568,-100,4,2,13,100,0,0
55947,-71.4285714285714,4,2,13,100,0,1
65947,-71.4285714285714,4,2,13,100,0,0
66981,-71.4285714285714,4,2,13,100,0,1
76637,-71.4285714285714,4,2,13,100,0,0
78016,-58.8235294117647,4,2,13,100,0,1
80430,-100,4,2,13,100,0,1
80775,-133.333333333333,4,2,13,100,0,1
81119,-200,4,2,13,100,0,1
81464,-58.8235294117647,4,2,13,100,0,1
83188,-100,4,2,13,100,0,1
83533,-58.8235294117647,4,2,13,100,0,1
85947,-100,4,2,13,100,0,1
86292,-133.333333333333,4,2,13,100,0,1
86637,-58.8235294117647,4,2,13,100,0,1
87671,-200,4,2,13,100,0,0

[Colours]
Combo1 : 186,125,215
Combo2 : 245,95,99
Combo3 : 242,185,98
Combo4 : 255,255,85
Combo5 : 115,225,181
Combo6 : 124,184,216

[HitObjects]
134,104,775,6,0,B|112:84|88:85|88:85|91:111|107:141|107:141|121:169|115:200,1,160,4|0,0:0|0:0,0:0:0:0:
321,167,3533,6,0,P|252:167|196:214,1,120,0|0,0:0|0:0,0:0:0:0:
205,192,3878,2,0,P|256:162|295:163,1,80,0|0,0:0|0:0,0:0:0:0:
146,78,4912,6,0,B|116:52|116:52|116:164,1,120,0|0,0:0|0:0,0:0:0:0:
116,223,5257,2,0,L|149:224,2,20,0|0|0,0:0|0:0|0:0,0:0:0:0:
206,281,5430,1,0,0:0:0:0:
205,171,5602,2,0,L|238:172,2,20,0|0|0,0:0|0:0|0:0,0:0:0:0:
372,169,5775,1,0,0:0:0:0:
399,170,5861,1,0,0:0:0:0:
426,170,5947,6,0,L|276:170,1,120,0|0,0:0|0:0,0:0:0:0:
306,170,6292,6,0,B|294:207|294:207|308:266,1,80,6|0,0:0|0:0,0:0:0:0:
397,357,6637,2,0,B|406:317|406:317|394:280,1,80,6|0,0:0|0:0,0:0:0:0:
217,330,6981,2,0,L|312:331,1,80,6|0,0:0|0:0,0:0:0:0:
394,280,7326,1,6,0:0:0:0:
218,167,7499,6,0,B|206:204|206:204|215:243,1,80,2|4,0:0|0:0,0:0:0:0:
296,330,7843,1,2,0:0:0:0:
125,165,8016,2,0,B|113:202|113:202|122:241,1,80,6|0,0:0|0:0,0:0:0:0:
292,122,8361,2,0,B|301:82|301:82|289:45,1,80,6|0,0:0|0:0,0:0:0:0:
174,91,8706,1,6,0:0:0:0:
426,55,8878,1,2,0:0:0:0:
426,55,8964,1,0,0:0:0:0:
426,55,9050,5,4,0:0:0:0:
289,45,9223,1,6,0:0:0:0:
397,209,9395,5,6,0:0:0:0:
292,122,9568,1,4,0:0:0:0:
297,317,9740,5,6,0:0:0:0:
222,165,9912,1,4,0:0:0:0:
156,357,10085,5,6,0:0:0:0:
155,120,10257,1,6,0:0:0:0:
9,313,10430,5,4,0:0:0:0:
13,298,10775,2,0,P|61:286|129:319,1,120,0|0,0:0|0:0,0:0:0:0:
123,313,11119,2,0,L|123:267,1,40,0|0,0:0|0:0,0:0:0:0:
48,164,11292,2,0,L|47:203,1,40,0|0,0:0|0:0,0:0:0:0:
124,348,11464,2,0,L|122:214,1,120,0|0,0:0|0:0,0:0:0:0:
122,228,11809,5,4,0:0:0:0:
201,281,11981,1,0,0:0:0:0:
125,143,12154,1,8,0:0:0:0:
176,67,12326,2,0,P|215:130|197:195,1,111.999996582031,0|0,0:0|0:0,0:0:0:0:
201,281,12671,2,0,L|334:279,1,111.999996582031,4|8,0:0|0:0,0:0:0:0:
442,149,13016,1,0,0:0:0:0:
442,149,13102,1,0,0:0:0:0:
442,149,13188,5,4,0:0:0:0:
493,226,13361,1,0,0:0:0:0:
276,76,13533,1,8,0:0:0:0:
330,151,13706,2,0,L|451:148,1,111.999996582031,0|0,0:0|0:0,0:0:0:0:
502,76,14050,1,4,0:0:0:0:
358,240,14223,2,0,B|329:274|329:274|330:134,1,167.999994873047,8|0,0:0|0:0,0:0:0:0:
329,150,14568,6,0,L|217:152,1,111.999996582031,4|0,0:0|0:0,0:0:0:0:
121,83,14912,1,8,0:0:0:0:
222,254,15085,2,0,P|237:187|183:133,1,111.999996582031,0|0,0:0|0:0,0:0:0:0:
136,94,15430,1,4,0:0:0:0:
150,296,15602,1,8,0:0:0:0:
42,205,15775,2,0,L|153:207,1,111.999996582031,0|4,0:0|0:0,0:0:0:0:
220,96,16119,6,0,P|221:130|208:169,1,55.9999982910157,0|0,0:0|0:0,0:0:0:0:
150,296,16292,1,8,0:0:0:0:
150,296,16464,1,0,0:0:0:0:
280,247,16637,2,0,B|335:233|335:233|411:255,1,111.999996582031,0|4,0:0|0:0,0:0:0:0:
512,347,16981,2,0,B|457:361|457:361|381:339,1,111.999996582031,8|0,0:0|0:0,0:0:0:0:
280,247,17326,5,4,0:0:0:0:
388,248,17499,1,0,0:0:0:0:
183,192,17671,1,8,0:0:0:0:
282,358,17843,2,0,L|279:240,1,111.999996582031,0|0,0:0|0:0,0:0:0:0:
340,55,18188,2,0,L|337:166,1,111.999996582031,4|8,0:0|0:0,0:0:0:0:
116,132,18533,6,0,P|194:104|249:130,1,111.999996582031,0|4,0:0|0:0,0:0:0:0:
183,191,18878,1,0,0:0:0:0:
76,47,19050,1,8,0:0:0:0:
24,124,19223,2,0,L|26:235,1,111.999996582031,0|0,0:0|0:0,0:0:0:0:
75,303,19568,1,4,0:0:0:0:
204,194,19740,2,0,L|202:249,1,55.9999982910157,8|0,0:0|0:0,0:0:0:0:
297,272,19912,2,0,L|295:327,1,55.9999982910157,0|0,0:0|0:0,0:0:0:0:
423,149,20085,6,0,P|338:151|303:198,1,111.999996582031,4|0,0:0|0:0,0:0:0:0:
297,272,20430,1,8,0:0:0:0:
423,149,20602,2,0,L|422:16,1,111.999996582031,0|0,0:0|0:0,0:0:0:0:
320,165,20947,1,4,0:0:0:0:
512,25,21119,1,8,0:0:0:0:
311,174,21292,1,4,0:0:0:0:
166,22,21464,5,8,0:0:0:0:
205,22,21550,1,0,0:0:0:0:
244,22,21637,1,4,0:0:0:0:
154,130,21809,5,8,0:0:0:0:
115,130,21895,1,0,0:0:0:0:
76,130,21982,1,4,0:0:0:0:
259,122,22154,5,8,0:0:0:0:
258,141,22240,1,4,0:0:0:0:
258,161,22326,1,4,0:0:0:0:
258,181,22412,1,4,0:0:0:0:
258,201,22498,1,4,0:0:0:0:
257,221,22585,1,4,0:0:0:0:
257,241,22671,1,4,0:0:0:0:
257,261,22757,1,4,0:0:0:0:
257,285,22843,6,0,B|201:300|201:300|111:276,1,120,6|0,0:0|0:0,0:0:0:0:
141,284,23188,1,10,0:0:0:0:
354,346,23361,2,0,L|258:375,1,80,2|0,0:0|0:0,0:0:0:0:
199,214,23706,1,6,0:0:0:0:
354,346,23878,1,8,0:0:0:0:
145,138,24050,6,0,P|196:123|277:157,1,120,6|0,0:0|0:0,0:0:0:0:
258,141,24395,1,6,0:0:0:0:
67,186,24568,2,0,L|61:83,1,80,10|0,0:0|0:0,0:0:0:0:
105,24,24912,1,2,0:0:0:0:
199,214,25085,1,4,0:0:0:0:
305,24,25257,1,10,0:0:0:0:
205,83,25430,1,0,0:0:0:0:
383,93,25602,6,0,B|399:150|399:150|380:238,1,120,4|0,0:0|0:0,0:0:0:0:
386,209,25947,2,0,L|280:212,1,80,10|0,0:0|0:0,0:0:0:0:
453,284,26292,2,0,L|483:189,1,80,2|4,0:0|0:0,0:0:0:0:
224,206,26637,1,10,0:0:0:0:
361,16,26809,6,0,L|382:92,1,80,6|0,0:0|0:0,0:0:0:0:
386,209,27154,1,6,0:0:0:0:
170,120,27326,1,8,0:0:0:0:
270,115,27499,1,2,0:0:0:0:
224,206,27671,1,2,0:0:0:0:
218,35,27843,1,6,0:0:0:0:
227,300,28016,1,10,0:0:0:0:
224,206,28188,1,0,0:0:0:0:
13,301,28361,6,0,B|72:323|72:323|158:306,1,120,4|0,0:0|0:0,0:0:0:0:
127,311,28706,2,0,L|205:294,1,80,10|0,0:0|0:0,0:0:0:0:
224,206,29050,2,0,L|145:222,1,80,2|4,0:0|0:0,0:0:0:0:
207,377,29395,1,10,0:0:0:0:
181,129,29568,6,0,B|240:117|240:117|326:124,1,120,6|0,0:0|0:0,0:0:0:0:
299,121,29912,1,6,0:0:0:0:
87,72,30085,2,0,L|77:172,1,80,10|0,0:0|0:0,0:0:0:0:
188,208,30430,2,0,L|180:128,1,80,2|4,0:0|0:0,0:0:0:0:
53,250,30775,1,10,0:0:0:0:
79,151,30947,1,0,0:0:0:0:
229,320,31119,6,0,L|380:326,1,120,4|0,0:0|0:0,0:0:0:0:
348,324,31464,2,0,B|361:288|361:288|350:226,1,80,10|0,0:0|0:0,0:0:0:0:
268,127,31809,2,0,B|260:167|260:167|272:204,1,80,2|4,0:0|0:0,0:0:0:0:
353,247,32154,1,10,0:0:0:0:
102,93,32326,6,0,B|73:68|73:68|221:73,1,160,6|4,0:0|0:0,0:0:0:0:
84,188,32843,2,0,L|9:133,1,80,10|0,0:0|0:0,0:0:0:0:
102,93,33188,1,2,0:0:0:0:
84,188,33361,1,0,0:0:0:0:
175,203,33533,2,0,P|219:178|172:184,1,120,2|0,0:0|0:0,0:0:0:0:
182,169,33878,6,0,P|234:175|289:139,1,120,2|0,0:0|0:0,0:0:0:0:
289,138,34223,2,0,L|286:227,1,80,0|0,0:0|0:0,0:0:0:0:
286,218,34481,1,0,0:0:0:0:
293,227,34568,2,0,B|312:235|312:235|345:228,1,40,0|0,0:0|0:0,0:0:0:0:
426,170,34740,2,0,B|407:162|407:162|374:169,1,40,0|0,0:0|0:0,0:0:0:0:
405,318,34912,2,0,L|406:278,1,40,0|0,0:0|0:0,0:0:0:0:
499,237,35085,2,0,L|500:276,1,40,0|0,0:0|0:0,0:0:0:0:
317,343,35257,6,0,B|279:331|279:331|222:332,1,80,0|0,0:0|0:0,0:0:0:0:
110,315,35516,1,0,0:0:0:0:
110,315,35602,2,0,L|111:357,5,26.6666666666667,0|0|0|0|0|0,0:0|0:0|0:0|0:0|0:0|0:0,0:0:0:0:
152,239,35947,5,0,0:0:0:0:
143,212,36033,1,0,0:0:0:0:
179,185,36119,5,0,0:0:0:0:
188,158,36205,1,0,0:0:0:0:
150,132,36292,6,0,P|223:108|288:138,1,120,0|0,0:0|0:0,0:0:0:0:
262,119,36637,6,0,L|264:79,1,40,0|0,0:0|0:0,0:0:0:0:
149,0,36809,2,0,L|150:39,1,40,0|0,0:0|0:0,0:0:0:0:
262,120,36981,2,0,P|322:122|353:101,1,80,0|0,0:0|0:0,0:0:0:0:
338,113,37240,1,0,0:0:0:0:
345,120,37326,2,0,L|343:156,1,20,0|0,0:0|0:0,0:0:0:0:
345,236,37499,1,0,0:0:0:0:
345,236,37585,1,0,0:0:0:0:
345,236,37671,6,0,L|395:242,3,40,0|0|0|0,0:0|0:0|0:0|0:0,0:0:0:0:
294,290,38016,6,0,B|262:324|262:324|161:323,1,120,0|0,0:0|0:0,0:0:0:0:
168,316,38361,2,0,L|264:314,1,80,2|0,0:0|0:0,0:0:0:0:
151,240,38619,1,0,0:0:0:0:
151,240,38706,2,0,L|54:238,1,80,2|0,0:0|0:0,0:0:0:0:
13,317,39050,1,2,0:0:0:0:
13,317,39223,2,0,L|52:317,1,40,0|0,0:0|0:0,0:0:0:0:
274,199,39395,6,0,B|336:168|336:168|296:175|296:175|260:167|260:167|230:180|230:180|184:180|184:180|150:168|150:168|55:167,1,340.000006484985,4|0,0:0|0:0,0:0:0:0:
71,167,39912,2,0,B|62:137|62:137|76:84,1,68.0000012969971,0|0,0:0|0:0,0:0:0:0:
193,77,40085,2,0,L|150:68,1,34.0000006484985,8|0,0:0|0:0,0:0:0:0:
274,89,40257,2,0,L|204:92,1,68.0000012969971,0|0,0:0|0:0,0:0:0:0:
351,73,40430,2,0,L|285:94,1,68.0000012969971,0|0,0:0|0:0,0:0:0:0:
433,33,40602,1,0,0:0:0:0:
463,72,40688,1,0,0:0:0:0:
446,110,40775,6,0,B|447:154|447:154|465:181|465:181|466:209|466:209|455:240|455:240|464:270|464:270|456:318,1,204.000003890991,4|0,0:0|0:0,0:0:0:0:
314,212,41119,2,0,B|348:201|348:201|394:211,1,68.0000012969971,0|0,0:0|0:0,0:0:0:0:
458,304,41292,2,0,B|424:315|424:315|378:305,1,68.0000012969971,0|0,0:0|0:0,0:0:0:0:
228,241,41464,5,8,0:0:0:0:
182,226,41550,1,0,0:0:0:0:
135,258,41637,5,0,0:0:0:0:
181,243,41723,1,0,0:0:0:0:
141,212,41809,6,0,L|0:185,1,120,0|0,0:0|0:0,0:0:0:0:
23,189,42154,6,0,B|20:214|20:214|29:250,2,40.000001525879,4|0|0,0:0|0:0|0:0,0:0:0:0:
60,93,42499,6,0,B|95:100|95:100|180:93,1,68.0000012969971,0|0,0:0|0:0,0:0:0:0:
274,42,42671,1,0,0:0:0:0:
267,65,42757,1,0,0:0:0:0:
260,88,42843,2,0,L|381:88,1,68.0000012969971,8|0,0:0|0:0,0:0:0:0:
456,26,43016,2,0,L|335:26,1,68.0000012969971,0|0,0:0|0:0,0:0:0:0:
338,177,43188,5,0,0:0:0:0:
352,213,43275,1,0,0:0:0:0:
366,249,43361,1,0,0:0:0:0:
380,285,43447,1,0,0:0:0:0:
392,313,43533,6,0,L|396:328,13,11.0000003356934,4|0|0|0|0|0|0|0|0|0|0|0|0|0,0:0|0:0|0:0|0:0|0:0|0:0|0:0|0:0|0:0|0:0|0:0|0:0|0:0|0:0,0:0:0:0:
310,326,43878,6,0,L|247:326,1,55.9999982910157,2|0,0:0|0:0,0:0:0:0:
254,326,44395,6,0,B|255:374|213:382|151:346|175:277|291:299|254:170|180:145,1,279.999991455078,0|0,0:0|0:0,0:0:0:0:
205,160,44912,5,2,0:0:0:0:
194,149,45257,1,0,0:0:0:0:
182,137,45602,1,0,0:0:0:0:
170,126,45947,1,2,0:0:0:0:
86,203,46292,5,0,0:0:0:0:
101,201,46637,1,0,0:0:0:0:
131,199,46981,1,2,0:0:0:0:
116,200,47326,1,2,0:0:0:0:
136,316,47671,5,2,0:0:0:0:
155,313,48016,1,2,0:0:0:0:
170,311,48361,1,0,0:0:0:0:
185,309,48706,1,2,0:0:0:0:
270,237,49050,5,2,0:0:0:0:
251,234,49395,1,0,0:0:0:0:
236,232,49740,1,2,0:0:0:0:
221,230,50085,1,2,0:0:0:0:
123,56,50430,6,0,B|117:73|117:73|127:131,1,40,2|0,0:0|0:0,0:0:0:0:
103,76,50602,2,0,B|101:93|101:93|126:147,1,40,0|0,0:0|0:0,0:0:0:0:
93,103,50775,2,0,B|96:120|96:120|133:165,1,40,0|0,0:0|0:0,0:0:0:0:
92,129,50947,2,0,B|99:145|99:145|147:179,1,40,2|0,0:0|0:0,0:0:0:0:
97,160,51119,2,0,B|104:176|104:176|152:210,1,40,0|0,0:0|0:0,0:0:0:0:
102,187,51291,2,0,B|113:200|113:200|168:221,1,40,0|0,0:0|0:0,0:0:0:0:
114,213,51464,2,0,B|128:223|128:223|187:228,1,40,2|0,0:0|0:0,0:0:0:0:
132,232,51636,2,0,B|148:237|148:237|206:228,1,40,0|0,0:0|0:0,0:0:0:0:
384,57,51809,6,0,B|390:74|390:74|380:132,1,40,0|0,0:0|0:0,0:0:0:0:
399,79,51981,2,0,B|400:96|400:96|375:150,1,40,0|0,0:0|0:0,0:0:0:0:
409,106,52154,2,0,B|405:123|405:123|368:168,1,40,0|0,0:0|0:0,0:0:0:0:
410,132,52326,2,0,B|402:148|402:148|354:182,1,40,0|0,0:0|0:0,0:0:0:0:
405,163,52498,2,0,B|397:179|397:179|349:213,1,40,2|0,0:0|0:0,0:0:0:0:
400,190,52670,2,0,B|388:203|388:203|333:224,1,40,0|0,0:0|0:0,0:0:0:0:
388,216,52843,2,0,B|373:226|373:226|314:231,1,40,2|0,0:0|0:0,0:0:0:0:
370,235,53015,2,0,B|353:240|353:240|295:231,1,40,0|0,0:0|0:0,0:0:0:0:
185,116,53188,5,2,0:0:0:0:
189,92,53274,1,0,0:0:0:0:
202,72,53361,1,0,0:0:0:0:
221,57,53447,1,0,0:0:0:0:
244,51,53533,1,0,0:0:0:0:
268,53,53619,1,0,0:0:0:0:
290,64,53706,1,2,0:0:0:0:
306,82,53792,1,0,0:0:0:0:
315,104,53878,1,0,0:0:0:0:
315,128,53964,1,0,0:0:0:0:
306,150,54050,1,2,0:0:0:0:
290,168,54137,1,0,0:0:0:0:
268,179,54223,1,2,0:0:0:0:
244,181,54309,1,0,0:0:0:0:
220,177,54395,1,0,0:0:0:0:
201,161,54481,1,0,0:0:0:0:
189,139,54568,6,0,P|187:119|195:81,1,40,4|0,0:0|0:0,0:0:0:0:
268,179,54740,1,0,0:0:0:0:
290,168,54827,1,0,0:0:0:0:
306,150,54913,1,2,0:0:0:0:
315,128,54999,1,0,0:0:0:0:
315,104,55085,2,0,P|310:90|291:65,1,40,4|0,0:0|0:0,0:0:0:0:
244,181,55257,5,2,0:0:0:0:
221,175,55343,1,0,0:0:0:0:
202,160,55429,1,4,0:0:0:0:
189,140,55516,1,4,0:0:0:0:
185,116,55602,1,10,0:0:0:0:
185,116,55947,6,0,B|161:168|161:168|186:273,1,111.999996582031,6|0,0:0|0:0,0:0:0:0:
276,350,56292,1,8,0:0:0:0:
263,252,56464,1,2,0:0:0:0:
128,308,56637,1,0,0:0:0:0:
351,291,56809,1,4,0:0:0:0:
111,311,56981,2,0,L|-7:308,1,111.999996582031,10|0,0:0|0:0,0:0:0:0:
409,210,57326,5,4,0:0:0:0:
311,137,57498,1,0,0:0:0:0:
92,211,57670,1,8,0:0:0:0:
189,135,57843,1,0,0:0:0:0:
189,135,58188,5,4,0:0:0:0:
384,66,58361,2,0,B|414:48|414:48|252:46,1,167.999994873047,10|0,0:0|0:0,0:0:0:0:
280,46,58706,6,0,B|268:98|268:98|292:179,1,111.999996582031,6|0,0:0|0:0,0:0:0:0:
340,269,59050,1,10,0:0:0:0:
511,159,59223,2,0,L|372:157,1,111.999996582031,2|0,0:0|0:0,0:0:0:0:
350,255,59568,1,4,0:0:0:0:
193,41,59740,1,10,0:0:0:0:
134,117,59912,6,0,P|96:52|104:-4,1,111.999996582031,0|6,0:0|0:0,0:0:0:0:
193,41,60257,1,6,0:0:0:0:
66,187,60430,2,0,B|56:242|56:242|71:308,1,111.999996582031,8|2,0:0|0:0,0:0:0:0:
119,381,60775,1,6,0:0:0:0:
221,214,60947,1,4,0:0:0:0:
68,296,61119,2,0,L|269:297,1,167.999994873047,10|0,0:0|0:0,0:0:0:0:
235,296,61464,6,0,P|177:304|137:346,1,111.999996582031,6|0,0:0|0:0,0:0:0:0:
310,362,61809,1,8,0:0:0:0:
220,213,61981,2,0,L|217:102,1,111.999996582031,2|0,0:0|0:0,0:0:0:0:
129,65,62326,1,4,0:0:0:0:
321,145,62499,2,0,P|378:136|418:94,1,111.999996582031,10|0,0:0|0:0,0:0:0:0:
441,19,62843,5,4,0:0:0:0:
495,130,63016,1,0,0:0:0:0:
434,359,63188,1,8,0:0:0:0:
495,252,63361,1,0,0:0:0:0:
495,252,63533,2,0,L|429:253,1,55.9999982910157,2|0,0:0|0:0,0:0:0:0:
226,248,63706,1,4,0:0:0:0:
321,171,63878,2,0,B|347:249|347:249|306:361,1,167.999994873047,10|0,0:0|0:0,0:0:0:0:
317,329,64223,6,0,B|369:346|369:346|455:329,1,111.999996582031,6|0,0:0|0:0,0:0:0:0:
321,171,64568,1,8,0:0:0:0:
114,248,64740,2,0,L|244:247,1,111.999996582031,2|0,0:0|0:0,0:0:0:0:
338,157,65085,1,4,0:0:0:0:
114,248,65257,2,0,L|60:248,6,27.9999991455078,10|0|0|0|0|0|0,0:0|0:0|0:0|0:0|0:0|0:0|0:0,0:0:0:0:
114,248,65775,1,4,0:0:0:0:
138,62,65947,6,0,P|172:129|159:188,1,111.999996582031,10|0,0:0|0:0,0:0:0:0:
114,248,66292,1,6,0:0:0:0:
138,62,66464,1,4,0:0:0:0:
318,166,66637,2,0,P|200:187|156:147,1,167.999994873047,10|0,0:0|0:0,0:0:0:0:
168,163,66981,6,0,B|176:226|176:226|163:267|163:267|170:350,1,167.999994873047,6|0,0:0|0:0,0:0:0:0:
168,328,67326,1,8,0:0:0:0:
368,285,67499,2,0,L|237:293,1,111.999996582031,2|0,0:0|0:0,0:0:0:0:
174,337,67843,1,4,0:0:0:0:
368,285,68016,2,0,B|384:229|384:229|363:146,1,111.999996582031,10|0,0:0|0:0,0:0:0:0:
32,173,68361,5,4,0:0:0:0:
141,117,68533,1,0,0:0:0:0:
370,176,68706,1,8,0:0:0:0:
264,116,68878,1,0,0:0:0:0:
264,116,69223,1,4,0:0:0:0:
196,312,69395,2,0,B|168:340|168:340|173:178,1,167.999994873047,10|0,0:0|0:0,0:0:0:0:
171,211,69740,6,0,P|83:207|24:263,1,167.999994873047,6|0,0:0|0:0,0:0:0:0:
27,256,70085,2,0,L|34:190,1,55.9999982910157,10|0,0:0|0:0,0:0:0:0:
171,211,70257,1,2,0:0:0:0:
116,288,70430,1,0,0:0:0:0:
226,132,70602,1,4,0:0:0:0:
388,280,70775,6,0,P|278:307|210:256,1,167.999994873047,10|0,0:0|0:0,0:0:0:0:
234,284,71119,1,6,0:0:0:0:
309,205,71292,1,6,0:0:0:0:
148,67,71464,1,8,0:0:0:0:
226,132,71637,1,2,0:0:0:0:
18,177,71809,2,0,L|142:172,1,111.999996582031,6|4,0:0|0:0,0:0:0:0:
337,127,72154,2,0,L|225:131,1,111.999996582031,10|0,0:0|0:0,0:0:0:0:
426,54,72499,6,0,B|452:130|452:130|409:225,1,167.999994873047,6|0,0:0|0:0,0:0:0:0:
415,209,72843,1,8,0:0:0:0:
265,37,73016,1,2,0:0:0:0:
337,127,73188,1,0,0:0:0:0:
156,34,73361,1,4,0:0:0:0:
52,186,73533,2,0,L|24:186,6,27.9999991455078,10|0|0|0|0|0|0,0:0|0:0|0:0|0:0|0:0|0:0|0:0,0:0:0:0:
23,302,73878,5,4,0:0:0:0:
179,302,74050,1,0,0:0:0:0:
492,302,74223,1,8,0:0:0:0:
336,303,74395,1,0,0:0:0:0:
203,137,74568,2,0,P|277:121|323:148,1,111.999996582031,2|4,0:0|0:0,0:0:0:0:
256,383,74912,2,0,L|256:192,1,167.999994873047,10|0,0:0|0:0,0:0:0:0:
256,215,75257,6,0,B|238:268|238:268|257:324,1,111.999996582031,6|0,0:0|0:0,0:0:0:0:
404,213,75602,1,8,0:0:0:0:
144,215,75775,2,0,L|270:214,1,111.999996582031,2|0,0:0|0:0,0:0:0:0:
386,213,76119,1,4,0:0:0:0:
197,7,76292,1,10,0:0:0:0:
161,98,76464,1,2,0:0:0:0:
456,12,76637,5,4,0:0:0:0:
463,37,76981,6,0,B|472:83|472:83|456:144|456:144|470:213,1,167.999994873047,2|0,0:0|0:0,0:0:0:0:
467,200,77326,2,0,B|386:171|396:235|281:199,1,167.999994873047,2|0,0:0|0:0,0:0:0:0:
303,205,77671,2,0,L|304:162,1,27.9999991455078,2|0,0:0|0:0,0:0:0:0:
303,177,78016,6,0,B|365:208|365:208|325:201|325:201|289:209|289:209|259:196|259:196|213:196|213:196|179:208|179:208|84:209,1,340.000006484985,4|0,0:0|0:0,0:0:0:0:
100,208,78533,2,0,B|92:179|92:179|100:136,1,68.0000012969971,0|0,0:0|0:0,0:0:0:0:
243,80,78706,2,0,L|202:76,1,34.0000006484985,8|0,0:0|0:0,0:0:0:0:
325,80,78878,2,0,L|239:94,1,68.0000012969971,0|0,0:0|0:0,0:0:0:0:
401,71,79050,2,0,L|322:106,1,68.0000012969971,0|0,0:0|0:0,0:0:0:0:
477,41,79223,2,0,L|410:95,1,68.0000012969971,0|0,0:0|0:0,0:0:0:0:
371,203,79395,6,0,L|370:236,2,34.0000006484985,4|0|0,0:0|0:0|0:0,0:0:0:0:
459,159,79568,1,0,0:0:0:0:
459,199,79654,1,0,0:0:0:0:
458,239,79740,2,0,L|457:272,6,34.0000006484985,0|0|0|0|0|0|0,0:0|0:0|0:0|0:0|0:0|0:0|0:0,0:0:0:0:
347,309,80085,5,8,0:0:0:0:
307,299,80171,1,0,0:0:0:0:
268,346,80257,5,0,0:0:0:0:
308,336,80343,1,0,0:0:0:0:
271,288,80430,6,0,L|143:261,1,120,0|0,0:0|0:0,0:0:0:0:
153,263,80775,6,0,L|149:284,6,15.0000005722046,4|0|0|0|0|0|0,0:0|0:0|0:0|0:0|0:0|0:0|0:0,0:0:0:0:
213,193,81119,6,0,L|148:177,1,60,0|0,0:0|0:0,0:0:0:0:
154,178,81464,6,0,B|142:146|142:146|151:89,1,68.0000012969971,8|0,0:0|0:0,0:0:0:0:
223,31,81637,1,0,0:0:0:0:
255,55,81723,1,0,0:0:0:0:
302,98,81809,5,0,0:0:0:0:
277,130,81895,1,0,0:0:0:0:
306,160,81981,5,0,0:0:0:0:
281,192,82068,1,0,0:0:0:0:
308,223,82154,6,0,B|404:190|409:273|517:224,1,204.000003890991,6|0,0:0|0:0,0:0:0:0:
505,228,82499,2,0,P|453:220|424:225,1,68.0000012969971,0|0,0:0|0:0,0:0:0:0:
402,315,82671,2,0,P|454:323|483:318,1,68.0000012969971,2|0,0:0|0:0,0:0:0:0:
251,296,82843,6,0,B|229:304|229:304|265:322|265:322|317:327|317:327|346:314|346:314|367:304|417:318,1,204.000003890991,10|0,0:0|0:0,0:0:0:0:
308,223,83188,6,0,P|261:205|184:227,1,120,2|0,0:0|0:0,0:0:0:0:
194,219,83533,6,0,B|160:242|160:242|150:196|150:196|163:159|163:159|151:132|151:132|151:62,1,204.000003890991,4|0,0:0|0:0,0:0:0:0:
151,85,83878,2,0,B|184:75|184:75|228:86,1,68.0000012969971,0|0,0:0|0:0,0:0:0:0:
69,131,84050,2,0,B|79:164|79:164|68:208,1,68.0000012969971,0|0,0:0|0:0,0:0:0:0:
131,332,84223,2,0,L|71:324,1,34.0000006484985,8|0,0:0|0:0,0:0:0:0:
216,340,84395,2,0,L|136:350,1,68.0000012969971,0|0,0:0|0:0,0:0:0:0:
291,322,84568,2,0,L|217:352,1,68.0000012969971,0|0,0:0|0:0,0:0:0:0:
375,330,84740,1,0,0:0:0:0:
401,298,84826,1,0,0:0:0:0:
375,266,84912,6,0,B|358:216|358:216|381:168|381:168|353:137|347:98|387:50,1,204.000003890991,4|0,0:0|0:0,0:0:0:0:
460,193,85257,2,0,L|440:237,6,34.0000006484985,0|0|0|0|0|0|0,0:0|0:0|0:0|0:0|0:0|0:0|0:0,0:0:0:0:
287,173,85603,5,8,0:0:0:0:
247,183,85689,1,0,0:0:0:0:
208,136,85775,5,0,0:0:0:0:
248,146,85861,1,0,0:0:0:0:
211,194,85948,6,0,L|83:221,1,120,0|0,0:0|0:0,0:0:0:0:
93,219,86293,6,0,B|82:198|82:198|81:162,2,40.000001525879,4|0|0,0:0|0:0|0:0,0:0:0:0:
66,325,86637,6,0,L|15:254,1,68.0000012969971,0|0,0:0|0:0,0:0:0:0:
217,289,86809,1,0,0:0:0:0:
217,289,86895,1,0,0:0:0:0:
217,289,86981,2,0,B|181:280|181:280|147:288,1,68.0000012969971,8|0,0:0|0:0,0:0:0:0:
181,367,87154,2,0,B|216:375|216:375|250:367,1,68.0000012969971,0|0,0:0|0:0,0:0:0:0:
375,307,87326,5,0,0:0:0:0:
352,273,87412,1,0,0:0:0:0:
371,235,87499,5,0,0:0:0:0:
394,201,87585,1,0,0:0:0:0:
339,159,87671,6,0,L|424:160,1,80,6|0,0:0|0:0,0:0:0:0:
