osu file format v14

[General]
AudioFilename: audio.mp3
AudioLeadIn: 0
PreviewTime: 54826
Countdown: 0
SampleSet: Soft
StackLeniency: 0.4
Mode: 0
LetterboxInBreaks: 0
WidescreenStoryboard: 0

[Editor]
Bookmarks: 775,11809,22843,33878,44912,55947,78016,87671
DistanceSpacing: 1
BeatDivisor: 4
GridSize: 32
TimelineZoom: 2.9

[Metadata]
Title:Genesis (TV Size)
TitleUnicode:Genesis (TV Size)
Artist:STEREO DIVE FOUNDATION
ArtistUnicode:STEREO DIVE FOUNDATION
Creator:LowComboFC
Version:Meg's Extra
Source:Dimension W
Tags:anime wubs opening electronic CookieBite LCFC Firis Mistlud Moonlit Arf _Meep_ Kujinn -Mo- Akitoshi Mir Meg Silky xLolicore- Nanashima Asami InternalLight rrtyui
BeatmapID:1207316
BeatmapSetID:568693

[Difficulty]
HPDrainRate:6
CircleSize:4.2
OverallDifficulty:8
ApproachRate:9.3
SliderMultiplier:1.9
SliderTickRate:1

[Events]
//Background and Video events
0,0,"BG.jpg",0,0
//Break Periods
2,1319,2979
//Storyboard Layer 0 (Background)
//Storyboard Layer 1 (Fail)
//Storyboard Layer 2 (Pass)
//Storyboard Layer 3 (Foreground)
//Storyboard Sound Samples

[TimingPoints]
775,344.827586206897,4,2,3,30,1,0
2154,-100,4,2,3,40,0,0
3533,-100,4,2,3,50,0,0
4912,-100,4,2,3,60,0,0
5602,-200,4,2,3,60,0,0
5861,-66.6666666666667,4,2,3,60,0,0
6292,-133.333333333333,4,2,3,60,0,0
9050,-133.333333333333,4,2,3,60,0,0
10430,-100,4,2,3,60,0,0
11119,-66.6666666666667,4,2,3,60,0,0
11464,-200,4,2,3,60,0,0
11809,-100,4,2,3,60,0,0
32843,-133.333333333333,4,2,3,60,0,0
33533,-100,4,2,3,60,0,0
33878,-133.333333333333,4,2,3,60,0,0
34481,-100,4,2,3,60,0,0
35257,-133.333333333333,4,2,3,60,0,0
35602,-100,4,2,3,60,0,0
36292,-100,4,2,3,60,0,0
36637,-80,4,2,3,60,0,0
36981,-100,4,2,3,60,0,0
38016,-100,4,2,3,60,0,0
38361,-200,4,2,3,60,0,0
39223,-66.6666666666667,4,2,3,60,0,0
39395,-133.333333333333,4,2,3,60,0,0
40085,-100,4,2,3,60,0,0
40430,-100,4,2,3,60,0,0
40775,-80,4,2,3,60,0,0
41119,-100,4,2,3,60,0,0
41464,-100,4,2,3,60,0,0
41809,-100,4,2,3,60,0,0
42154,-133.333333333333,4,2,3,60,0,0
42499,-100,4,2,3,60,0,0
42843,-80,4,2,3,60,0,0
43533,-100,4,2,3,60,0,0
43878,-200,4,2,3,60,0,0
44912,-200,4,2,3,30,0,0
50430,-100,4,2,3,40,0,0
51119,-100,4,2,3,50,0,0
51809,-100,4,2,3,60,0,0
52499,-100,4,2,3,70,0,0
53188,-100,4,2,3,80,0,0
53878,-100,4,2,3,90,0,0
54568,-100,4,2,3,60,0,0
55602,-200,4,2,3,60,0,0
55947,-90.9090909090909,4,2,3,80,0,1
58361,-133.333333333333,4,2,3,80,0,1
58706,-90.9090909090909,4,2,3,80,0,1
59050,-66.6666666666667,4,2,3,80,0,1
59568,-90.9090909090909,4,2,3,80,0,1
60085,-66.6666666666667,4,2,3,80,0,1
60775,-90.9090909090909,4,2,3,80,0,1
61119,-200,4,2,3,80,0,1
61464,-90.9090909090909,4,2,3,80,0,1
63878,-133.333333333333,4,2,3,80,0,1
64223,-80,4,2,3,80,0,1
66981,-90.9090909090909,4,2,3,80,0,1
69395,-133.333333333333,4,2,3,80,0,1
69740,-90.9090909090909,4,2,3,80,0,1
70085,-66.6666666666667,4,2,3,80,0,1
70775,-90.9090909090909,4,2,3,80,0,1
71119,-66.6666666666667,4,2,3,80,0,1
71809,-90.9090909090909,4,2,3,80,0,1
72154,-200,4,2,3,80,0,1
72499,-90.9090909090909,4,2,3,80,0,1
74912,-133.333333333333,4,2,3,80,0,1
75257,-90.9090909090909,4,2,3,80,0,1
76981,-200,4,2,3,40,0,0
77585,-100,4,2,3,40,0,0
78016,-100,4,2,3,70,0,0
78188,-133.333333333333,4,2,3,60,0,0
78706,-100,4,2,3,60,0,0
79050,-100,4,2,3,60,0,0
79395,-80,4,2,3,60,0,0
80085,-100,4,2,3,60,0,0
80775,-80,4,2,3,60,0,0
81119,-100,4,2,3,60,0,0
82154,-133.333333333333,4,2,3,60,0,0
82843,-80,4,2,3,60,0,0
83188,-66.6666666666667,4,2,3,60,0,0
83533,-100,4,2,3,60,0,0
84395,-80,4,2,3,60,0,0
84912,-66.6666666666667,4,2,3,60,0,0
85257,-133.333333333333,4,2,3,60,0,0
85602,-200,4,2,3,60,0,0
86292,-100,4,2,3,60,0,0
86637,-100,4,2,3,60,0,0
86981,-133.333333333333,4,2,3,60,0,0
87326,-66.6666666666667,4,2,3,60,0,0
87671,-266.666666666667,4,2,3,60,0,0
87757,-266.666666666667,4,2,3,60,0,0
87843,-266.666666666667,4,2,3,40,0,0
87930,-266.666666666667,4,2,3,20,0,0
88016,-266.666666666667,4,2,3,5,0,0

[Colours]
Combo1 : 186,125,215
Combo2 : 245,95,99
Combo3 : 242,185,98
Combo4 : 255,255,85
Combo5 : 115,225,181
Combo6 : 124,184,216

[HitObjects]
32,312,775,6,0,P|95:332|43:291,1,190,8|0,0:0|0:0,0:0:0:0:
480,72,3533,6,0,P|416:51|468:92,1,190,2|0,0:0|0:0,0:0:0:0:
324,108,4912,6,0,L|305:201,1,95,2|0,0:0|0:0,0:0:0:0:
212,176,5257,2,0,L|209:164,8,11.875
244,252,5516,1,0,0:0:0:0:
271,271,5602,6,0,P|294:279|318:278,1,47.5
384,224,5861,1,2,0:0:0:0:
392,188,5947,6,0,P|381:154|355:129,1,71.2500027179719,10|0,0:1|0:0,0:0:0:0:
260,76,6119,2,0,P|225:68|190:78,1,71.2500027179719
97,134,6292,6,0,B|80:84|80:84|88:48|88:48|73:-2,2,142.500005435944,2|2|2,0:0|0:0|0:0,0:0:0:0:
84,337,7326,1,2,0:0:0:0:
96,232,7499,2,0,L|88:302,1,71.2500027179719,0|2,0:0|0:0,0:0:0:0:
0,275,7843,1,0,0:0:0:0:
173,365,8016,2,0,L|180:294,1,71.2500027179719,2|0,0:0|0:0,0:0:0:0:
278,214,8361,2,0,L|263:355,1,142.500005435944,2|2,0:0|0:0,0:0:0:0:
187,223,8878,1,0,0:0:0:0:
353,345,9050,5,2,0:0:0:0:
360,274,9223,1,2,0:0:0:0:
263,355,9395,5,2,0:0:0:0:
278,214,9568,1,2,0:0:0:0:
173,365,9740,5,2,0:0:0:0:
196,154,9912,1,2,0:0:0:0:
83,375,10085,5,2,0:0:0:0:
114,94,10257,1,2,0:0:0:0:
417,315,10430,6,0,L|426:220,1,95,2|0,0:0|0:0,0:0:0:0:
480,136,10688,1,8,0:3:0:0:
464,155,10775,2,0,P|421:174|375:166,1,95,8|0,0:3|0:0,0:0:0:0:
128,148,11119,6,0,L|198:136,1,71.2500027179719
411,103,11292,2,0,L|340:114,1,71.2500027179719
269,125,11464,6,0,L|280:195,1,71.2500027179719,2|0,0:1|0:0,0:0:0:0:
325,267,11809,6,0,P|268:228|202:247,1,142.5,6|0,0:1|0:0,0:0:0:0:
159,328,12154,2,0,P|175:309|183:287,1,47.5,8|0,0:0|0:0,0:0:0:0:
100,176,12326,2,0,L|103:270,1,95,2|0,0:1|0:0,0:0:0:0:
256,308,12671,1,2,0:0:0:0:
81,348,12843,1,10,0:0:0:0:
24,176,13016,2,0,L|20:81,1,95,2|2,0:1|0:0,0:0:0:0:
183,287,13361,5,0,0:0:0:0:
179,192,13533,1,8,0:0:0:0:
183,287,13706,2,0,L|186:381,1,95,2|0,0:1|0:0,0:0:0:0:
144,103,14050,2,0,P|123:115|106:131,1,47.5,2|0,0:1|0:0,0:0:0:0:
182,287,14223,2,0,P|246:257|275:194,1,142.5,10|0,0:1|0:0,0:0:0:0:
179,192,14568,6,0,L|318:219,1,142.5,2|0,0:1|0:0,0:0:0:0:
383,258,14912,2,0,L|336:265,1,47.5,8|0,0:0|0:0,0:0:0:0:
256,372,15085,2,0,L|263:277,1,95,2|2,0:1|0:0,0:0:0:0:
336,152,15430,1,2,0:0:0:0:
182,287,15602,1,10,0:0:0:0:
376,353,15775,2,0,L|383:258,1,95,2|2,0:1|0:0,0:0:0:0:
479,43,16119,6,0,L|475:90,1,47.5,2|0,0:1|0:0,0:0:0:0:
403,23,16292,2,0,L|399:70,1,47.5,8|0,0:0|0:0,0:0:0:0:
327,3,16464,2,0,L|323:50,1,47.5,2|0,0:1|0:0,0:0:0:0:
467,184,16637,6,0,L|463:231,1,47.5,2|0,0:0|0:0,0:0:0:0:
315,144,16809,2,0,L|311:191,1,47.5,2|0,0:1|0:0,0:0:0:0:
376,353,16981,6,0,L|386:210,1,142.5,2|0,0:1|0:0,0:0:0:0:
401,140,17326,6,0,P|373:203|307:226,1,142.5,2|0,0:1|0:0,0:0:0:0:
264,244,17671,2,0,L|212:232,1,47.5,8|0,0:0|0:0,0:0:0:0:
36,284,17843,2,0,B|79:267|79:267|126:279,1,95,2|2,0:1|0:0,0:0:0:0:
264,172,18188,1,2,0:0:0:0:
168,84,18361,1,10,0:0:0:0:
126,279,18533,2,0,B|109:235|109:235|121:188,1,95,2|2,0:1|0:0,0:0:0:0:
276,52,18878,5,0,0:0:0:0:
168,84,19050,1,8,0:0:0:0:
276,52,19223,2,0,L|369:69,1,95,2|2,0:1|0:0,0:0:0:0:
364,284,19568,2,0,L|371:237,1,47.5,2|0,0:1|0:0,0:0:0:0:
432,128,19740,2,0,L|453:268,1,142.5,10|0,0:1|0:0,0:0:0:0:
419,349,20085,6,0,B|360:304|360:304|370:237,1,142.5,2|0,0:1|0:0,0:0:0:0:
360,192,20430,2,0,P|382:200|405:205,1,47.5,8|0,0:0|0:0,0:0:0:0:
336,100,20602,2,0,P|289:110|245:127,1,95,2|0,0:1|0:0,0:0:0:0:
126,279,20947,1,2,0:0:0:0:
100,124,21119,1,10,0:0:0:0:
50,314,21292,2,0,P|82:349|128:360,1,95,2|2,0:1|0:0,0:0:0:0:
248,178,21637,6,0,P|240:201|230:222,1,47.5,2|0,0:1|0:0,0:0:0:0:
126,279,21809,2,0,P|109:261|96:241,1,47.5,2|0,0:1|0:0,0:0:0:0:
100,124,21981,2,0,P|123:118|146:117,1,47.5,2|0,0:1|0:0,0:0:0:0:
274,334,22154,5,2,0:0:0:0:
310,348,22240,1,2,0:0:0:0:
349,344,22326,1,2,0:0:0:0:
381,322,22412,1,2,0:0:0:0:
399,287,22499,1,2,0:0:0:0:
398,248,22585,1,2,0:0:0:0:
379,214,22671,2,0,P|373:191|370:168,1,47.5,2|0,0:1|0:0,0:0:0:0:
390,67,22843,6,0,L|248:47,1,142.5,6|0,0:0|0:0,0:0:0:0:
249,47,23188,1,8,0:0:0:0:
275,154,23361,6,0,L|180:140,1,95
369,167,23706,1,2,0:0:0:0:
180,140,23878,1,8,0:0:0:0:
301,260,24050,6,0,L|395:273,1,95,2|0,0:0|0:0,0:0:0:0:
207,247,24395,1,2,0:0:0:0:
327,366,24568,6,0,L|421:379,1,95,8|0,0:0|0:0,0:0:0:0:
359,185,24912,2,0,L|300:259,1,95,0|2,0:0|0:0,0:0:0:0:
499,303,25257,2,0,L|463:214,1,95,8|0,0:0|0:0,0:0:0:0:
233,353,25602,5,2,0:0:0:0:
233,353,25947,2,0,B|211:286|211:286|236:218,1,142.5,8|0,0:0|0:0,0:0:0:0:
236,218,26292,1,0,0:0:0:0:
160,148,26464,1,2,0:0:0:0:
312,288,26637,1,8,0:0:0:0:
71,303,26809,2,0,L|166:293,1,95,2|0,0:0|0:0,0:0:0:0:
160,148,27154,5,2,0:0:0:0:
233,353,27326,1,8,0:0:0:0:
290,187,27499,2,0,L|306:143,1,47.5
160,148,27671,1,0,0:0:0:0:
312,288,27843,1,2,0:0:0:0:
377,141,28016,2,0,B|377:85|305:65|305:65|310:93,1,142.5,8|0,0:0|0:0,0:0:0:0:
290,187,28361,5,6,0:0:0:0:
290,187,28706,2,0,L|310:94,1,95,8|0,0:0|0:0,0:0:0:0:
208,244,29050,6,0,L|187:151,1,95,0|2,0:0|0:0,0:0:0:0:
188,152,29395,1,8,0:0:0:0:
360,268,29568,6,0,L|380:175,1,95,2|0,0:0|0:0,0:0:0:0:
380,175,29912,1,2,0:0:0:0:
138,325,30085,6,0,L|117:232,1,95,8|0,0:0|0:0,0:0:0:0:
380,175,30430,2,0,L|360:268,1,95,0|2,0:0|0:0,0:0:0:0:
188,152,30775,2,0,L|167:59,1,95,8|0,0:0|0:0,0:0:0:0:
229,337,31119,5,2,0:0:0:0:
229,337,31464,2,0,P|172:296|105:313,1,142.5,8|0,0:0|0:0,0:0:0:0:
105,313,31809,1,0,0:0:0:0:
256,228,31981,1,2,0:0:0:0:
112,172,32154,1,8,0:0:0:0:
229,337,32326,6,0,P|285:377|352:360,1,142.5,2|0,0:0|0:0,0:0:0:0:
352,360,32671,1,2,0:0:0:0:
444,216,32843,6,0,L|454:286,1,71.2500027179719,8|0,0:0|0:0,0:0:0:0:
433,145,33188,2,0,L|443:215,1,71.2500027179719
454,286,33447,6,0,L|449:251,1,35.625001358986,2|2,0:1|0:1,0:0:0:0:
448,250,33878,6,0,P|395:254|347:276,1,106.875004076958,6|0,0:0|0:0,0:0:0:0:
360,344,34223,2,0,P|332:322|297:322,1,71.2500027179719
192,332,34481,1,0,0:0:0:0:
216,356,34568,6,0,L|210:308,1,47.5,8|0,0:3|0:0,0:0:0:0:
108,292,34740,2,0,L|113:244,1,47.5
256,212,34912,2,0,L|250:164,1,47.5,2|0,0:1|0:0,0:0:0:0:
68,148,35085,2,0,L|73:100,1,47.5
295,68,35257,6,0,B|328:53|328:53|364:53,1,71.2500027179719,2|0,0:1|0:0,0:0:0:0:
464,156,35516,1,0,0:0:0:0:
459,179,35602,2,0,L|454:202,7,23.75
495,264,35947,5,2,3:2:0:0:
450,276,36033,1,2,3:2:0:0:
407,259,36119,1,2,3:2:0:0:
382,219,36206,1,2,3:2:0:0:
386,172,36292,2,0,P|394:150|396:126,1,47.5,10|0,0:1|0:0,0:0:0:0:
285,21,36464,2,0,P|287:44|295:67,1,47.5
215,232,36637,6,0,P|251:214|290:216,2,79.1666666666667,8|8|8,0:0|0:0|0:0,0:0:0:0:
172,308,36981,1,0,0:0:0:0:
72,192,37154,1,0,0:0:0:0:
78,144,37240,1,0,0:0:0:0:
84,97,37326,1,2,0:3:0:0:
222,184,37499,2,0,L|215:231,1,47.5
60,287,37671,5,2,3:2:0:0:
66,239,37757,1,2,3:2:0:0:
72,192,37843,1,2,3:2:0:0:
78,144,37930,1,2,3:2:0:0:
84,97,38016,6,0,L|126:119,1,47.5,8|0,0:0|0:0,0:0:0:0:
215,231,38188,2,0,L|260:216,1,47.5
345,97,38361,6,0,L|390:111,1,47.5,2|0,0:1|0:0,0:0:0:0:
390,111,38619,1,0,3:0:0:0:
390,111,38706,1,0,3:0:0:0:
456,248,38878,1,0,0:0:0:0:
328,328,39050,1,2,0:0:0:0:
328,328,39223,6,0,L|322:256,1,71.2500027179719,2|0,0:1|0:0,0:0:0:0:
323,188,39395,6,0,P|269:243|294:169,1,213.750008153916,6|0,0:0|0:0,0:0:0:0:
256,280,39999,1,0,0:0:0:0:
212,288,40085,6,0,P|195:270|185:249,1,47.5,8|0,0:0|0:0,0:0:0:0:
184,168,40257,2,0,P|194:146|211:129,1,47.5
370,129,40430,6,0,P|386:146|396:167,1,47.5,2|0,0:1|0:0,0:0:0:0:
398,249,40602,2,0,P|387:270|370:287,1,47.5
212,288,40775,6,0,P|128:272|73:337,1,178.125,2|0,0:1|0:0,0:0:0:0:
156,352,41119,6,0,L|134:309,1,47.5
144,216,41292,2,0,L|122:173,1,47.5
132,80,41464,5,8,3:2:0:0:
124,65,41550,1,0,3:0:0:0:
117,51,41637,1,0,3:0:0:0:
110,37,41723,1,0,3:0:0:0:
44,76,41809,6,0,L|65:118,1,47.5,2|0,0:0|0:0,0:0:0:0:
56,212,41981,2,0,L|77:254,1,47.5
282,280,42154,6,0,L|211:287,1,71.2500027179719,2|0,0:1|0:0,0:0:0:0:
160,344,42412,1,0,0:0:0:0:
195,363,42499,6,0,P|219:364|242:357,1,47.5,8|0,0:0|0:0,0:0:0:0:
314,214,42671,2,0,P|291:207|268:208,1,47.5
424,356,42843,6,0,B|444:264|376:280|405:183,1,178.125,8|0,0:0|0:0,0:0:0:0:
475,166,43188,2,0,P|478:195|471:224,1,59.375,2|0,0:1|0:0,0:0:0:0:
351,381,43361,2,0,P|348:352|356:324,1,59.375,2|0,0:1|0:0,0:0:0:0:
405,184,43533,6,0,L|358:182,1,47.5,8|8,0:3|0:3,0:0:0:0:
256,280,43706,2,0,L|279:278,2,23.75,0|0|0,3:0|3:0|3:0,3:0:0:0:
160,188,43878,6,0,B|120:184|120:184|104:188|104:188|65:182,2,95
331,160,44912,6,0,P|332:113|308:72,1,95,0|0,0:0|3:0,0:0:0:0:
368,236,45430,2,0,P|401:202|413:157,1,95
338,314,45947,2,0,P|362:318|385:315,1,47.5,0|0,3:0|0:0,0:0:0:0:
264,356,46292,6,0,P|230:322|185:310,1,95,0|0,0:0|3:0,0:0:0:0:
28,352,46981,1,0,0:0:0:0:
28,352,47326,1,0,3:0:0:0:
28,352,47671,6,0,B|11:308|11:308|22:260,1,95,0|2,0:0|0:0,0:0:0:0:
100,256,48188,2,0,L|91:302,1,47.5,0|2,0:0|0:0,0:0:0:0:
164,152,48706,6,0,B|180:108|180:108|169:60,1,95
92,55,49223,2,0,L|100:101,1,47.5,0|2,0:0|0:0,0:0:0:0:
14,49,49568,5,0,0:0:0:0:
30,141,49740,2,0,L|39:188,1,47.5,2|0,0:0|0:0,0:0:0:0:
55,280,50085,2,0,L|63:326,1,47.5,2|0,0:0|0:0,0:0:0:0:
292,336,50430,5,2,0:0:0:0:
300,339,50516,1,2,0:0:0:0:
309,336,50602,1,2,0:0:0:0:
313,327,50688,1,2,0:0:0:0:
309,318,50775,1,2,0:0:0:0:
300,314,50861,1,2,0:0:0:0:
292,318,50947,1,2,0:0:0:0:
288,327,51033,1,2,0:0:0:0:
292,336,51119,5,2,0:0:0:0:
318,346,51206,1,2,0:0:0:0:
344,336,51292,1,2,0:0:0:0:
355,309,51378,1,2,0:0:0:0:
344,283,51464,1,2,0:0:0:0:
318,272,51550,1,2,0:0:0:0:
292,283,51637,1,2,0:0:0:0:
281,309,51723,1,2,0:0:0:0:
292,336,51809,5,2,0:0:0:0:
335,354,51895,1,2,0:0:0:0:
379,336,51981,1,2,0:0:0:0:
397,292,52068,1,2,0:0:0:0:
379,248,52154,1,2,0:0:0:0:
335,230,52240,1,2,0:0:0:0:
292,248,52326,1,2,0:0:0:0:
273,292,52412,1,2,0:0:0:0:
292,336,52499,5,2,0:0:0:0:
352,360,52585,1,2,0:0:0:0:
412,336,52671,1,2,0:0:0:0:
437,276,52757,1,2,0:0:0:0:
412,216,52843,1,2,0:0:0:0:
352,191,52930,1,2,0:0:0:0:
292,216,53016,1,2,0:0:0:0:
268,276,53102,1,2,0:0:0:0:
291,335,53188,6,0,P|313:345|336:352,1,47.5,2|2,0:0|0:0,0:0:0:0:
481,259,53361,2,0,P|459:268|436:275,1,47.5,2|2,0:0|0:0,0:0:0:0:
291,182,53533,2,0,P|312:191|335:198,1,47.5,2|2,0:0|0:0,0:0:0:0:
480,105,53706,2,0,P|458:114|435:121,1,47.5,2|2,0:0|0:0,0:0:0:0:
352,276,53878,6,0,L|355:228,1,47.5,2|2,0:0|0:0,0:0:0:0:
256,64,54050,2,0,L|252:111,1,47.5,2|2,0:0|0:0,0:0:0:0:
184,300,54223,2,0,L|187:252,1,47.5,2|2,0:0|0:0,0:0:0:0:
88,88,54395,2,0,L|84:135,1,47.5,2|2,0:0|0:0,0:0:0:0:
16,324,54568,6,0,L|19:276,1,47.5,12|0,1:3|0:0,0:0:0:0:
184,300,54740,2,0,L|187:252,1,47.5
352,276,54912,5,0,0:0:0:0:
352,260,54999,1,0,0:0:0:0:
353,244,55085,1,4,0:3:0:0:
354,228,55171,1,0,0:0:0:0:
272,184,55257,5,8,0:3:0:0:
272,168,55343,1,8,0:3:0:0:
273,152,55430,1,8,0:3:0:0:
274,136,55516,1,8,0:3:0:0:
192,92,55602,6,0,L|196:20,1,71.25,12|0,0:3|0:0,0:0:0:0:
104,104,55947,6,0,P|111:128|126:150,1,52.2500015945435,6|0,0:1|0:0,0:0:0:0:
216,248,56119,2,0,P|190:242|164:244,1,52.2500015945435
35,272,56292,2,0,P|52:253|63:229,1,52.2500015945435,8|0,0:0|0:0,0:0:0:0:
156,54,56464,5,2,0:1:0:0:
123,34,56550,1,0,0:0:0:0:
85,34,56637,1,0,0:0:0:0:
51,54,56723,1,0,0:0:0:0:
33,88,56809,1,2,0:0:0:0:
204,168,56981,6,0,L|214:116,1,52.2500015945435,10|0,0:1|0:0,0:0:0:0:
284,24,57154,2,0,L|294:75,1,52.2500015945435
320,184,57326,6,0,B|384:192|424:168|424:168|412:192|412:215,1,156.750004783631,2|0,0:0|0:0,0:0:0:0:
480,264,57671,2,0,P|457:250|433:241,1,52.2500015945435,8|0,0:0|0:0,0:0:0:0:
320,276,57843,2,0,P|294:282|271:293,1,52.2500015945435
440,368,58016,6,0,P|433:342|422:319,1,52.2500015945435,2|0,0:1|0:0,0:0:0:0:
320,184,58188,2,0,P|297:170|273:161,1,52.2500015945435,2|0,0:0|0:0,0:0:0:0:
359,366,58361,6,0,P|373:314|359:263,1,106.875004076958,10|0,0:1|0:0,0:0:0:0:
251,79,58706,6,0,B|224:120|183:132|183:132|207:168|205:196,1,156.750004783631,2|0,0:0|0:0,0:0:0:0:
132,257,59050,6,0,P|114:227|112:192,1,71.2500027179719,10|0,0:1|0:0,0:0:0:0:
205,196,59223,2,0,L|352:224,1,142.500005435944,2|0,0:1|0:0,0:0:0:0:
256,344,59568,1,2,0:0:0:0:
416,208,59740,6,0,B|388:108|388:108|374:159,1,156.750004783631,8|0,0:0|0:0,0:0:0:0:
308,136,60085,6,0,L|326:67,1,71.2500027179719,2|0,0:1|0:0,0:0:0:0:
452,80,60257,2,0,L|491:217,1,142.500005435944,2|8,0:1|0:0,0:0:0:0:
384,336,60602,1,0,0:0:0:0:
374,159,60775,6,0,L|321:165,1,52.2500015945435,2|0,0:1|0:0,0:0:0:0:
237,242,60947,2,0,L|184:248,1,52.2500015945435,2|0,0:1|0:0,0:0:0:0:
100,325,61119,6,0,L|29:333,1,71.25,10|0,0:1|0:0,0:0:0:0:
167,360,61464,6,0,B|175:334|175:334|175:308,1,52.2500015945435,2|0,0:1|0:0,0:0:0:0:
100,196,61637,2,0,B|99:222|99:222|107:247,1,52.2500015945435
240,372,61809,2,0,B|247:346|247:346|247:320,1,52.2500015945435,8|0,0:0|0:0,0:0:0:0:
256,192,61981,5,2,0:1:0:0:
289,171,62068,1,0,0:0:0:0:
327,167,62154,1,0,0:0:0:0:
364,180,62240,1,0,0:0:0:0:
391,208,62326,1,2,0:0:0:0:
184,220,62499,6,0,P|179:194|182:168,1,52.2500015945435,10|0,0:1|0:0,0:0:0:0:
308,48,62671,2,0,P|312:73|309:99,1,52.2500015945435
320,248,62843,6,0,B|316:304|276:336|276:336|228:305,1,156.750004783631,2|0,0:0|0:0,0:0:0:0:
111,314,63188,2,0,L|160:296,1,52.2500015945435,8|0,0:0|0:0,0:0:0:0:
231,187,63361,2,0,L|182:168,1,52.2500015945435
4,208,63533,6,0,P|23:224|56:240,1,52.2500015945435,2|0,0:1|0:0,0:0:0:0:
160,296,63706,2,0,P|185:300|221:297,1,52.2500015945435,2|0,0:0|0:0,0:0:0:0:
339,293,63878,6,0,P|387:271|425:235,1,106.875004076958,10|0,0:1|0:0,0:0:0:0:
456,164,64223,6,0,L|448:105,1,59.375,2|0,0:1|0:0,0:0:0:0:
353,36,64395,1,0,0:0:0:0:
356,62,64481,1,0,0:0:0:0:
360,88,64568,1,8,0:0:0:0:
332,220,64740,6,0,L|324:161,1,59.375,2|0,0:1|0:0,0:0:0:0:
229,92,64912,1,0,0:0:0:0:
232,118,64999,1,0,0:0:0:0:
236,144,65085,1,2,0:0:0:0:
208,276,65257,6,0,L|200:217,1,59.375,10|0,0:1|0:0,0:0:0:0:
112,200,65430,2,0,L|104:141,1,59.375
9,72,65602,1,0,0:0:0:0:
12,98,65688,1,0,0:0:0:0:
16,124,65775,1,2,0:0:0:0:
16,280,65947,5,10,0:1:0:0:
104,141,66119,1,0,0:0:0:0:
16,280,66292,5,2,0:1:0:0:
200,217,66464,1,2,0:0:0:0:
16,280,66637,5,10,0:1:0:0:
296,293,66809,1,0,0:0:0:0:
16,280,66981,6,0,L|9:228,1,52.2500015945435,6|0,0:1|0:0,0:0:0:0:
110,192,67154,2,0,L|103:140,1,52.2500015945435
204,104,67326,2,0,L|197:52,1,52.2500015945435,8|0,0:0|0:0,0:0:0:0:
302,200,67499,5,2,0:1:0:0:
339,210,67585,1,0,0:0:0:0:
377,220,67671,1,0,0:0:0:0:
415,231,67757,1,0,0:0:0:0:
453,241,67843,1,2,0:0:0:0:
245,288,68016,6,0,L|193:295,1,52.2500015945435,10|0,0:1|0:0,0:0:0:0:
110,192,68188,2,0,L|162:185,1,52.2500015945435
288,348,68361,6,0,B|336:300|304:248|304:248|287:267|269:278,1,156.750004783631,2|0,0:0|0:0,0:0:0:0:
352,328,68706,2,0,P|374:314|398:304,1,52.2500015945435,8|0,0:0|0:0,0:0:0:0:
499,264,68878,2,0,P|476:250|452:240,1,52.2500015945435
300,176,69050,6,0,P|325:181|349:192,1,52.2500015945435,2|0,0:1|0:0,0:0:0:0:
484,376,69223,2,0,P|478:350|467:326,1,52.2500015945435,2|0,0:0|0:0,0:0:0:0:
432,164,69395,6,0,B|424:104|424:104|466:121,1,106.875004076958,10|0,0:1|0:0,0:0:0:0:
352,120,69740,6,0,B|342:98|344:76|344:76|295:96|234:100,1,156.750004783631,2|0,0:0|0:0,0:0:0:0:
168,120,70085,6,0,P|166:84|182:53,1,71.2500027179719,10|0,0:1|0:0,0:0:0:0:
300,184,70257,2,0,P|306:254|279:319,1,142.500005435944,2|0,0:1|0:0,0:0:0:0:
235,100,70602,1,2,0:0:0:0:
72,220,70775,6,0,B|28:196|28:196|16:140|49:94,1,156.750004783631,8|0,0:0|0:0,0:0:0:0:
176,144,71119,6,0,L|105:154,1,71.2500027179719,2|0,0:1|0:0,0:0:0:0:
0,260,71292,2,0,L|142:270,1,142.500005435944,2|8,0:1|0:0,0:0:0:0:
49,95,71637,1,0,0:0:0:0:
256,296,71809,6,0,L|242:245,1,52.2500015945435,2|0,0:1|0:0,0:0:0:0:
175,143,71981,2,0,L|162:194,1,52.2500015945435,2|0,0:1|0:0,0:0:0:0:
256,92,72154,6,0,L|236:23,1,71.25,10|0,0:1|0:0,0:0:0:0:
335,75,72499,6,0,P|336:102|330:127,1,52.2500015945435,2|0,0:1|0:0,0:0:0:0:
284,275,72671,2,0,P|261:262|242:244,1,52.2500015945435
137,130,72843,2,0,P|159:116|184:108,1,52.2500015945435,8|0,0:0|0:0,0:0:0:0:
312,196,73016,5,2,0:1:0:0:
309,235,73102,1,0,0:0:0:0:
306,274,73188,1,0,0:0:0:0:
303,313,73275,1,0,0:0:0:0:
301,352,73361,1,2,0:0:0:0:
458,331,73533,6,0,L|406:325,1,52.2500015945435,10|0,0:1|0:0,0:0:0:0:
312,196,73706,2,0,L|363:202,1,52.2500015945435
301,352,73878,6,0,B|197:338|197:338|245:315,1,156.750004783631,2|0,0:0|0:0,0:0:0:0:
180,268,74223,2,0,B|169:297|169:297|169:318,1,52.2500015945435,8|0,0:0|0:0,0:0:0:0:
312,196,74395,2,0,B|322:225|322:225|322:246,1,52.2500015945435
128,180,74568,6,0,B|99:194|99:194|84:208,1,52.2500015945435,2|0,0:1|0:0,0:0:0:0:
364,108,74740,2,0,B|392:122|392:122|407:136,1,52.2500015945435,2|0,0:0|0:0,0:0:0:0:
153,80,74912,6,0,B|102:68|102:68|48:80,1,106.875004076958,10|0,0:1|0:0,0:0:0:0:
84,208,75257,6,0,B|129:208|169:164|169:164|156:192|159:220,1,156.750004783631,2|0,0:0|0:0,0:0:0:0:
244,208,75602,2,0,L|295:197,1,52.2500015945435,8|0,0:0|0:0,0:0:0:0:
104,292,75775,2,0,L|52:281,1,52.2500015945435
244,376,75947,2,0,L|295:365,1,52.2500015945435
159,219,76119,6,0,P|168:244|182:266,1,52.2500015945435,2|0,0:1|0:0,0:0:0:0:
274,129,76292,2,0,P|248:123|222:125,1,52.2500015945435,10|0,0:1|0:0,0:0:0:0:
296,274,76464,2,0,P|313:254|324:231,1,52.2500015945435,2|0,0:1|0:0,0:0:0:0:
104,292,76637,5,2,0:0:0:0:
100,174,76981,6,0,P|103:209|101:244,1,71.25
104,292,77326,2,0,P|100:268|100:244,1,47.5
96,126,77585,6,0,P|99:149|99:173,1,47.5,2|2,0:1|0:1,0:0:0:0:
98,173,78016,6,0,P|122:169|146:169,1,47.5,6|0,0:0|0:0,0:0:0:0:
228,232,78188,6,0,L|234:161,1,71.2500027179719
316,36,78533,1,0,0:0:0:0:
324,64,78619,1,0,0:0:0:0:
332,92,78706,2,0,L|379:98,1,47.5,8|0,0:0|0:0,0:0:0:0:
452,172,78878,6,0,L|357:185,1,95,2|0,0:1|0:0,0:0:0:0:
355,197,79137,1,0,0:0:0:0:
353,208,79223,1,0,0:0:0:0:
351,220,79309,1,0,0:0:0:0:
376,260,79395,6,0,L|383:318,1,59.375
252,356,79568,2,0,L|259:297,1,59.375
248,164,79740,2,0,L|218:168,7,29.6875,2|0|0|0|0|0|0|0,0:1|0:0|0:0|0:0|0:0|0:0|0:0|0:0,0:0:0:0:
176,244,80085,5,8,3:2:0:0:
141,212,80171,1,0,3:0:0:0:
128,167,80257,1,0,3:0:0:0:
142,122,80343,1,0,3:0:0:0:
177,91,80430,6,0,P|200:85|223:83,1,47.5,2|0,0:1|0:0,0:0:0:0:
304,170,80602,2,0,P|297:192|288:214,1,47.5
252,356,80775,6,0,L|281:360,7,29.6875,2|0|0|0|0|0|0|0,0:1|0:0|0:0|0:0|0:0|0:0|0:0|0:0,0:0:0:0:
176,364,81119,2,0,P|177:340|186:318,1,47.5
347,320,81292,2,0,P|355:343|356:367,1,47.5
304,170,81464,5,8,0:0:0:0:
456,240,81637,2,0,L|408:244,1,47.5
276,288,81809,5,0,3:0:0:0:
228,282,81895,1,0,3:0:0:0:
181,276,81981,1,0,3:0:0:0:
134,270,82068,1,0,3:0:0:0:
87,264,82154,6,0,L|81:193,1,71.2500027179719,2|0,0:1|0:0,0:0:0:0:
60,276,82499,2,0,L|53:205,1,71.2500027179719,2|0,0:1|0:0,0:0:0:0:
32,287,82843,6,0,L|26:227,1,59.375,2|0,0:1|0:0,0:0:0:0:
104,40,83016,2,0,L|109:99,1,59.375,2|0,0:1|0:0,0:0:0:0:
168,252,83188,6,0,B|196:266|196:266|224:258|224:258|264:298|336:294|368:252,1,213.750008153916,2|0,0:1|0:0,0:0:0:0:
423,180,83533,5,6,0:0:0:0:
408,171,83619,1,0,0:0:0:0:
391,165,83705,1,0,0:0:0:0:
374,161,83791,1,0,0:0:0:0:
356,161,83877,1,0,0:0:0:0:
338,163,83964,1,0,0:0:0:0:
321,169,84050,1,0,0:0:0:0:
306,177,84136,1,0,0:0:0:0:
291,188,84222,1,8,0:0:0:0:
357,317,84395,6,0,L|362:257,1,59.375,2|0,0:0|0:0,0:0:0:0:
384,328,84568,2,0,L|389:268,1,59.375,2|0,0:0|0:0,0:0:0:0:
411,339,84740,2,0,L|416:279,1,59.375,2|0,0:0|0:0,0:0:0:0:
152,251,84912,6,0,P|159:347|255:340,1,213.750008153916,2|0,0:1|0:0,0:0:0:0:
203,296,85257,6,0,P|162:329|111:340,1,106.875004076958
40,380,85602,5,8,3:2:0:0:
32,345,85688,1,0,3:0:0:0:
37,310,85774,1,0,3:0:0:0:
29,275,85861,1,0,3:0:0:0:
34,240,85947,6,0,P|35:204|34:168,1,71.25,2|0,0:1|0:0,0:0:0:0:
40,88,86292,6,0,L|17:95,4,23.75,2|0|0|0|0,0:1|0:0|0:0|0:0|0:0,0:0:0:0:
112,128,86550,1,0,0:0:0:0:
139,148,86637,2,0,P|143:124|144:100,1,47.5,2|0,0:1|0:0,0:0:0:0:
232,28,86809,2,0,P|232:51|236:75,1,47.5
292,228,86981,6,0,L|398:215,1,106.875004076958,8|0,0:0|0:0,0:0:0:0:
484,260,87326,6,0,L|413:251,1,71.2500027179719,2|0,0:1|0:0,0:0:0:0:
292,228,87499,2,0,L|221:219,1,71.2500027179719,2|0,0:1|0:0,0:0:0:0:
100,196,87671,6,0,L|29:187,1,71.2500027179719,2|0,0:0|0:0,0:0:0:0:
