osu file format v14

[General]
AudioFilename: Genesis.mp3
AudioLeadIn: 0
PreviewTime: 43987
Countdown: 0
SampleSet: None
StackLeniency: 0.7
Mode: 0
LetterboxInBreaks: 0
CountdownOffset: 3
WidescreenStoryboard: 0

[Editor]
Bookmarks: 10711,26228,33987,39504
DistanceSpacing: 1.1
BeatDivisor: 2
GridSize: 16
TimelineZoom: 1.8

[Metadata]
Title:Genesis
TitleUnicode:Genesis
Artist:STEREO DIVE FOUNDATION
ArtistUnicode:STEREO DIVE FOUNDATION
Creator:Mitkoff
Version:Easy
Source:Dimension W
Tags:opening op M_o_c_h_a mocha Lantis TV size
BeatmapID:1557027
BeatmapSetID:737760

[Difficulty]
HPDrainRate:2
CircleSize:3
OverallDifficulty:2
ApproachRate:3
SliderMultiplier:0.8
SliderTickRate:1

[Events]
//Background and Video events
Video,0,"Genesis(Tv size opening).avi"
0,0,"00.png",0,0
//Break Periods
2,39704,43581
//Storyboard Layer 0 (Background)
//Storyboard Layer 1 (Fail)
//Storyboard Layer 2 (Pass)
//Storyboard Layer 3 (Foreground)
//Storyboard Sound Samples

[TimingPoints]
884,344.827586206897,4,2,1,70,1,0
6401,-100,4,3,1,65,0,0
10884,-100,4,2,1,80,0,0
22952,-100,4,2,1,70,0,0
32952,-100,4,2,1,85,0,0
33987,-100,4,2,1,60,0,0
39504,-100,4,2,1,80,0,0
45021,-100,4,2,1,50,0,0
53297,-100,4,3,1,50,0,0
54677,-100,4,3,1,70,0,0
56056,-100,4,2,1,90,0,1
78125,-100,4,3,0,90,0,0
78211,-100,4,2,1,90,0,0
80884,-100,4,3,0,90,0,0
80970,-100,4,2,1,90,0,0
83642,-100,4,3,0,90,0,0
83728,-100,4,2,1,90,0,0
86401,-100,4,3,0,90,0,0
86487,-100,4,2,1,90,0,0
87952,-100,4,2,1,5,0,0

[Colours]
Combo1 : 255,255,128
Combo2 : 128,128,255
Combo3 : 192,192,192
Combo4 : 255,128,64
Combo5 : 64,128,128

[HitObjects]
256,192,884,12,0,5021,0:0:0:0:
448,284,6401,6,0,P|380:312|292:292,1,160,4|4,0:0|0:0,0:0:0:0:
224,244,7435,1,4,0:0:0:0:
160,180,7780,2,0,P|137:103|166:30,1,160,4|4,0:0|0:0,0:0:0:0:
252,24,8815,1,4,0:0:0:0:
270,109,9159,6,0,P|289:149|329:179,1,80,4|4,0:0|0:0,0:0:0:0:
358,93,9849,2,0,P|388:119|405:155,1,80,4|4,0:0|0:0,0:0:0:0:
404,243,10539,1,4,0:0:0:0:
104,336,11918,6,0,P|84:252|104:176,1,160,4|2,0:0|0:0,0:0:0:0:
156,113,12952,1,10,0:0:0:0:
221,171,13297,2,0,L|309:167,1,80,0|8,0:0|0:0,0:0:0:0:
265,86,13987,2,0,L|344:82,1,80,0|8,0:0|0:0,0:0:0:0:
426,116,14677,6,0,P|462:196|442:268,1,160,0|0,0:0|0:0,0:0:0:0:
382,324,15711,1,8,0:0:0:0:
294,312,16056,2,0,B|240:289|237:209|175:198,1,160,0|0,0:0|0:0,0:0:0:0:
99,175,17090,1,8,0:0:0:0:
31,118,17435,6,0,P|67:94|113:88,1,80,0|8,0:0|0:0,0:0:0:0:
189,101,18125,2,0,L|265:160,1,80,2|10,0:0|0:0,0:0:0:0:
243,238,18815,2,0,P|305:220|336:137,1,160,0|0,0:0|0:0,0:0:0:0:
328,48,19849,1,8,0:0:0:0:
246,81,20194,6,0,B|201:81|201:81|138:48|138:48|88:49,1,160,0|0,0:0|0:0,0:0:0:0:
27,106,21228,1,8,0:0:0:0:
65,185,21573,2,0,P|104:192|148:183,1,80,0|8,0:0|0:0,0:0:0:0:
232,172,22263,2,0,P|243:209|238:249,1,80,8|8,0:0|0:0,0:0:0:0:
192,324,22952,6,0,P|235:337|277:324,1,80,4|8,0:0|0:0,0:0:0:0:
353,304,23642,2,0,P|390:289|423:247,1,80,0|8,0:0|0:0,0:0:0:0:
458,181,24332,2,0,P|440:104|376:59,1,160
289,48,25366,1,8,0:0:0:0:
222,105,25711,6,0,B|159:120|113:72|56:97,1,160,0|0,0:0|0:0,0:0:0:0:
90,178,26746,1,8,0:0:0:0:
104,264,27090,2,0,P|129:291|169:307,1,80,0|8,0:0|0:0,0:0:0:0:
181,219,27780,2,0,P|218:233|245:261,1,80,0|8,0:0|0:0,0:0:0:0:
251,350,28470,6,0,L|339:350,1,80,0|8,0:0|0:0,0:0:0:0:
405,301,29159,2,0,P|434:252|425:189,2,120,0|0|8,0:0|0:0|0:0,0:0:0:0:
347,233,30539,2,0,P|303:225|265:232,1,80,0|8,0:0|0:0,0:0:0:0:
185,259,31228,6,0,L|177:167,1,80,0|8,0:0|0:0,0:0:0:0:
125,108,31918,2,0,P|81:93|9:101,2,120,0|0|2,0:0|0:0|0:0,0:0:0:0:
213,108,33297,2,0,L|301:100,1,80,0|0,0:0|0:0,0:0:0:0:
256,192,33987,12,2,39504,0:0:0:0:
78,219,45021,6,0,P|66:155|82:87,2,120,2|2|2,0:0|0:0|0:0,0:0:0:0:
124,293,46401,1,0,0:0:0:0:
299,308,47090,6,0,B|374:351|451:303,1,160,2|2,0:0|0:0,0:0:0:0:
395,234,48125,2,0,P|383:197|404:147,1,80,2|2,0:0|0:0,0:0:0:0:
450,90,48815,6,0,P|372:62|299:84,1,160,2|2,0:0|0:0,0:0:0:0:
243,150,49849,2,0,P|242:189|244:248,1,80,2|0,0:0|0:0,0:0:0:0:
184,295,50539,6,0,P|122:327|67:328,2,120,2|0|2,0:0|0:0|0:0,0:0:0:0:
244,230,51918,2,0,P|282:218|322:220,1,80,2|2,0:0|0:0,0:0:0:0:
400,259,52608,2,0,P|410:210|398:176,1,80,2|2,0:0|0:0,0:0:0:0:
369,101,53297,6,0,L|201:89,1,160,2|0,0:0|0:0,0:0:0:0:
127,121,54332,1,0,0:0:0:0:
84,198,54677,2,0,P|121:209|173:195,1,80,8|8,0:0|0:0,0:0:0:0:
245,176,55366,2,0,P|284:181|320:198,1,80,8|8,0:0|0:0,0:0:0:0:
352,281,56056,6,0,P|404:230|388:142,1,160,4|0,0:0|0:0,0:0:0:0:
335,82,57090,1,8,0:0:0:0:
421,66,57435,2,0,B|498:118|493:214,1,160,0|0,0:0|0:0,0:0:0:0:
427,260,58470,1,8,0:0:0:0:
500,308,58815,6,0,P|431:344|356:309,1,160,0|0,0:0|0:0,0:0:0:0:
305,244,59849,2,0,P|236:208|161:243,1,160,8|8,0:0|0:0,0:0:0:0:
84,275,60884,2,0,L|79:192,1,80,0|8,0:0|0:0,0:0:0:0:
31,121,61573,6,0,P|12:62|31:9,2,120,0|0|8,0:0|0:0|0:0,0:0:0:0:
98,64,62952,2,0,L|194:68,1,80,0|8,0:0|0:0,0:0:0:0:
146,150,63642,2,0,L|225:153,1,80,0|8,0:0|0:0,0:0:0:0:
276,80,64332,6,0,P|331:53|388:69,2,120,0|0|8,0:0|0:0|0:0,0:0:0:0:
340,140,65711,2,0,P|359:234|325:290,1,160,0|0,0:0|0:0,0:0:0:0:
241,293,66746,1,8,2:0:0:0:
257,206,67090,6,0,P|201:214|159:261,2,120,4|0|8,0:0|0:0|0:0,0:0:0:0:
241,293,68470,2,0,P|317:329|381:281,1,160,0|0,0:0|0:0,0:0:0:0:
403,208,69504,1,8,0:0:0:0:
409,120,69849,6,0,L|249:123,1,160,0|0,0:0|0:0,0:0:0:0:
255,34,70884,2,0,L|91:50,1,160,8|8,0:0|0:0,0:0:0:0:
27,104,71918,2,0,P|13:146|27:196,1,80,0|8,0:0|0:0,0:0:0:0:
101,150,72608,6,0,P|126:225|111:302,1,160,0|0,0:0|0:0,0:0:0:0:
184,352,73642,2,0,P|271:333|344:356,1,160,8|8,0:0|0:0,0:0:0:0:
410,302,74677,2,0,L|414:214,1,80,0|8,0:0|0:0,0:0:0:0:
404,134,75366,6,0,B|328:113|328:113|253:163|168:107,1,240,0|8,0:0|0:0,0:0:0:0:
110,53,76746,1,0,0:0:0:0:
402,264,78125,6,0,L|234:260,1,160,4|4,0:0|0:0,0:0:0:0:
168,308,79159,1,0,0:0:0:0:
96,256,79504,2,0,P|62:186|101:105,1,160,0|4,0:0|0:0,0:0:0:0:
263,77,80884,6,0,B|310:85|310:85|379:65|379:65|429:77,1,160,4|4,0:0|0:0,0:0:0:0:
384,155,81918,1,2,0:0:0:0:
443,219,82263,2,0,L|439:307,1,80,2|2,0:0|0:0,0:0:0:0:
352,316,82952,2,0,L|357:233,1,80,2|2,0:0|0:0,0:0:0:0:
296,173,83642,6,0,B|242:149|194:195|138:157,1,160,4|4,0:0|0:0,0:0:0:0:
55,135,84677,1,0,0:0:0:0:
9,210,85021,2,0,L|13:298,1,80,0|0,0:0|0:0,0:0:0:0:
99,306,85711,2,0,L|95:226,1,80,4|0,0:0|0:0,0:0:0:0:
179,253,86401,6,0,B|233:278|277:246|277:246|334:246,1,160,4|4,0:0|0:0,0:0:0:0:
412,209,87435,1,0,0:0:0:0:
467,140,87780,2,0,L|467:57,1,80,6|2,0:0|0:0,0:0:0:0:
