osu file format v14

[General]
AudioFilename: audio.mp3
AudioLeadIn: 0
PreviewTime: 176849
Countdown: 0
SampleSet: Soft
StackLeniency: 0.7
Mode: 0
LetterboxInBreaks: 0
WidescreenStoryboard: 0

[Editor]
DistanceSpacing: 1
BeatDivisor: 4
GridSize: 32
TimelineZoom: 1.3

[Metadata]
Title:Genesis
TitleUnicode:Genesis
Artist:STEREO DIVE FOUNDATION
ArtistUnicode:STEREO DIVE FOUNDATION
Creator:Akitoshi
Version:Normal
Source:Dimension W
Tags:opening electronic Corinn
BeatmapID:1390045
BeatmapSetID:655970

[Difficulty]
HPDrainRate:4
CircleSize:3.3
OverallDifficulty:4
ApproachRate:5
SliderMultiplier:1.05
SliderTickRate:1

[Events]
//Background and Video events
0,0,"mira1.jpg",0,0
//Break Periods
2,2049,3063
2,34808,38925
2,112049,116167
2,145153,147891
2,167222,171339
//Storyboard Layer 0 (Background)
//Storyboard Layer 1 (Fail)
//Storyboard Layer 2 (Pass)
//Storyboard Layer 3 (Foreground)
//Storyboard Sound Samples

[TimingPoints]
1505,344.827586206897,4,2,1,60,1,0
7022,-100,4,2,1,70,0,0
11160,-100,4,2,1,60,0,0
12539,-100,4,2,1,80,0,0
23573,-100,4,2,1,70,0,0
33573,-100,4,2,1,80,0,0
34608,-100,4,2,1,60,0,0
40125,-100,4,2,1,80,0,0
44263,-100,4,2,1,60,0,0
56677,-100,4,2,1,90,0,1
77711,-100,4,2,1,60,0,0
78401,-100,4,2,1,80,0,0
89780,-100,4,2,1,70,0,0
121849,-100,4,2,1,30,0,0
122194,-100,4,2,1,50,0,0
122539,-100,4,2,1,70,0,0
122884,-100,4,2,1,90,0,1
143918,-100,4,2,1,60,0,0
150470,-100,4,2,1,70,0,0
154953,-100,4,2,1,60,0,0
155987,-100,4,2,1,80,0,0
189091,-100,4,2,1,90,0,1
210125,-100,4,2,1,80,0,0
221160,-100,4,2,1,5,0,0

[Colours]
Combo1 : 0,128,64
Combo2 : 31,224,108
Combo3 : 0,255,255
Combo4 : 128,128,128

[HitObjects]
155,204,1505,6,0,L|261:194,1,105,2|0,0:0|0:0,0:0:0:0:
259,194,4263,6,0,P|240:249|258:314,1,105,0|0,0:0|0:0,0:0:0:0:
247,294,5642,6,0,P|302:275|367:293,2,105,0|0|0,0:0|0:0|0:0,0:0:0:0:
162,357,6677,1,0,0:0:0:0:
74,299,7022,6,0,L|62:187,1,105,2|2,0:0|0:0,0:0:0:0:
166,177,7711,2,0,L|178:65,1,105,2|2,0:0|0:0,0:0:0:0:
221,43,8229,1,0,0:0:0:0:
221,43,8401,2,0,P|281:56|337:49,1,105,2|2,0:0|0:0,0:0:0:0:
426,28,9091,2,0,L|438:140,1,105,2|2,0:0|0:0,0:0:0:0:
476,176,9608,1,0,0:0:0:0:
476,176,9780,6,0,P|494:225|481:296,2,105,2|2|2,0:0|0:0|0:0,0:0:0:0:
392,239,10815,2,0,L|327:234,1,52.5,2|2,0:0|0:0,0:0:0:0:
300,200,11160,1,2,0:0:0:0:
213,259,11505,2,0,B|200:318|234:309|213:384,2,105,0|0|0,0:0|0:0|0:0,0:0:0:0:
300,200,12539,6,0,L|292:82,1,105,6|8,0:0|0:0,0:0:0:0:
248,66,13056,2,0,P|188:78|138:62,1,105,0|2,0:0|0:0,0:0:0:0:
102,37,13573,1,8,0:0:0:0:
4,75,13918,2,0,L|15:189,1,105,2|8,0:0|0:0,0:0:0:0:
62,201,14436,2,0,L|51:315,1,105,0|2,0:0|0:0,0:0:0:0:
47,357,14953,1,8,0:0:0:0:
149,335,15298,6,0,P|204:323|272:340,1,105,2|8,0:0|0:0,0:0:0:0:
292,363,15815,2,0,P|333:325|401:305,1,105,0|2,0:0|0:0,0:0:0:0:
434,323,16332,1,8,0:0:0:0:
434,323,16505,2,0,L|443:207,1,105,2|2,0:0|0:0,0:0:0:0:
447,165,17022,1,8,0:0:0:0:
368,95,17367,2,0,P|313:85|253:103,1,105,0|8,0:0|0:0,0:0:0:0:
164,69,18056,6,0,L|163:13,2,52.5,2|0|8,0:0|0:0|0:0,0:0:0:0:
128,108,18573,2,0,P|66:107|23:131,1,105,0|2,0:0|0:0,0:0:0:0:
2,172,19091,1,8,0:0:0:0:
54,263,19436,2,0,L|160:254,1,105,2|8,0:0|0:0,0:0:0:0:
194,215,19953,2,0,L|300:224,1,105,0|2,0:0|0:0,0:0:0:0:
350,232,20470,1,8,0:0:0:0:
357,336,20815,6,0,P|304:350|245:340,1,105,2|8,0:0|0:0,0:0:0:0:
207,321,21332,2,0,P|154:335|95:325,1,105,0|2,0:0|0:0,0:0:0:0:
60,299,21849,1,8,0:0:0:0:
7,208,22194,1,8,0:0:0:0:
28,105,22539,1,8,0:0:0:0:
112,43,22884,2,0,L|188:49,1,52.5,8|2,0:0|0:0,0:0:0:0:
200,85,23229,2,0,L|276:79,1,52.5,2|2,0:0|0:0,0:0:0:0:
296,52,23573,6,0,P|355:36|414:48,1,105,6|8,0:0|0:0,0:0:0:0:
445,65,24091,1,0,0:0:0:0:
496,157,24436,2,0,L|490:218,1,52.5,2|8,0:0|0:0,0:0:0:0:
460,251,24780,2,0,B|413:237|413:237|296:250,1,157.5,2|8,0:0|0:0,0:0:0:0:
201,265,25642,1,0,0:0:0:0:
109,213,25987,1,8,0:0:0:0:
129,110,26332,6,0,P|174:85|228:87,1,105,2|8,0:0|0:0,0:0:0:0:
320,133,27022,2,0,L|438:118,1,105,0|8,0:0|0:0,0:0:0:0:
467,89,27539,2,0,P|488:137|488:208,1,105,2|2,0:0|0:0,0:0:0:0:
474,238,28056,1,8,0:0:0:0:
390,301,28401,2,0,L|400:360,2,52.5,0|2|8,0:0|0:0|0:0,0:0:0:0:
310,231,29091,6,0,P|256:227|204:249,1,105,2|8,0:0|0:0,0:0:0:0:
147,329,29780,2,0,P|93:325|41:347,1,105,0|8,0:0|0:0,0:0:0:0:
2,372,30298,2,0,L|5:254,1,105,2|2,0:0|0:0,0:0:0:0:
7,214,30815,1,8,0:0:0:0:
74,133,31160,2,0,P|128:137|180:115,1,105,0|8,0:0|0:0,0:0:0:0:
270,76,31849,6,0,L|284:186,1,105,2|8,0:0|0:0,0:0:0:0:
325,276,32539,2,0,P|375:260|436:265,1,105,0|8,0:0|0:0,0:0:0:0:
468,295,33056,2,0,L|482:185,1,105,2|2,0:0|0:0,0:0:0:0:
488,138,33573,1,8,0:0:0:0:
455,37,33918,2,0,P|404:50|346:39,1,105,0|2,0:0|0:1,0:0:0:0:
275,112,34608,5,6,0:0:0:0:
256,192,40125,6,0,P|193:162|217:260,1,210,6|8,0:0|0:0,0:0:0:0:
300,286,41160,1,0,0:0:0:0:
379,217,41505,2,0,L|364:54,1,157.5,2|0,0:0|0:0,0:0:0:0:
320,31,42194,2,0,P|265:50|203:38,1,105,8|0,0:0|0:0,0:0:0:0:
116,20,42884,5,2,0:0:0:0:
27,76,43229,1,0,0:0:0:0:
42,179,43573,2,0,L|33:301,2,105,8|0|2,0:0|0:0|0:0,0:0:0:0:
137,134,44608,2,0,B|247:108|230:192|348:146,1,210,0|0,0:0|0:0,0:0:0:0:
392,58,45642,6,0,P|360:127|418:252,1,210,2|2,0:0|0:0,0:0:0:0:
500,293,46677,1,2,0:0:0:0:
423,364,47022,2,0,L|214:345,1,210,2|2,0:0|0:0,0:0:0:0:
110,328,48056,1,2,0:0:0:0:
26,264,48401,6,0,P|11:192|49:114,2,157.5,2|0|2,0:0|0:0|0:0,0:0:0:0:
110,328,49780,2,0,P|191:276|308:279,1,210,2|2,0:0|0:0,0:0:0:0:
394,327,50815,1,2,0:0:0:0:
256,192,51160,12,2,55298,0:0:0:0:
348,195,56677,6,0,P|292:183|241:198,1,105,6|8,0:0|0:0,0:0:0:0:
205,227,57194,2,0,P|149:215|98:230,1,105,0|2,0:0|0:0,0:0:0:0:
67,264,57711,1,8,0:0:0:0:
111,359,58056,2,0,L|231:352,1,105,2|8,0:0|0:0,0:0:0:0:
320,345,58746,1,2,0:1:0:0:
404,282,59091,1,8,0:0:0:0:
452,188,59436,6,0,P|447:120|421:78,2,105,2|8|0,0:0|0:0|0:0,0:0:0:0:
404,282,60470,2,0,P|336:287|294:313,1,105,8|0,0:0|0:0,0:0:0:0:
265,339,60987,1,2,0:0:0:0:
265,339,61160,2,0,L|144:328,1,105,8|0,0:0|0:0,0:0:0:0:
73,270,61849,1,8,0:0:0:0:
156,205,62194,6,0,P|163:152|151:98,1,105,6|8,0:0|0:0,0:0:0:0:
130,54,62711,2,0,P|183:61|237:49,1,105,0|2,0:0|0:0,0:0:0:0:
279,26,63229,1,8,0:0:0:0:
380,50,63573,2,0,L|387:156,1,105,2|8,0:0|0:0,0:0:0:0:
390,260,64263,1,2,0:1:0:0:
321,339,64608,1,8,0:0:0:0:
218,317,64953,6,0,P|162:309|111:321,2,105,6|8|0,0:0|0:0|0:0,0:0:0:0:
321,339,65987,2,0,L|442:334,1,105,8|0,0:0|0:0,0:0:0:0:
481,323,66505,1,2,0:0:0:0:
481,323,66677,2,0,P|489:273|473:210,1,105,12|6,0:0|0:0,0:0:0:0:
401,148,67367,1,12,0:0:0:0:
306,193,67711,6,0,L|195:184,1,105,6|8,0:0|0:0,0:0:0:0:
166,144,68229,2,0,L|55:153,1,105,0|2,0:0|0:0,0:0:0:0:
9,159,68746,1,8,0:0:0:0:
4,54,69091,2,0,P|40:33|116:30,1,105,2|8,0:0|0:0,0:0:0:0:
205,43,69780,1,2,0:1:0:0:
272,123,70125,1,8,0:0:0:0:
240,223,70470,6,0,P|235:277|251:331,2,105,6|8|0,0:0|0:0|0:0,0:0:0:0:
272,123,71505,2,0,L|391:130,1,105,8|0,0:0|0:0,0:0:0:0:
433,137,72022,1,2,0:0:0:0:
433,137,72194,2,0,P|451:187|450:244,1,105,8|0,0:0|0:0,0:0:0:0:
420,338,72884,1,8,0:0:0:0:
321,300,73229,6,0,L|216:307,1,105,6|8,0:0|0:0,0:0:0:0:
176,341,73746,2,0,L|71:334,1,105,0|2,0:0|0:0,0:0:0:0:
24,310,74263,1,8,0:0:0:0:
7,206,74608,2,0,P|5:150|36:90,1,105,2|8,0:0|0:0,0:0:0:0:
71,81,75125,1,0,0:0:0:0:
71,81,75298,2,0,B|123:93|123:93|194:78,1,105,2|8,0:1|0:0,0:1:0:0:
269,38,75987,6,0,P|325:37|388:61,1,105,2|8,0:0|0:0,0:0:0:0:
402,94,76505,2,0,L|398:199,1,105,0|2,0:0|0:0,0:0:0:0:
392,251,77022,1,8,0:0:0:0:
305,310,77367,1,2,0:0:0:0:
211,261,77711,2,0,P|157:253|99:273,2,105,0|0|2,0:0|0:0|0:1,0:0:0:0:
305,310,78746,6,0,L|434:316,1,105,6|8,0:0|0:0,0:0:0:0:
461,324,79263,2,0,P|477:272|460:205,1,105,0|2,0:0|0:0,0:0:0:0:
437,180,79780,1,8,0:0:0:0:
342,134,80125,2,0,P|290:150|223:133,1,105,2|8,0:0|0:0,0:0:0:0:
203,104,80642,2,0,L|99:115,1,105,0|2,0:0|0:0,0:0:0:0:
46,127,81160,1,8,0:0:0:0:
46,232,81505,6,0,P|98:262|152:261,1,105,2|8,0:0|0:0,0:0:0:0:
185,234,82022,2,0,P|237:264|291:263,1,105,0|2,0:0|0:0,0:0:0:0:
335,252,82539,1,8,0:0:0:0:
335,252,82711,2,0,L|325:134,1,105,6|2,0:0|0:0,0:0:0:0:
319,94,83229,1,8,0:0:0:0:
402,31,83573,2,0,P|455:31|505:62,1,105,0|8,0:0|0:0,0:0:0:0:
508,161,84263,6,0,L|498:279,1,105,2|8,0:0|0:0,0:0:0:0:
493,318,84780,1,0,0:0:0:0:
391,344,85125,2,0,L|330:334,1,52.5,2|8,0:0|0:0,0:0:0:0:
305,294,85470,2,0,P|251:286|196:305,1,105,2|0,0:0|0:0,0:0:0:0:
159,326,85987,1,8,0:0:0:0:
159,326,86160,2,0,L|145:218,1,105,0|2,0:0|0:0,0:0:0:0:
140,169,86677,1,8,0:0:0:0:
194,79,87022,6,0,P|238:99|299:91,1,105,2|8,0:0|0:0,0:0:0:0:
327,53,87539,2,0,P|371:73|432:65,1,105,0|2,0:0|0:0,0:0:0:0:
474,47,88056,1,8,0:0:0:0:
508,146,88401,1,8,0:0:0:0:
458,238,88746,1,8,0:0:0:0:
356,265,89091,2,0,L|290:258,1,52.5,8|2,0:0|0:0,0:0:0:0:
264,224,89436,2,0,L|198:231,1,52.5,2|2,0:0|0:0,0:0:0:0:
177,189,89780,6,0,P|118:162|67:167,1,105,6|8,0:0|0:0,0:0:0:0:
29,182,90298,1,0,0:0:0:0:
0,284,90642,2,0,L|5:350,1,52.5,2|8,0:0|0:0,0:0:0:0:
37,376,90987,2,0,P|86:347|204:348,1,157.5,2|8,0:0|0:0,0:0:0:0:
289,352,91849,1,0,0:0:0:0:
381,303,92194,1,8,0:0:0:0:
426,208,92539,6,0,L|418:93,1,105,2|8,0:0|0:0,0:0:0:0:
320,64,93229,2,0,P|262:72|208:54,1,105,0|8,0:0|0:0,0:0:0:0:
181,21,93746,2,0,L|76:30,1,105,2|2,0:0|0:0,0:0:0:0:
38,66,94263,1,8,0:0:0:0:
38,66,94436,2,0,P|29:123|43:176,1,105,0|2,0:0|0:0,0:0:0:0:
71,210,94953,1,8,0:0:0:0:
166,166,95298,6,0,P|223:157|276:171,1,105,2|8,0:0|0:0,0:0:0:0:
361,215,95987,2,0,P|418:224|471:210,1,105,0|8,0:0|0:0,0:0:0:0:
505,181,96505,2,0,L|500:301,1,105,2|2,0:0|0:0,0:0:0:0:
496,338,97022,1,8,0:0:0:0:
391,348,97367,2,0,P|336:324|282:326,1,105,0|8,0:0|0:0,0:0:0:0:
187,335,98056,6,0,P|132:359|78:357,1,105,2|8,0:0|0:0,0:0:0:0:
12,285,98746,2,0,L|22:175,1,105,0|8,0:0|0:0,0:0:0:0:
44,133,99263,2,0,P|96:147|153:136,1,105,2|2,0:0|0:0,0:0:0:0:
190,111,99780,1,8,0:0:0:0:
290,81,100125,1,2,0:0:0:0:
385,124,100470,2,0,L|389:184,1,52.5,2|2,0:0|0:0,0:0:0:0:
392,228,100815,6,0,P|334:214|272:226,1,105,6|8,0:0|0:0,0:0:0:0:
193,263,101505,2,0,L|201:332,2,52.5,0|2|8,0:0|0:0|0:0,0:0:0:0:
149,232,102022,2,0,L|154:118,1,105,2|2,0:0|0:0,0:0:0:0:
163,75,102539,1,8,0:0:0:0:
265,51,102884,2,0,P|320:67|377:52,1,105,0|0,0:0|0:0,0:0:0:0:
464,22,103573,6,0,L|469:136,1,105,2|0,0:0|0:0,0:0:0:0:
462,232,104263,2,0,P|416:255|342:252,1,105,0|8,0:0|0:0,0:0:0:0:
319,239,104780,1,2,0:0:0:0:
319,239,104953,2,0,P|273:262|199:259,1,105,0|8,0:0|0:0,0:0:0:0:
121,227,105642,1,0,0:0:0:0:
82,129,105987,1,8,0:0:0:0:
145,44,106332,6,0,P|202:56|268:37,1,105,2|8,0:0|0:0,0:0:0:0:
298,37,106849,2,0,P|324:84|323:150,1,105,0|2,0:0|0:0,0:0:0:0:
314,185,107367,1,8,0:0:0:0:
217,225,107711,1,0,0:0:0:0:
217,225,107884,2,0,L|96:214,1,105,2|0,0:0|0:0,0:0:0:0:
60,207,108401,1,0,0:0:0:0:
4,296,108746,2,0,P|11:330|17:351,1,52.5,8|0,0:0|0:0,0:0:0:0:
60,375,109091,6,0,P|133:362|180:365,1,105,2|8,0:0|0:0,0:0:0:0:
211,340,109608,2,0,P|284:353|331:350,1,105,0|2,0:0|0:0,0:0:0:0:
365,330,110125,1,8,0:0:0:0:
365,330,110298,2,0,L|359:213,1,105,0|2,0:0|0:0,0:0:0:0:
356,172,110815,1,8,0:0:0:0:
254,143,111160,2,0,P|189:161|139:144,1,105,0|2,0:0|0:1,0:0:0:0:
196,56,111849,5,6,0:0:0:0:
370,276,117367,6,0,B|256:256|281:335|152:294,1,210,6|8,0:0|0:0,0:0:0:0:
78,242,118401,1,0,0:0:0:0:
94,138,118746,2,0,P|153:100|257:112,1,157.5,2|0,0:0|0:0,0:0:0:0:
285,125,119436,2,0,L|390:116,1,105,8|0,0:0|0:0,0:0:0:0:
493,128,120125,5,2,0:0:0:0:
506,232,120470,1,0,0:0:0:0:
412,278,120815,2,0,P|360:256|298:268,2,105,8|0|2,0:0|0:0|0:0,0:0:0:0:
348,361,121849,2,2,L|124:339,1,210,2|2,0:1|0:1,0:1:0:0:
41,301,122884,6,0,P|31:248|49:194,1,105,6|8,0:0|0:0,0:0:0:0:
95,183,123401,2,0,L|105:67,1,105,0|2,0:0|0:0,0:0:0:0:
113,26,123918,1,8,0:0:0:0:
213,56,124263,2,0,P|272:65|322:53,1,105,2|8,0:0|0:0,0:0:0:0:
416,24,124953,1,2,0:1:0:0:
494,93,125298,1,8,0:0:0:0:
487,197,125642,6,0,L|498:310,2,105,2|8|0,0:0|0:0|0:0,0:0:0:0:
390,154,126677,2,0,P|345:170|268:161,1,105,8|0,0:0|0:0,0:0:0:0:
246,147,127194,1,2,0:0:0:0:
246,147,127367,2,0,P|201:163|124:154,1,105,8|0,0:0|0:0,0:0:0:0:
50,112,128056,1,8,0:0:0:0:
6,207,128401,6,0,L|21:326,1,105,6|8,0:0|0:0,0:0:0:0:
37,360,128918,2,0,P|90:343|156:350,1,105,0|2,0:0|0:0,0:0:0:0:
191,353,129436,1,8,0:0:0:0:
292,378,129780,2,0,L|305:273,1,105,2|8,0:0|0:0,0:0:0:0:
320,169,130470,1,2,0:1:0:0:
244,96,130815,1,8,0:0:0:0:
148,139,131160,6,0,P|95:154|29:135,2,105,6|8|0,0:0|0:0|0:0,0:0:0:0:
244,96,132194,2,0,L|374:89,1,105,8|0,0:0|0:0,0:0:0:0:
391,59,132711,1,2,0:0:0:0:
391,59,132884,2,0,L|521:66,1,105,12|6,0:0|0:0,0:0:0:0:
512,169,133573,1,12,0:0:0:0:
434,239,133918,6,0,P|357:246|324:232,1,105,6|8,0:0|0:0,0:0:0:0:
289,205,134436,2,0,P|212:212|179:198,1,105,0|2,0:0|0:0,0:0:0:0:
148,167,134953,1,8,0:0:0:0:
60,225,135298,2,0,L|74:338,1,105,2|8,0:0|0:0,0:0:0:0:
168,373,135987,1,2,0:1:0:0:
271,352,136332,1,8,0:0:0:0:
325,262,136677,6,0,P|388:273|438:260,2,105,2|8|0,0:0|0:0|0:0,0:0:0:0:
279,167,137711,2,0,L|161:175,1,105,8|0,0:0|0:0,0:0:0:0:
136,211,138229,1,2,0:0:0:0:
136,211,138401,2,0,L|18:203,1,105,8|0,0:0|0:0,0:0:0:0:
1,102,139091,1,8,0:0:0:0:
77,29,139436,6,0,P|126:20|190:35,1,105,6|8,0:0|0:0,0:0:0:0:
214,69,139953,2,0,P|263:60|327:75,1,105,0|2,0:0|0:0,0:0:0:0:
360,99,140470,1,8,0:0:0:0:
432,175,140815,2,0,L|419:281,1,105,2|8,0:0|0:0,0:0:0:0:
412,335,141332,1,0,0:0:0:0:
412,335,141505,2,0,B|357:319|357:319|286:328,1,105,2|8,0:1|0:0,0:1:0:0:
220,379,142194,6,0,P|205:334|220:271,1,105,2|8,0:0|0:0,0:0:0:0:
247,236,142711,2,0,L|237:113,1,105,0|2,0:0|0:0,0:0:0:0:
233,78,143229,1,8,0:0:0:0:
138,32,143573,1,2,0:0:0:0:
64,107,143918,2,0,B|46:159|87:162|57:231,2,105,0|0|2,0:0|0:0|0:1,0:0:0:0:
138,32,144953,5,4,3:0:0:0:
123,186,149091,6,0,P|70:166|20:170,2,105,0|0|0,0:0|0:0|0:0,0:0:0:0:
202,254,150125,1,0,0:0:0:0:
287,314,150470,6,0,L|406:304,1,105,2|2,0:0|0:0,0:0:0:0:
477,244,151160,2,0,P|485:189|467:136,1,105,2|2,0:0|0:0,0:0:0:0:
437,110,151677,1,0,0:0:0:0:
437,110,151849,2,0,P|382:118|329:100,1,105,2|2,0:0|0:0,0:0:0:0:
254,36,152539,2,0,L|135:46,1,105,2|2,0:0|0:0,0:0:0:0:
111,81,153056,1,0,0:0:0:0:
111,81,153229,6,0,P|96:138|114:196,2,105,2|2|2,0:0|0:0|0:0,0:0:0:0:
200,136,154263,2,0,L|267:128,1,52.5,2|2,0:0|0:0,0:0:0:0:
304,120,154608,1,2,0:0:0:0:
382,189,154953,2,0,B|430:177|430:177|499:191,2,105
310,265,155987,6,0,P|263:288|208:288,1,105,6|8,0:0|0:0,0:0:0:0:
162,268,156505,1,0,0:0:0:0:
83,198,156849,2,0,L|77:122,1,52.5,2|8,0:0|0:0,0:0:0:0:
87,93,157194,2,0,P|128:69|202:74,1,105,2|2,0:0|0:0,0:0:0:0:
234,97,157711,1,8,0:0:0:0:
234,97,157884,2,0,P|275:73|349:78,1,105,0|2,0:0|0:0,0:0:0:0:
380,91,158401,1,8,0:0:0:0:
454,164,158746,6,0,L|447:276,1,105,2|8,0:0|0:0,0:0:0:0:
411,307,159263,2,0,P|356:293|294:303,1,105,0|2,0:0|0:0,0:0:0:0:
265,324,159780,1,8,0:0:0:0:
265,324,159953,2,0,P|210:310|148:320,1,105,2|2,0:0|0:0,0:0:0:0:
115,338,160470,1,8,0:0:0:0:
43,260,160815,2,0,L|54:136,1,105,0|8,0:0|0:0,0:0:0:0:
125,79,161505,5,2,0:0:0:0:
224,126,161849,1,12,0:0:0:0:
224,126,162022,2,0,L|340:116,1,105,0|2,0:0|0:0,0:0:0:0:
381,117,162539,1,8,0:0:0:0:
381,117,162711,2,0,P|401:159|398:227,1,105,2|2,0:0|0:0,0:0:0:0:
378,266,163229,1,8,0:0:0:0:
378,266,163401,2,0,P|332:257|267:278,1,105,0|2,0:0|0:0,0:0:0:0:
234,304,163918,1,8,0:0:0:0:
131,326,164263,5,2,0:0:0:0:
49,260,164608,2,0,L|44:141,1,105,8|8,0:0|0:0,0:0:0:0:
116,77,165298,1,8,0:0:0:0:
116,77,165470,2,0,P|165:105|262:75,1,157.5,2|0,0:0|0:0,0:0:0:0:
361,65,166332,2,0,L|369:176,1,105,0|2,0:0|0:1,0:0:0:0:
372,275,167022,5,2,0:0:0:0:
90,162,172539,6,0,B|160:154|160:154|221:178|221:178|305:171,1,210,6|8,0:0|0:0,0:0:0:0:
398,155,173573,1,0,0:0:0:0:
465,235,173918,2,0,P|445:298|348:339,1,157.5,2|0,0:0|0:0,0:0:0:0:
323,311,174608,2,0,P|260:301|213:317,1,105,8|0,0:0|0:0,0:0:0:0:
125,355,175298,5,2,0:0:0:0:
37,297,175642,1,0,0:0:0:0:
56,193,175987,2,0,L|44:79,2,105,8|0|2,0:0|0:0|0:0,0:0:0:0:
145,248,177022,2,0,B|260:230|240:298|354:274,1,210
451,245,178056,6,0,L|432:26,1,210,6|2,0:0|0:0,0:0:0:0:
330,9,179091,1,2,0:0:0:0:
248,74,179436,2,0,P|191:90|126:77,1,105,2|2,0:0|0:0,0:0:0:0:
43,60,180125,2,0,P|27:117|40:182,1,105,2|2,0:0|0:0,0:0:0:0:
127,207,180815,6,0,P|75:203|0:274,2,157.5,2|0|2,0:0|0:0|0:0,0:0:0:0:
190,290,182194,2,0,L|301:279,1,105,2|2,0:0|0:0,0:0:0:0:
352,191,182884,2,0,L|463:202,1,105,2|2,0:0|0:0,0:0:0:0:
256,192,183573,12,2,187711,0:0:0:0:
339,159,189091,6,0,P|287:141|220:150,1,105,6|8,0:0|0:0,0:0:0:0:
192,170,189608,2,0,P|140:152|73:161,1,105,0|2,0:0|0:0,0:0:0:0:
45,181,190125,1,8,0:0:0:0:
59,284,190470,2,0,P|111:302|178:293,1,105,2|8,0:0|0:0,0:0:0:0:
259,264,191160,1,2,0:1:0:0:
314,174,191505,1,8,0:0:0:0:
252,89,191849,6,0,P|188:102|148:91,2,105,2|8|0,0:0|0:0|0:0,0:0:0:0:
336,25,192884,2,0,L|444:30,1,105,8|0,0:0|0:0,0:0:0:0:
487,65,193401,1,2,0:0:0:0:
487,65,193573,2,0,P|501:115|492:166,1,105,8|0,0:0|0:0,0:0:0:0:
425,248,194263,1,8,0:0:0:0:
337,190,194608,6,0,L|226:197,1,105,6|8,0:0|0:0,0:0:0:0:
187,224,195125,2,0,L|76:217,1,105,0|2,0:0|0:0,0:0:0:0:
29,214,195642,1,8,0:0:0:0:
4,316,195987,2,0,P|36:336|123:336,1,105,2|8,0:0|0:0,0:0:0:0:
204,320,196677,1,2,0:1:0:0:
276,244,197022,1,8,0:0:0:0:
233,148,197367,6,0,P|222:95|247:30,2,105,6|8|0,0:0|0:0|0:0,0:0:0:0:
276,244,198401,2,0,P|325:230|393:246,1,105,8|0,0:0|0:0,0:0:0:0:
429,266,198918,1,2,0:0:0:0:
429,266,199091,2,0,L|434:152,1,105,12|6,0:0|0:0,0:0:0:0:
440,56,199780,1,12,0:0:0:0:
335,69,200125,6,0,P|282:76|225:59,1,105,6|8,0:0|0:0,0:0:0:0:
192,28,200642,2,0,L|72:39,1,105,0|2,0:0|0:0,0:0:0:0:
35,47,201160,1,8,0:0:0:0:
6,148,201505,2,0,P|3:202|21:256,1,105,2|8,0:0|0:0,0:0:0:0:
91,325,202194,1,2,0:1:0:0:
194,344,202539,1,8,0:0:0:0:
281,286,202884,6,0,P|346:308|398:304,2,105,2|8|0,0:0|0:0|0:0,0:0:0:0:
204,213,203918,2,0,L|210:91,1,105,8|0,0:0|0:0,0:0:0:0:
224,59,204436,1,2,0:0:0:0:
224,59,204608,2,0,P|271:80|333:76,1,105,8|0,0:0|0:0,0:0:0:0:
418,33,205298,1,8,0:0:0:0:
489,109,205642,6,0,L|495:231,1,105,6|8,0:0|0:0,0:0:0:0:
496,266,206160,2,0,P|456:286|384:289,1,105,0|2,0:0|0:0,0:0:0:0:
345,278,206677,1,8,0:0:0:0:
249,235,207022,2,0,L|124:248,1,105,2|8,0:0|0:0,0:0:0:0:
96,253,207539,1,0,0:0:0:0:
96,253,207711,2,0,B|78:204|78:204|90:148,1,105,2|8,0:1|0:0,0:1:0:0:
125,53,208401,6,0,P|178:67|233:56,1,105,2|8,0:0|0:0,0:0:0:0:
275,38,208918,2,0,P|328:52|383:41,1,105,0|2,0:0|0:0,0:0:0:0:
423,18,209436,1,8,0:0:0:0:
501,87,209780,1,2,0:0:0:0:
470,187,210125,2,0,B|485:238|452:237|476:299,2,105,0|0|2,0:0|0:0|0:1,0:0:0:0:
372,146,211160,6,0,P|307:173|214:135,1,157.5,4|0,3:0|0:0,0:0:0:0:
192,108,211849,2,0,L|83:117,1,105,8|0,0:0|0:0,0:0:0:0:
6,184,212539,1,2,0:0:0:0:
51,278,212884,1,0,0:0:0:0:
148,316,213229,2,0,L|141:388,2,52.5,8|0|0,0:0|0:0|0:0,0:0:0:0:
217,237,213918,6,0,B|301:227|291:285|372:276,1,157.5,4|0,3:0|0:0,0:0:0:0:
414,257,214608,2,0,L|419:143,1,105,8|0,0:0|0:0,0:0:0:0:
335,86,215298,2,0,P|264:39|141:50,1,210,4|8,3:0|0:0,0:0:0:0:
60,112,216332,1,0,0:0:0:0:
91,212,216677,6,0,L|258:205,1,157.5,6|0,0:0|0:0,0:0:0:0:
286,168,217367,2,0,P|339:170|391:201,1,105,8|0,0:0|0:0,0:0:0:0:
448,276,218056,1,2,0:0:0:0:
382,358,218401,1,0,0:0:0:0:
282,324,218746,2,0,L|167:333,1,105,8|0,0:0|0:0,0:0:0:0:
80,289,219436,6,0,P|67:208|109:143,1,157.5,4|0,3:0|0:0,0:0:0:0:
152,124,220125,1,8,0:0:0:0:
238,182,220470,1,0,0:0:0:0:
326,124,220815,2,0,L|444:120,1,105,2|0,0:0|0:0,0:0:0:0:
