osu file format v14

[General]
AudioFilename: audio.mp3
AudioLeadIn: 0
PreviewTime: 176849
Countdown: 0
SampleSet: Soft
StackLeniency: 0.7
Mode: 0
LetterboxInBreaks: 0
WidescreenStoryboard: 0

[Editor]
DistanceSpacing: 1
BeatDivisor: 4
GridSize: 32
TimelineZoom: 1.3

[Metadata]
Title:Genesis
TitleUnicode:Genesis
Artist:STEREO DIVE FOUNDATION
ArtistUnicode:STEREO DIVE FOUNDATION
Creator:Akitoshi
Version:Easy
Source:Dimension W
Tags:opening electronic Corinn
BeatmapID:1390044
BeatmapSetID:655970

[Difficulty]
HPDrainRate:2
CircleSize:3
OverallDifficulty:2
ApproachRate:3
SliderMultiplier:0.83
SliderTickRate:1

[Events]
//Background and Video events
0,0,"mira1.jpg",0,0
//Break Periods
2,2049,2823
2,34807,38685
2,45842,49720
2,112049,115927
2,145153,147651
2,167222,171099
2,178256,182133
//Storyboard Layer 0 (Background)
//Storyboard Layer 1 (Fail)
//Storyboard Layer 2 (Pass)
//Storyboard Layer 3 (Foreground)
//Storyboard Sound Samples

[TimingPoints]
1505,344.827586206897,4,2,1,60,1,0
7022,-100,4,2,1,70,0,0
11160,-100,4,2,1,60,0,0
12539,-100,4,2,1,80,0,0
23573,-100,4,2,1,70,0,0
33573,-100,4,2,1,80,0,0
34608,-100,4,2,1,60,0,0
40125,-100,4,2,1,80,0,0
44263,-100,4,2,1,60,0,0
56677,-100,4,2,1,90,0,1
77711,-100,4,2,1,60,0,0
78401,-100,4,2,1,80,0,0
89780,-100,4,2,1,70,0,0
121849,-100,4,2,1,30,0,0
122194,-100,4,2,1,50,0,0
122539,-100,4,2,1,70,0,0
122884,-100,4,2,1,90,0,1
143918,-100,4,2,1,60,0,0
150470,-100,4,2,1,70,0,0
154953,-100,4,2,1,60,0,0
155987,-100,4,2,1,80,0,0
189091,-100,4,2,1,90,0,1
210125,-100,4,2,1,80,0,0
221160,-100,4,2,1,5,0,0

[Colours]
Combo1 : 0,128,64
Combo2 : 31,224,108
Combo3 : 0,255,255
Combo4 : 128,128,128

[HitObjects]
151,78,1505,6,0,P|192:65|231:63,1,83,2|0,0:0|0:0,0:0:0:0:
231,63,4263,6,0,P|272:50|311:48,1,83,0|0,0:0|0:0,0:0:0:0:
311,48,5642,6,0,L|305:144,1,83,0|0,0:0|0:0,0:0:0:0:
238,179,6332,2,0,L|244:275,1,83,0|0,0:0|0:0,0:0:0:0:
304,318,7022,6,0,P|259:301|153:360,2,166,2|2|2,0:0|0:0|0:0,0:0:0:0:
376,359,8746,1,2,0:0:0:0:
442,309,9091,2,0,L|447:221,1,83,2|2,0:0|0:0,0:0:0:0:
432,144,9780,6,0,B|392:132|392:132|352:144|352:144|316:132|316:132|272:144|272:144|236:132|236:132|196:144|196:144|160:132|160:132|112:144,1,332,2|2,0:0|0:0,0:0:0:0:
31,155,11505,2,0,P|23:107|26:56,2,83,0|0|0,0:0|0:0|0:0,0:0:0:0:
66,230,12539,6,0,B|116:253|116:253|231:244,1,166,6|0,0:0|0:0,0:0:0:0:
309,234,13573,1,8,0:0:0:0:
359,168,13918,2,0,P|411:148|491:165,2,124.5,2|0|8,0:0|0:0|0:0,0:0:0:0:
309,234,15298,6,0,L|300:321,1,83,2|8,0:0|0:0,0:0:0:0:
225,352,15987,2,0,P|156:359|96:337,2,124.5,0|2|8,0:0|0:0|0:0,0:0:0:0:
300,317,17367,2,0,L|387:326,1,83,0|8,0:0|0:0,0:0:0:0:
459,294,18056,6,0,P|489:214|461:134,1,166,2|0,0:0|0:0,0:0:0:0:
396,93,19091,1,8,0:0:0:0:
319,61,19436,2,0,L|178:67,2,124.5,2|0|8,0:0|0:0|0:0,0:0:0:0:
396,93,20815,6,0,P|405:138|398:186,1,83,2|8,0:0|0:0,0:0:0:0:
334,225,21505,2,0,P|413:222|465:248,2,124.5,0|2|8,0:0|0:0|0:0,0:0:0:0:
255,251,22884,2,0,L|162:244,1,83,8|2,0:0|0:0,0:0:0:0:
141,167,23573,6,0,L|48:174,1,83,6|8,0:0|0:0,0:0:0:0:
7,239,24263,2,0,L|0:100,2,124.5,0|2|8,0:0|0:0|0:0,0:0:0:0:
44,312,25642,2,0,P|87:305|144:312,1,83,0|8,0:0|0:0,0:0:0:0:
189,253,26332,6,0,P|232:260|289:253,1,83,2|8,0:0|0:0,0:0:0:0:
331,200,27022,2,0,L|319:71,2,124.5,0|2|8,0:0|0:0|0:0,0:0:0:0:
400,245,28401,2,0,P|407:288|400:345,1,83,0|8,0:0|0:0,0:0:0:0:
329,364,29091,6,0,L|241:367,1,83,2|8,0:0|0:0,0:0:0:0:
179,317,29780,2,0,P|113:331|60:311,2,124.5,0|2|8,0:0|0:0|0:0,0:0:0:0:
231,252,31160,2,0,L|226:156,1,83,0|8,0:0|0:0,0:0:0:0:
196,91,31849,6,0,P|158:100|111:98,1,83,2|8,0:0|0:0,0:0:0:0:
35,72,32539,2,0,P|61:126|55:195,2,124.5,0|2|8,0:0|0:0|0:0,0:0:0:0:
196,91,34263,6,0,L|282:77,1,83,2|6,0:1|0:0,0:0:0:0:
263,172,40125,6,0,P|192:156|104:208,1,166,6|8,0:0|0:0,0:0:0:0:
75,272,41160,1,0,0:0:0:0:
134,329,41505,2,0,L|302:314,1,166,2|8,0:0|0:0,0:0:0:0:
363,260,42539,1,0,0:0:0:0:
416,196,42884,6,0,L|509:205,2,83,2|0|8,0:0|0:0|0:0,0:0:0:0:
366,129,43918,1,0,0:0:0:0:
310,67,44263,2,0,P|238:52|142:184,1,249,2|0,0:0|0:0,0:0:0:0:
161,255,45642,5,2,0:0:0:0:
256,192,51160,12,8,55298,3:0:0:0:
162,184,56677,6,0,P|104:204|30:192,2,124.5,6|0|8,0:0|0:0|0:0,0:0:0:0:
218,123,58056,2,0,L|389:131,1,166,2|2,0:0|0:1,0:0:0:0:
446,186,59091,1,8,0:0:0:0:
448,268,59436,6,0,P|401:310|299:305,1,166,2|0,0:0|0:0,0:0:0:0:
223,282,60470,2,0,P|176:324|74:319,1,166,8|8,0:0|0:0,0:0:0:0:
15,264,61505,2,0,L|25:163,1,83,0|8,0:0|0:0,0:0:0:0:
96,141,62194,6,0,L|83:17,2,124.5,6|0|8,0:0|0:0|0:0,0:0:0:0:
153,200,63573,2,0,B|238:211|235:166|331:177,1,166,2|2,0:0|0:1,0:0:0:0:
395,197,64608,1,8,0:0:0:0:
466,239,64953,6,0,L|458:369,2,124.5,6|0|8,0:0|0:0|0:0,0:0:0:0:
506,166,66332,2,0,P|504:121|487:83,1,83,0|12,0:0|0:0,0:0:0:0:
419,41,67022,2,0,P|374:43|336:60,1,83,6|12,0:0|0:0,0:0:0:0:
286,121,67711,6,0,L|298:260,2,124.5,6|0|8,0:0|0:0|0:0,0:0:0:0:
238,52,69091,2,0,P|157:45|79:98,1,166,2|2,0:0|0:1,0:0:0:0:
40,156,70125,1,8,0:0:0:0:
58,236,70470,6,0,B|119:241|119:241|167:227|167:227|230:232,1,166,6|0,0:0|0:0,0:0:0:0:
274,295,71505,2,0,B|328:290|328:290|376:304|376:304|437:299,1,166,8|8,0:0|0:0,0:0:0:0:
499,244,72539,2,0,P|506:201|494:154,1,83,0|8,0:0|0:0,0:0:0:0:
418,138,73229,6,0,L|426:12,2,124.5,6|0|8,0:0|0:0|0:0,0:0:0:0:
352,189,74608,2,0,P|296:201|259:194,1,83,2|8,0:0|0:0,0:0:0:0:
210,139,75298,2,0,P|154:127|117:134,1,83,2|8,0:1|0:0,0:1:0:0:
83,199,75987,6,0,L|68:69,2,124.5,2|0|8,0:0|0:0|0:0,0:0:0:0:
97,281,77367,1,2,0:0:0:0:
175,305,77711,2,0,P|245:268|337:277,1,166,0|2,0:0|0:1,0:0:0:0:
381,339,78746,6,0,L|386:166,1,166,6|0,0:0|0:0,0:0:0:0:
315,128,79780,1,8,0:0:0:0:
236,154,80125,2,0,P|181:165|113:142,2,124.5,2|0|8,0:0|0:0|0:0,0:0:0:0:
315,128,81505,6,0,L|409:139,1,83,2|8,0:0|0:0,0:0:0:0:
480,143,82194,2,0,P|502:84|487:13,2,124.5,0|6|8,0:0|0:0|0:0,0:0:0:0:
440,216,83573,2,0,L|449:303,1,83,0|8,0:0|0:0,0:0:0:0:
381,347,84263,6,0,P|341:355|255:323,1,124.5,2|0,0:0|0:0,0:0:0:0:
218,259,85125,1,2,0:0:0:0:
193,179,85470,2,0,B|134:162|134:162|61:180,1,124.5,2|8,0:0|0:0,0:0:0:0:
2,222,86332,2,0,L|13:324,1,83,0|8,0:0|0:0,0:0:0:0:
93,319,87022,6,0,P|186:308|257:334,1,166,2|0,0:0|0:0,0:0:0:0:
334,348,88056,1,8,0:0:0:0:
396,294,88401,2,0,P|399:250|378:198,1,83,8|8,0:0|0:0,0:0:0:0:
320,164,89091,2,0,P|317:120|338:68,1,83,8|2,0:0|0:0,0:0:0:0:
267,27,89780,6,0,L|167:21,1,83,6|8,0:0|0:0,0:0:0:0:
127,82,90470,2,0,P|68:62|7:72,2,124.5,0|2|8,0:0|0:0|0:0,0:0:0:0:
165,155,91849,2,0,L|168:252,1,83,0|8,0:0|0:0,0:0:0:0:
221,301,92539,6,0,P|264:308|316:295,1,83,2|8,0:0|0:0,0:0:0:0:
369,251,93229,2,0,L|363:110,1,124.5,0|2,0:0|0:0,0:0:0:0:
321,55,94091,1,2,0:0:0:0:
244,87,94436,2,0,P|171:98|124:84,1,124.5,0|8,0:0|0:0,0:0:0:0:
46,114,95298,6,0,L|54:208,1,83,2|8,0:0|0:0,0:0:0:0:
122,242,95987,2,0,P|98:299|94:369,2,124.5,0|2|8,0:0|0:0|0:0,0:0:0:0:
200,215,97367,2,0,P|239:221|291:218,1,83,0|8,0:0|0:0,0:0:0:0:
355,180,98056,6,0,P|394:174|446:177,1,83,2|8,0:0|0:0,0:0:0:0:
489,240,98746,2,0,L|496:104,2,124.5,0|2|8,0:0|0:0|0:0,0:0:0:0:
441,308,100125,2,0,P|399:309|358:303,1,83,2|2,0:0|0:0,0:0:0:0:
283,267,100815,6,0,L|200:271,1,83,6|8,0:0|0:0,0:0:0:0:
126,232,101505,2,0,P|158:288|151:364,2,124.5,0|2|8,0:0|0:0|0:0,0:0:0:0:
55,188,102884,2,0,L|60:99,1,83,0|8,0:0|0:0,0:0:0:0:
119,47,103573,6,0,B|210:26|191:83|289:54,1,166,2|0,0:0|0:0,0:0:0:0:
360,32,104608,1,8,0:0:0:0:
439,54,104953,2,0,L|444:145,1,83,0|8,0:0|0:0,0:0:0:0:
505,191,105642,2,0,L|500:282,1,83,0|8,0:0|0:0,0:0:0:0:
439,330,106332,6,0,P|372:342|309:312,2,124.5,2|0|8,0:0|0:0|0:0,0:0:0:0:
500,273,107711,2,0,L|505:191,1,83,0|8,0:0|0:0,0:0:0:0:
483,110,108401,2,0,P|440:98|387:98,1,83,0|8,0:0|0:0,0:0:0:0:
344,156,109091,6,0,L|348:32,2,124.5,2|0|8,0:0|0:0|0:0,0:0:0:0:
178,163,110815,2,0,P|135:154|87:159,1,83,8|0,0:0|0:0,0:0:0:0:
40,218,111505,6,0,L|47:310,1,83,2|6,0:1|0:0,0:0:0:0:
283,122,117367,6,0,P|323:93|439:110,1,166,6|8,0:0|0:0,0:0:0:0:
470,179,118401,1,0,0:0:0:0:
437,255,118746,2,0,L|271:263,1,166,2|8,0:0|0:0,0:0:0:0:
188,267,119780,1,0,0:0:0:0:
114,229,120125,6,0,P|100:186|106:136,1,83,2|0,0:0|0:0,0:0:0:0:
127,69,120815,2,0,P|170:55|220:61,1,83,8|0,0:0|0:0,0:0:0:0:
281,93,121505,1,2,0:0:0:0:
339,151,121849,2,2,B|364:233|311:230|326:325,1,166,2|2,0:1|0:1,0:1:0:0:
251,352,122884,6,0,P|187:363|123:342,2,124.5,6|0|8,0:0|0:0|0:0,0:0:0:0:
325,313,124263,2,0,B|378:305|378:305|437:325|437:325|492:317,1,166,2|2,0:0|0:1,0:0:0:0:
511,238,125298,1,8,0:0:0:0:
476,162,125642,6,0,P|422:122|320:123,1,166,2|0,0:0|0:0,0:0:0:0:
246,97,126677,2,0,P|192:57|90:58,1,166,8|8,0:0|0:0,0:0:0:0:
21,91,127711,2,0,L|27:187,1,83,0|8,0:0|0:0,0:0:0:0:
86,230,128401,6,0,L|77:364,2,124.5,6|0|8,0:0|0:0|0:0,0:0:0:0:
147,174,129780,2,0,P|223:159|306:209,1,166,2|2,0:0|0:1,0:0:0:0:
343,269,130815,1,8,0:0:0:0:
364,349,131160,6,0,L|495:356,2,124.5,6|0|8,0:0|0:0|0:0,0:0:0:0:
283,328,132539,2,0,P|239:322|199:332,1,83,0|12,0:0|0:0,0:0:0:0:
131,286,133229,2,0,P|87:292|47:282,1,83,6|12,0:0|0:0,0:0:0:0:
9,210,133918,6,0,L|-2:74,2,124.5,6|0|8,0:0|0:0|0:0,0:0:0:0:
92,206,135298,2,0,P|145:182|256:198,1,166,2|2,0:0|0:1,0:0:0:0:
312,248,136332,1,8,0:0:0:0:
394,235,136677,6,0,P|432:181|420:78,1,166,2|0,0:0|0:0,0:0:0:0:
353,40,137711,2,0,P|299:78|196:66,1,166,8|8,0:0|0:0,0:0:0:0:
121,52,138746,2,0,L|111:135,1,83,0|8,0:0|0:0,0:0:0:0:
36,171,139436,6,0,P|97:176|147:211,2,124.5,6|0|8,0:0|0:0|0:0,0:0:0:0:
0,246,140815,2,0,P|44:315|127:336,1,166,2|2,0:0|0:1,0:0:0:0:
201,314,141849,1,8,0:0:0:0:
256,251,142194,6,0,L|384:266,2,124.5,2|0|8,0:0|0:0|0:0,0:0:0:0:
200,189,143573,1,2,0:0:0:0:
239,115,143918,2,0,P|305:73|396:77,1,166,0|2,0:0|0:1,0:0:0:0:
464,113,144953,5,4,3:0:0:0:
437,162,149091,6,0,L|343:170,1,83,0|0,0:0|0:0,0:0:0:0:
290,222,149780,2,0,L|196:214,1,83,0|0,0:0|0:0,0:0:0:0:
150,154,150470,6,0,P|172:199|136:314,2,166,2|2|2,0:0|0:0|0:0,0:0:0:0:
94,92,152194,1,2,0:0:0:0:
160,42,152539,2,0,L|252:32,1,83,2|2,0:0|0:0,0:0:0:0:
324,17,153229,6,0,B|336:57|336:57|324:97|324:97|336:133|336:133|324:177|324:177|336:213|336:213|324:253|324:253|336:289|336:289|324:337,1,332,2|2,0:0|0:0,0:0:0:0:
245,360,154953,2,0,L|147:364,1,83,0|0,0:0|0:0,0:0:0:0:
84,332,155642,1,0,0:0:0:0:
29,269,155987,6,0,P|21:203|51:144,1,124.5,6|0,0:0|0:0,0:0:0:0:
114,106,156849,1,2,0:0:0:0:
192,133,157194,2,0,L|324:123,1,124.5,2|8,0:0|0:0,0:0:0:0:
391,159,158056,2,0,P|408:217|404:249,1,83,0|8,0:0|0:0,0:0:0:0:
366,311,158746,6,0,P|308:328|276:324,1,83,2|8,0:0|0:0,0:0:0:0:
208,295,159436,2,0,L|76:304,2,124.5,0|2|8,0:0|0:0|0:0,0:0:0:0:
260,230,160815,2,0,P|261:169|249:139,1,83,0|8,0:0|0:0,0:0:0:0:
212,77,161505,5,2,0:0:0:0:
280,30,161849,2,0,L|418:25,1,124.5,12|2,0:0|0:0,0:0:0:0:
475,67,162711,2,0,P|499:120|494:199,1,124.5,2|8,0:0|0:0,0:0:0:0:
453,255,163573,2,0,L|361:261,1,83,0|8,0:0|0:0,0:0:0:0:
301,307,164263,5,2,0:0:0:0:
226,269,164608,2,0,P|185:253|131:258,2,83,8|8|8,0:0|0:0|0:0,0:0:0:0:
256,192,165470,12,2,167022,0:0:0:0:
436,130,172539,6,0,B|361:117|349:166|272:150,1,166,6|8,0:0|0:0,0:0:0:0:
200,111,173573,1,0,0:0:0:0:
133,61,173918,2,0,P|70:81|30:176,1,166,2|8,0:0|0:0,0:0:0:0:
56,245,174953,1,0,0:0:0:0:
127,286,175298,6,0,L|114:375,2,83,2|0|8,0:0|0:0|0:0,0:0:0:0:
187,229,176332,1,0,0:0:0:0:
253,279,176677,2,0,B|322:312|378:304|378:304|420:253|426:179,1,249,2|0,0:0|0:0,0:0:0:0:
412,113,178056,5,2,0:0:0:0:
256,192,183573,12,8,187711,3:3:0:0:
146,137,189091,6,0,L|8:146,2,124.5,6|0|8,0:0|0:0|0:0,0:0:0:0:
197,71,190470,2,0,P|260:34|366:41,1,166,2|2,0:0|0:1,0:0:0:0:
427,68,191505,1,8,0:0:0:0:
483,128,191849,6,0,B|487:250|487:250|462:294,1,166,2|0,0:0|0:0,0:0:0:0:
387,318,192884,2,0,B|265:314|265:314|221:339,1,166,8|8,0:0|0:0,0:0:0:0:
147,358,193918,2,0,P|97:358|62:341,1,83,0|8,0:0|0:0,0:0:0:0:
18,277,194608,6,0,L|9:150,2,124.5,6|0|8,0:0|0:0|0:0,0:0:0:0:
100,264,195987,2,0,P|172:241|269:273,1,166,2|2,0:0|0:1,0:0:0:0:
323,314,197022,1,8,0:0:0:0:
391,268,197367,6,0,P|450:288|511:279,2,124.5,6|0|8,0:0|0:0|0:0,0:0:0:0:
327,217,198746,2,0,L|334:126,1,83,0|12,0:0|0:0,0:0:0:0:
252,112,199436,2,0,L|245:21,1,83,6|12,0:0|0:0,0:0:0:0:
165,51,200125,6,0,P|100:71|33:53,2,124.5,6|0|8,0:0|0:0|0:0,0:0:0:0:
245,29,201505,2,0,B|364:20|364:20|422:46,1,166,2|2,0:0|0:1,0:0:0:0:
471,90,202539,1,8,0:0:0:0:
487,171,202884,6,0,P|444:212|342:222,1,166,2|0,0:0|0:0,0:0:0:0:
262,196,203918,2,0,P|219:237|117:247,1,166,8|8,0:0|0:0,0:0:0:0:
44,205,204953,2,0,L|51:116,1,83,0|8,0:0|0:0,0:0:0:0:
125,87,205642,6,0,P|68:85|10:31,2,124.5,6|0|8,0:0|0:0|0:0,0:0:0:0:
185,30,207022,2,0,P|157:110|176:187,1,166,2|2,0:0|0:1,0:0:0:0:
217,258,208056,1,8,0:0:0:0:
276,315,208401,6,0,L|417:302,2,124.5,2|0|8,0:0|0:0|0:0,0:0:0:0:
209,365,209780,1,2,0:0:0:0:
129,340,210125,2,0,P|71:290|66:192,1,166,0|2,0:0|0:1,0:0:0:0:
112,139,211160,6,0,B|166:134|166:134|221:157|221:157|285:150,2,166,4|8|2,3:0|0:0|0:0,0:0:0:0:
61,205,212884,1,0,0:0:0:0:
90,282,213229,2,0,P|158:308|180:306,1,83,8|0,0:0|0:0,0:0:0:0:
241,271,213918,6,0,B|327:250|322:304|403:279,1,166,4|8,3:0|0:0,0:0:0:0:
457,216,214953,1,0,0:0:0:0:
404,151,215298,2,0,B|322:126|327:180|241:159,1,166,4|8,3:0|0:0,0:0:0:0:
89,93,216677,6,0,B|76:148|76:148|87:196|87:196|68:268,2,166,6|8|2,0:0|0:0|0:0,0:0:0:0:
154,42,218401,1,0,0:0:0:0:
227,81,218746,2,0,L|319:73,1,83,8|0,0:0|0:0,0:0:0:0:
381,30,219436,6,0,P|348:57|358:176,1,166,4|8,3:0|0:0,0:0:0:0:
410,229,220470,1,0,0:0:0:0:
488,255,220815,2,0,B|493:298|493:298|481:339,1,83,2|0,0:0|0:0,0:0:0:0:
