osu file format v14

[General]
AudioFilename: audio.mp3
AudioLeadIn: 0
PreviewTime: 176849
Countdown: 0
SampleSet: Soft
StackLeniency: 0.4
Mode: 0
LetterboxInBreaks: 0
WidescreenStoryboard: 0

[Editor]
DistanceSpacing: 1.5
BeatDivisor: 4
GridSize: 32
TimelineZoom: 3

[Metadata]
Title:Genesis
TitleUnicode:Genesis
Artist:STEREO DIVE FOUNDATION
ArtistUnicode:STEREO DIVE FOUNDATION
Creator:Akitoshi
Version:Conviction
Source:Dimension W
Tags:opening electronic Corinn
BeatmapID:1389960
BeatmapSetID:655970

[Difficulty]
HPDrainRate:6
CircleSize:4.2
OverallDifficulty:8.5
ApproachRate:9.5
SliderMultiplier:1.8
SliderTickRate:1

[Events]
//Background and Video events
0,0,"mira1.jpg",0,0
//Break Periods
2,2049,3738
2,145153,148566
//Storyboard Layer 0 (Background)
//Storyboard Layer 1 (Fail)
//Storyboard Layer 2 (Pass)
//Storyboard Layer 3 (Foreground)
//Storyboard Sound Samples

[TimingPoints]
1505,344.827586206897,4,2,1,60,1,0
5642,-100,4,2,1,60,0,0
6677,-125,4,2,1,60,0,0
7022,-100,4,2,1,70,0,0
11160,-125,4,2,1,60,0,0
12539,-66.6666666666667,4,2,1,80,0,0
23573,-66.6666666666667,4,2,1,70,0,0
33573,-142.857142857143,4,2,1,80,0,0
34263,-58.8235294117647,4,2,1,80,0,0
34608,-200,4,2,1,60,0,0
39780,-83.3333333333334,4,2,1,60,0,0
40125,-66.6666666666667,4,2,1,80,0,0
42884,-133.333333333333,4,2,1,80,0,0
43229,-66.6666666666667,4,2,1,80,0,0
44263,-166.666666666667,4,2,1,60,0,0
45642,-200,4,2,1,60,0,0
51160,-125,4,2,1,60,0,0
52539,-111.111111111111,4,2,1,60,0,0
53918,-100,4,2,1,60,0,0
55298,-90.9090909090909,4,2,1,60,0,0
56332,-125,4,2,1,60,0,0
56677,-62.5,4,2,1,90,0,1
58746,-52.6315789473684,4,2,1,90,0,1
59091,-62.5,4,2,1,90,0,1
64263,-52.6315789473684,4,2,1,90,0,1
64608,-62.5,4,2,1,90,0,1
69780,-52.6315789473684,4,2,1,90,0,1
70125,-62.5,4,2,1,90,0,1
75298,-52.6315789473684,4,2,1,90,0,1
75642,-62.5,4,2,1,90,0,1
77711,-100,4,2,1,60,0,0
78401,-66.6666666666667,4,2,1,80,0,0
89780,-66.6666666666667,4,2,1,70,0,0
110815,-142.857142857143,4,2,1,70,0,0
111505,-58.8235294117647,4,2,1,70,0,0
111849,-200,4,2,1,70,0,0
117022,-83.3333333333333,4,2,1,70,0,0
117367,-66.6666666666667,4,2,1,70,0,0
120125,-133.333333333333,4,2,1,70,0,0
120470,-66.6666666666667,4,2,1,70,0,0
121849,-66.6666666666667,4,2,1,30,0,0
122194,-66.6666666666667,4,2,1,50,0,0
122539,-66.6666666666667,4,2,1,70,0,0
122884,-62.5,4,2,1,90,0,1
124953,-52.6315789473684,4,2,1,90,0,1
125298,-62.5,4,2,1,90,0,1
130470,-52.6315789473684,4,2,1,90,0,1
130815,-62.5,4,2,1,90,0,1
135987,-52.6315789473684,4,2,1,90,0,1
136332,-62.5,4,2,1,90,0,1
141505,-52.6315789473684,4,2,1,90,0,1
141849,-62.5,4,2,1,90,0,1
143918,-100,4,2,1,60,0,0
144608,-66.6666666666667,4,2,1,60,0,0
144953,-100,4,2,1,60,0,0
150125,-125,4,2,1,60,0,0
150470,-100,4,2,1,70,0,0
154953,-55.5555555555556,4,2,1,60,0,0
155642,-166.666666666667,4,2,1,60,0,0
155987,-66.6666666666667,4,2,1,80,0,0
165470,-100,4,2,1,80,0,0
166677,-58.8235294117647,4,2,1,80,0,0
167022,-166.666666666667,4,2,1,80,0,0
172194,-83.3333333333333,4,2,1,80,0,0
172539,-66.6666666666667,4,2,1,80,0,0
175298,-133.333333333333,4,2,1,80,0,0
175642,-66.6666666666667,4,2,1,80,0,0
176677,-200,4,2,1,80,0,0
178056,-166.666666666667,4,2,1,80,0,0
183573,-125,4,2,1,80,0,0
184953,-111.111111111111,4,2,1,80,0,0
186332,-100,4,2,1,80,0,0
187711,-90.9090909090909,4,2,1,80,0,0
188746,-100,4,2,1,80,0,0
189091,-58.8235294117647,4,2,1,90,0,1
191160,-50,4,2,1,90,0,1
191505,-58.8235294117647,4,2,1,90,0,1
196677,-50,4,2,1,90,0,1
197022,-58.8235294117647,4,2,1,90,0,1
202194,-50,4,2,1,90,0,1
202539,-58.8235294117647,4,2,1,90,0,1
207711,-50,4,2,1,90,0,1
208056,-58.8235294117647,4,2,1,90,0,1
210125,-100,4,2,1,80,0,0
210815,-66.6666666666667,4,2,1,80,0,0
211160,-100,4,2,1,80,0,0
211849,-58.8235294117647,4,2,1,80,0,0
215298,-117.647058823529,4,2,1,80,0,0
215987,-58.8235294117647,4,2,1,80,0,0
216332,-50,4,2,1,80,0,0
216677,-100,4,2,1,80,0,0
217367,-50,4,2,1,80,0,0
218056,-58.8235294117647,4,2,1,80,0,0
219436,-100,4,2,1,80,0,0
219780,-58.8235294117647,4,2,1,80,0,0
221160,-58.8235294117647,4,2,1,5,0,0

[Colours]
Combo1 : 0,128,64
Combo2 : 31,224,108
Combo3 : 0,255,255
Combo4 : 128,128,128

[HitObjects]
135,168,1505,6,0,B|176:154|213:161|213:161|236:174|236:174|269:181|326:167,1,180,2|0,0:0|0:0,0:0:0:0:
309,170,4263,6,0,P|383:156|353:136,1,180
361,137,5642,6,0,L|243:126,1,90
196,160,5901,1,0,0:0:0:0:
186,180,5987,2,0,L|68:191,1,90
196,60,6332,1,0,0:0:0:0:
284,227,6505,1,0,0:0:0:0:
296,245,6591,1,0,0:0:0:0:
309,261,6677,2,0,P|361:277|422:250,1,108
424,242,7022,6,0,L|438:341,1,90,2|0,0:0|0:0,0:0:0:0:
424,132,7367,2,0,L|438:231,1,90,2|0,0:0|0:0,0:0:0:0:
430,23,7711,2,0,L|444:122,1,90,2|0,0:0|0:0,0:0:0:0:
324,177,8056,1,2,0:0:0:0:
208,106,8229,6,0,P|155:108|108:131,2,90,0|2|0,0:0|0:0|0:0,0:0:0:0:
95,235,8746,2,0,P|42:233|-5:210,1,90,2|0,0:0|0:0,0:0:0:0:
178,200,9091,2,0,L|193:304,1,90,2|0,0:0|0:0,0:0:0:0:
306,358,9436,1,2,0:0:0:0:
306,358,9608,1,0,0:0:0:0:
346,164,9780,5,2,0:0:0:0:
190,289,9953,1,2,0:0:0:0:
259,84,10125,5,2,0:0:0:0:
359,276,10298,1,2,0:0:0:0:
158,156,10470,5,2,0:0:0:0:
370,58,10642,1,2,0:0:0:0:
279,294,10815,5,2,0:0:0:0:
168,68,10987,1,2,0:0:0:0:
451,123,11160,5,2,0:0:0:0:
451,123,11505,6,0,P|398:123|364:137,1,72
307,186,11849,2,0,L|316:230,1,36
238,148,12022,2,0,L|247:104,1,36
154,163,12194,2,0,P|178:209|233:234,1,108
314,221,12539,6,0,L|325:372,1,135.000005149842,6|0,0:0|0:0,0:0:0:0:
451,123,12884,1,8,0:0:0:0:
238,148,13056,2,0,B|169:182|90:172|81:108|137:78|192:126,1,202.500007724762
39,167,13401,2,0,P|31:130|39:96,1,67.5000025749208,2|0,0:0|0:0,0:0:0:0:
255,70,13573,2,0,P|263:107|255:141,1,67.5000025749208,8|0,0:0|0:0,0:0:0:0:
130,9,13746,1,0,0:0:0:0:
343,196,13918,6,0,P|284:237|196:220,1,135.000005149842,2|0,0:0|0:0,0:0:0:0:
374,59,14263,1,8,0:0:0:0:
477,206,14436,2,0,B|512:259|475:329|475:329|472:277|420:250,1,202.500007724762
310,343,14780,2,0,L|378:337,1,67.5000025749208,2|0,0:0|0:0,0:0:0:0:
471,182,14953,2,0,B|452:135|475:92|475:92|415:126,1,135.000005149842,8|0,0:0|0:0,0:0:0:0:
222,232,15298,6,0,B|137:285|60:162|163:108,1,202.500007724762,2|0,0:0|0:0,0:0:0:0:
266,131,15642,2,0,L|357:139,1,67.5000025749208,8|0,0:0|0:0,0:0:0:0:
453,258,15815,2,0,L|290:271,1,135.000005149842
452,154,16160,1,2,0:0:0:0:
381,370,16332,1,8,0:0:0:0:
266,131,16505,6,0,B|217:85|146:98|116:128|116:128|149:118|182:128,1,202.500007724762,2|0,0:0|0:0,0:0:0:0:
39,104,16849,2,0,P|35:138|46:170,1,67.5000025749208,2|0,0:0|0:0,0:0:0:0:
212,244,17022,2,0,P|184:225|152:218,1,67.5000025749208,8|0,0:0|0:0,0:0:0:0:
5,324,17194,2,0,P|36:310|59:286,1,67.5000025749208
153,123,17367,5,0,0:0:0:0:
217,342,17539,1,2,0:0:0:0:
325,110,17711,2,0,B|375:69|454:75|506:122|444:174|394:116,1,202.500007724762,8|0,0:0|0:0,0:0:0:0:
331,71,18056,6,0,P|400:57|475:86,1,135.000005149842,2|0,0:0|0:0,0:0:0:0:
300,257,18401,1,8,0:0:0:0:
128,152,18573,2,0,B|107:105|107:105|134:8|134:8|87:49,1,202.500007724762
9,80,18918,2,0,P|1:44|11:-4,1,67.5000025749208,2|0,0:0|0:0,0:0:0:0:
219,112,19091,2,0,P|227:148|217:196,1,67.5000025749208,8|0,0:0|0:0,0:0:0:0:
132,263,19263,1,0,0:0:0:0:
349,299,19436,6,0,P|415:264|508:286,1,135.000005149842,2|0,0:0|0:0,0:0:0:0:
337,131,19780,1,8,0:0:0:0:
225,288,19953,2,0,B|176:303|132:263|132:263|177:303|159:368,1,202.500007724762
0,341,20298,2,0,L|67:335,1,67.5000025749208,2|0,0:0|0:0,0:0:0:0:
199,201,20470,2,0,P|114:176|53:211,1,135.000005149842,8|0,0:0|0:0,0:0:0:0:
236,186,20815,6,0,P|167:142|45:168,1,202.500007724762,2|0,0:0|0:0,0:0:0:0:
3,273,21160,2,0,L|-1:360,1,67.5000025749208,8|0,0:0|0:0,0:0:0:0:
240,363,21332,2,0,L|232:189,1,135.000005149842
119,373,21677,1,2,0:0:0:0:
370,275,21849,1,8,0:0:0:0:
129,250,22022,2,0,P|126:216|137:177,1,67.5000025749208,2|0,0:0|0:0,0:0:0:0:
233,228,22194,5,8,0:0:0:0:
44,127,22367,2,0,P|65:100|101:81,1,67.5000025749208,2|0,0:0|0:0,0:0:0:0:
134,184,22539,5,8,0:0:0:0:
334,80,22711,2,0,L|329:2,1,67.5000025749208,2|0,0:0|0:0,0:0:0:0:
268,155,22884,5,8,0:0:0:0:
296,172,22970,1,2,0:0:0:0:
329,179,23056,1,2,0:0:0:0:
362,175,23142,1,2,0:0:0:0:
417,123,23228,5,2,0:0:0:0:
442,145,23315,1,2,0:0:0:0:
456,175,23401,1,2,0:0:0:0:
459,208,23487,1,2,0:0:0:0:
432,277,23573,6,0,B|385:262|385:262|338:274|338:274|293:254|293:254|216:267,1,202.500007724762,6|0,0:0|0:0,0:0:0:0:
149,275,23918,2,0,P|138:243|144:200,1,67.5000025749208,8|0,0:0|0:0,0:0:0:0:
336,104,24091,2,0,P|281:153|205:155,1,135.000005149842
28,98,24436,1,2,0:0:0:0:
240,46,24608,1,8,0:0:0:0:
141,245,24780,6,0,B|120:289|120:289|151:383|151:383|186:327,1,202.500007724762,2|0,0:0|0:0,0:0:0:0:
266,282,25125,2,0,P|280:319|277:366,1,67.5000025749208,2|0,0:0|0:0,0:0:0:0:
50,345,25298,2,0,B|35:309|29:280|29:280|38:255|59:219,1,135.000005149842,8|0,0:0|0:0,0:0:0:0:
232,113,25642,6,0,L|240:39,1,67.5000025749208
361,3,25815,2,0,L|369:77,1,67.5000025749208,2|0,0:0|0:0,0:0:0:0:
150,155,25987,2,0,B|125:151|99:132|99:132|136:86|201:88|245:121,1,202.500007724762,8|0,0:0|0:0,0:0:0:0:
324,168,26332,6,0,B|343:232|343:232|312:302,1,135.000005149842,2|0,0:0|0:0,0:0:0:0:
368,70,26677,2,0,B|413:21|413:21|490:13,1,135.000005149842,8|0,0:0|0:0,0:0:0:0:
231,112,27022,2,0,B|166:96|166:96|120:34,1,135.000005149842,0|2,0:0|0:0,0:0:0:0:
275,2,27367,1,8,0:0:0:0:
170,255,27539,6,0,B|99:294|32:251|32:251|61:262|108:242,1,202.500007724762,2|0,0:0|0:0,0:0:0:0:
59,106,27884,2,0,P|52:139|55:172,1,67.5000025749208,2|0,0:0|0:0,0:0:0:0:
227,178,28056,2,0,P|233:144|230:111,1,67.5000025749208,8|0,0:0|0:0,0:0:0:0:
148,14,28229,1,0,0:0:0:0:
59,106,28401,5,0,0:0:0:0:
170,255,28573,1,2,0:0:0:0:
311,23,28746,2,0,B|361:2|451:5|476:65|429:102|380:50,1,202.500007724762,8|0,0:0|0:0,0:0:0:0:
279,27,29091,6,0,B|247:83|247:83|275:153,1,135.000005149842,2|0,0:0|0:0,0:0:0:0:
116,299,29436,2,0,B|148:243|148:243|120:173,1,135.000005149842,8|0,0:0|0:0,0:0:0:0:
28,371,29780,1,0,0:0:0:0:
241,333,29953,1,2,0:0:0:0:
24,224,30125,1,8,0:0:0:0:
273,149,30298,6,0,B|322:114|398:142|398:142|402:181|347:214,1,202.500007724762,2|0,0:0|0:0,0:0:0:0:
320,301,30642,2,0,P|321:338|340:376,1,67.5000025749208,2|0,0:0|0:0,0:0:0:0:
474,234,30815,2,0,P|497:183|483:85,1,135.000005149842,8|0,0:0|0:0,0:0:0:0:
251,22,31160,6,0,P|208:22|166:41,1,67.5000025749208
273,149,31332,2,0,P|316:149|358:130,1,67.5000025749208,2|0,0:0|0:0,0:0:0:0:
169,57,31505,2,0,B|102:30|27:76|27:76|81:110,1,202.500007724762,8|0,0:0|0:0,0:0:0:0:
146,195,31849,6,0,L|126:347,1,135.000005149842,2|0,0:0|0:0,0:0:0:0:
382,204,32194,2,0,L|362:52,1,135.000005149842,8|0,0:0|0:0,0:0:0:0:
465,262,32539,1,0,0:0:0:0:
273,149,32711,1,2,0:0:0:0:
506,80,32884,1,8,0:0:0:0:
253,37,33056,6,0,B|206:23|206:23|156:54|91:37|91:37|133:79,1,202.500007724762,2|0,0:0|0:0,0:0:0:0:
159,129,33401,2,0,L|144:207,1,67.5000025749208,2|0,0:0|0:0,0:0:0:0:
69,152,33573,6,0,P|160:108|235:196,1,220.499993270874,8|0,0:0|0:0,0:0:0:0:
96,95,34263,6,0,P|173:84|249:138,1,153.000002918243,2|0,0:1|0:0,0:0:0:0:
335,319,34608,5,6,0:0:0:0:
467,253,34780,1,0,0:0:0:0:
467,253,34867,1,0,0:0:0:0:
467,253,34953,2,0,L|462:214,1,22.5
351,130,35125,5,0,0:0:0:0:
351,130,35211,1,0,0:0:0:0:
351,130,35298,1,0,0:0:0:0:
294,193,35470,1,0,0:0:0:0:
210,209,35642,1,0,0:0:0:0:
128,183,35815,1,0,0:0:0:0:
63,127,35987,6,0,L|68:67,1,45
80,70,36246,1,0,0:0:0:0:
93,58,36332,2,0,L|96:38,6,11.25
162,92,36677,5,0,0:0:0:0:
180,105,36763,1,0,0:0:0:0:
201,110,36849,1,0,0:0:0:0:
223,110,36936,1,0,0:0:0:0:
244,103,37022,2,0,L|250:149,1,45
326,217,37367,6,0,L|321:274,1,45
247,303,37711,1,0,0:0:0:0:
314,371,37884,1,0,0:0:0:0:
314,371,37970,1,0,0:0:0:0:
314,371,38056,1,0,0:0:0:0:
395,344,38229,1,0,0:0:0:0:
395,344,38315,1,0,0:0:0:0:
395,344,38401,2,0,L|403:287,1,45
357,192,38746,6,0,P|259:200|331:267,1,247.5
292,137,39780,6,0,P|246:180|267:288,1,161.999995056153,4|0,0:3|0:0,0:0:0:0:
361,302,40125,6,0,B|288:282|288:282|184:304|184:304|74:282|74:282|178:349,1,405.000015449525,6|0,0:0|0:0,0:0:0:0:
176,197,40815,6,0,L|167:121,1,67.5000025749208,8|0,0:0|0:0,0:0:0:0:
67,215,40987,2,0,L|75:283,1,67.5000025749208
286,180,41160,2,0,L|277:104,1,67.5000025749208
176,197,41332,2,0,L|183:264,1,67.5000025749208
278,112,41505,6,0,B|234:37|143:29|86:56|52:115|49:161|82:214|146:229|191:187,1,405.000015449525,2|0,0:0|0:0,0:0:0:0:
369,58,42194,5,8,0:0:0:0:
402,47,42280,1,0,0:0:0:0:
402,13,42367,1,0,0:0:0:0:
369,3,42453,1,0,0:0:0:0:
350,30,42539,2,0,B|338:148|401:95|372:250,1,202.500007724762
336,300,42884,6,0,B|303:295|303:295|264:302,1,67.5000025749208,2|0,0:0|0:0,0:0:0:0:
261,337,43229,6,0,P|301:279|235:315,1,202.500007724762
377,341,43573,6,0,P|385:299|377:255,1,67.5000025749208,8|0,0:0|0:0,0:0:0:0:
281,163,43746,2,0,P|313:190|355:206,1,67.5000025749208
480,170,43918,2,0,P|439:184|405:213,1,67.5000025749208
298,278,44091,1,0,0:0:0:0:
284,290,44177,1,0,0:0:0:0:
269,301,44263,6,0,B|231:333|167:323|167:323|122:287|63:300|63:300|115:269|127:202|101:160,1,377.999988464356,2|0,0:0|0:0,0:0:0:0:
39,92,45642,6,0,P|74:73|136:75,3,90,2|2|2|2,0:0|0:0|0:0|0:0,0:0:0:0:
243,149,47022,2,0,P|278:168|340:166,3,90,2|2|2|2,0:0|0:0|0:0|0:0,0:0:0:0:
461,117,48401,6,0,L|475:217,1,90,2|2,0:0|0:0,0:0:0:0:
418,253,48918,2,0,L|408:310,2,45,0|2|0,0:0|0:0|0:0,0:0:0:0:
369,198,49436,6,0,P|314:197|271:226,1,90,2|2,0:0|0:0,0:0:0:0:
239,269,49953,2,0,L|248:326,2,45,0|2|0,0:0|0:0|0:0,0:0:0:0:
172,241,50470,2,0,B|157:198|180:189|168:149,1,90,2|2,0:0|0:0,0:0:0:0:
168,152,51160,6,0,L|222:144,1,36,2|0,0:0|0:0,0:0:0:0:
229,49,51332,2,0,L|272:81,1,36,2|0,0:0|0:0,0:0:0:0:
349,26,51505,2,0,L|357:80,1,36,2|0,0:0|0:0,0:0:0:0:
450,90,51677,2,0,L|417:133,1,36,2|0,0:0|0:0,0:0:0:0:
484,202,51849,2,0,L|430:210,1,36,2|0,0:0|0:0,0:0:0:0:
421,305,52022,2,0,L|377:272,1,36,2|0,0:0|0:0,0:0:0:0:
299,321,52194,2,0,L|291:267,1,36,2|0,0:0|0:0,0:0:0:0:
192,271,52367,2,0,L|224:227,1,36,2|0,0:0|0:0,0:0:0:0:
261,110,52539,6,0,L|255:45,1,40.4999987640381,2|0,0:0|0:0,0:0:0:0:
144,63,52711,2,0,L|93:21,1,40.4999987640381,2|0,0:0|0:0,0:0:0:0:
54,135,52884,2,0,L|-11:141,1,40.4999987640381,2|0,0:0|0:0,0:0:0:0:
37,249,53056,2,0,L|-4:299,1,40.4999987640381,2|0,0:0|0:0,0:0:0:0:
109,337,53229,2,0,L|115:402,1,40.4999987640381,2|0,0:0|0:0,0:0:0:0:
224,358,53401,2,0,L|274:399,1,40.4999987640381,2|0,0:0|0:0,0:0:0:0:
341,310,53573,2,0,L|406:304,1,40.4999987640381,2|0,0:0|0:0,0:0:0:0:
369,192,53746,2,0,L|410:141,1,40.4999987640381,2|0,0:0|0:0,0:0:0:0:
485,60,53918,5,2,0:0:0:0:
487,100,54005,1,2,0:0:0:0:
489,140,54091,1,2,0:0:0:0:
491,180,54177,1,2,0:0:0:0:
494,220,54263,1,2,0:0:0:0:
498,260,54349,1,2,0:0:0:0:
461,348,54436,5,2,0:0:0:0:
425,328,54522,1,2,0:0:0:0:
386,316,54608,1,2,0:0:0:0:
345,313,54694,1,2,0:0:0:0:
306,323,54780,1,2,0:0:0:0:
271,344,54867,1,2,0:0:0:0:
182,376,54953,6,0,L|171:313,1,45,2|2,0:0|0:0,0:0:0:0:
93,247,55125,2,0,L|104:184,1,45,2|2,0:0|0:0,0:0:0:0:
188,121,55298,5,8,3:0:0:0:
231,82,55384,5,8,3:0:0:0:
283,111,55470,5,8,3:0:0:0:
271,169,55556,5,8,3:0:0:0:
213,174,55642,6,0,L|226:252,1,49.5000015106202,8|0,3:0|0:0,0:0:0:0:
372,331,55815,5,8,3:0:0:0:
411,287,55901,5,8,3:0:0:0:
381,235,55987,5,8,3:0:0:0:
323,248,56073,5,8,3:0:0:0:
318,306,56159,6,0,L|265:312,1,49.5000015106202,8|0,3:0|0:0,0:0:0:0:
120,238,56332,6,0,P|168:216|225:225,1,108,4|0,1:0|0:0,0:0:0:0:
232,205,56677,6,0,B|162:180|89:233|89:233|112:199|98:151,1,216,6|0,0:0|0:0,0:0:0:0:
36,119,57022,2,0,P|19:150|20:186,1,72,8|0,0:0|0:0,0:0:0:0:
251,271,57194,2,0,P|250:235|231:204,1,72
48,334,57367,6,0,L|123:322,1,72
318,306,57539,2,0,L|246:294,1,72,2|0,0:0|0:0,0:0:0:0:
134,157,57711,2,0,B|130:128|120:113|120:113|147:82|138:19|138:19|165:56|223:60,1,216,8|0,0:0|0:0,0:0:0:0:
312,43,58056,6,0,B|362:2|460:12|491:64|462:107|391:91,1,216,2|0,0:0|0:0,0:0:0:0:
216,48,58401,2,0,L|230:129,1,72,8|0,0:0|0:0,0:0:0:0:
334,216,58573,2,0,L|346:145,1,72
300,325,58746,6,2,B|372:346|424:287|424:287|448:352|414:379|347:356,1,256.499993150711,0|0,0:1|0:1,0:1:0:0:
334,216,59091,2,0,P|411:183|492:199,1,144,8|0,0:0|0:0,0:0:0:0:
174,357,59436,6,0,B|122:376|82:348|82:348|12:368|12:368|46:316,1,216,2|0,0:0|0:0,0:0:0:0:
76,213,59780,2,0,L|0:200,1,72,8|0,0:0|0:0,0:0:0:0:
147,106,59953,6,0,B|189:92|189:92|226:110|226:110|272:113|272:113|309:99|309:99|353:121,1,216
439,166,60298,2,0,P|450:129|444:83,1,72,2|0,0:0|0:0,0:0:0:0:
246,112,60470,6,0,B|232:163|232:163|253:215|253:215|230:278|230:278|201:225,1,216,8|0,0:0|0:0,0:0:0:0:
115,207,60815,2,0,P|108:242|130:304,1,72
337,247,60987,2,0,P|344:212|322:150,1,72,2|0,0:0|0:0,0:0:0:0:
147,58,61160,2,0,B|108:62|83:36|83:36|51:54|11:39,1,144,8|0,0:0|0:0,0:0:0:0:
255,40,61505,6,0,L|244:127,1,72
115,207,61677,2,0,L|104:120,1,72,2|0,0:0|0:0,0:0:0:0:
29,304,61849,2,0,B|77:320|116:294|116:294|154:283|197:303|197:303|161:316|141:308,1,216,8|0,0:0|0:0,0:0:0:0:
23,192,62194,6,0,B|0:153|0:105|39:59|39:59|79:62|91:100,1,216,6|0,0:0|0:0,0:0:0:0:
190,207,62539,2,0,P|225:213|261:206,1,72,8|0,0:0|0:0,0:0:0:0:
369,81,62711,2,0,P|333:76|298:82,1,72
165,203,62884,6,0,L|154:301,1,72
37,376,63056,2,0,L|26:278,1,72,2|0,0:0|0:0,0:0:0:0:
91,100,63229,2,0,B|155:94|155:94|191:72|191:72|235:87|235:87|320:81,1,216,8|0,0:0|0:0,0:0:0:0:
422,130,63573,6,0,B|464:170|471:274|319:265|338:174,1,216,2|0,0:0|0:0,0:0:0:0:
437,102,63918,2,0,L|510:98,1,72,8|0,0:0|0:0,0:0:0:0:
313,182,64091,2,0,L|240:178,1,72
44,236,64263,6,2,B|13:259|0:301|0:301|42:348|111:353|163:325,1,256.499993150711,0|0,0:1|0:1,0:1:0:0:
257,289,64608,2,0,B|271:330|253:370|253:370|282:340|312:341,1,144,8|0,0:0|0:0,0:0:0:0:
512,154,64953,6,0,B|465:95|388:112|388:112|355:141|356:199,1,216,6|0,0:0|0:0,0:0:0:0:
436,316,65298,2,0,P|453:273|454:226,1,72,8|0,0:0|0:0,0:0:0:0:
301,70,65470,6,0,B|260:59|216:61|182:98|182:98|171:108|125:105|129:50|178:50,1,216
70,135,65815,2,0,P|51:78|57:46,1,72,2|0,0:0|0:0,0:0:0:0:
259,171,65987,6,0,B|289:264|204:322|139:248|163:191,1,216,8|0,0:0|0:0,0:0:0:0:
280,161,66332,2,0,L|363:168,1,72
456,247,66505,2,0,L|373:254,1,72,2|0,0:0|0:0,0:0:0:0:
59,253,66677,6,0,B|45:284|45:284|81:329|166:327|203:270,1,216,12|0,0:0|0:0,0:0:0:0:
141,131,67022,2,0,L|61:135,1,72,6|0,0:0|0:0,0:0:0:0:
198,242,67194,2,0,L|278:246,1,72,2|0,0:0|0:0,0:0:0:0:
501,121,67367,2,0,B|460:76|406:81|406:81|368:138|301:123,1,216,12|0,0:0|0:0,0:0:0:0:
329,41,67711,6,0,P|391:90|327:210,1,216,6|0,0:0|0:0,0:0:0:0:
243,137,68056,2,0,P|279:128|319:125,1,72,8|0,0:0|0:0,0:0:0:0:
198,242,68229,2,0,P|162:238|127:229,1,72
14,140,68401,6,0,L|26:55,1,72
153,7,68573,2,0,L|165:92,1,72,2|0,0:0|0:0,0:0:0:0:
293,269,68746,2,0,B|352:290|428:284|441:207|376:181|348:203,1,216,8|0,0:0|0:0,0:0:0:0:
285,295,69091,6,0,B|344:321|421:283|421:283|376:317|392:372,1,216,2|0,0:0|0:0,0:0:0:0:
502,308,69436,2,0,P|503:269|469:214,1,72,8|0,0:0|0:0,0:0:0:0:
375,137,69608,2,0,P|354:170|356:234,1,72
434,52,69780,6,2,B|382:18|328:43|328:43|313:15|313:15|258:0|187:27,1,256.499993150711,0|0,0:1|0:1,0:1:0:0:
153,114,70125,2,0,B|139:136|139:136|199:162|254:139,1,144,8|0,0:0|0:0,0:0:0:0:
66,79,70470,6,0,B|29:133|63:189|63:189|35:191|-1:151|13:89,1,216,6|0,0:0|0:0,0:0:0:0:
139,136,70815,2,0,P|153:174|149:227,1,72,8|0,0:0|0:0,0:0:0:0:
109,349,70987,6,0,B|159:340|159:340|219:363|219:363|286:351|286:351|251:331,1,216
372,380,71332,2,0,P|376:348|364:305,1,72,2|0,0:0|0:0,0:0:0:0:
276,177,71505,6,0,B|248:116|300:75|300:75|324:134|387:136,1,216,8|0,0:0|0:0,0:0:0:0:
455,44,71849,2,0,P|420:38|385:44,1,72
340,230,72022,2,0,P|375:236|410:231,1,72,2|0,0:0|0:0,0:0:0:0:
175,105,72194,2,0,B|117:79|56:114|56:114|92:132,1,144,8|0,0:0|0:0,0:0:0:0:
276,310,72539,6,0,L|265:393,1,72
133,257,72711,2,0,L|122:174,1,72,2|0,0:0|0:0,0:0:0:0:
32,346,72884,2,0,B|62:380|145:379|171:330|171:330|133:350|88:328,1,216,8|0,0:0|0:0,0:0:0:0:
43,205,73229,6,0,B|79:179|133:174|180:207|180:207|148:223|133:257,1,216,6|0,0:0|0:0,0:0:0:0:
70,167,73573,2,0,P|103:162|152:172,1,72,8|0,0:0|0:0,0:0:0:0:
314,298,73746,2,0,P|278:302|243:297,1,72
266,108,73918,6,0,L|280:192,1,72
404,325,74091,2,0,L|418:241,1,72,2|0,0:0|0:0,0:0:0:0:
328,43,74263,2,0,B|283:1|202:0|174:57|199:103|261:104,1,216,8|0,0:0|0:0,0:0:0:0:
383,122,74608,6,0,L|464:114,1,72,2|0,0:0|0:0,0:0:0:0:
287,206,74780,2,0,L|206:198,1,72
380,151,74953,2,0,L|461:143,1,72,8|0,0:0|0:0,0:0:0:0:
284,235,75125,2,0,L|203:227,1,72
86,192,75298,6,2,B|33:157|48:66|102:40|146:41|146:41|168:101,1,256.499993150711,0|0,0:1|0:1,0:1:0:0:
51,186,75642,2,0,P|34:114|67:49,1,144,8|0,0:0|0:0,0:0:0:0:
319,96,75987,6,0,B|329:147|394:173|394:173|441:156|463:67,1,216,2|0,0:0|0:0,0:0:0:0:
310,72,76332,2,0,L|224:77,1,72,8|0,0:0|0:0,0:0:0:0:
16,200,76505,6,0,B|14:258|56:295|126:307|162:254|171:210,1,216
160,138,76849,2,0,L|74:143,1,72,2|0,0:0|0:0,0:0:0:0:
13,111,77022,6,0,B|84:106|84:106|122:118|122:118|152:105|152:105|224:100,1,216,8|0,0:0|0:0,0:0:0:0:
307,205,77367,2,0,P|328:272|299:354,1,144,2|0,0:0|0:0,0:0:0:0:
189,336,77711,6,0,P|243:296|134:298,1,270
145,207,78401,6,2,P|222:203|258:321,1,202.500007724762,2|0,0:1|0:1,0:1:0:0:
292,246,78746,6,0,P|250:185|178:172,1,135.000005149842,6|0,0:0|0:0,0:0:0:0:
188,279,79091,1,8,0:0:0:0:
329,367,79263,2,0,B|374:395|436:387|466:348|466:348|434:364|388:350,1,202.500007724762
418,205,79608,2,0,P|429:237|428:271,1,67.5000025749208,2|0,0:0|0:0,0:0:0:0:
301,112,79780,2,0,P|298:78|308:46,1,67.5000025749208,8|0,0:0|0:0,0:0:0:0:
404,91,79953,1,0,0:0:0:0:
249,221,80125,6,0,P|179:215|99:208,1,135.000005149842,2|0,0:0|0:0,0:0:0:0:
258,353,80470,1,8,0:0:0:0:
406,215,80642,2,0,B|471:167|442:48|321:96|356:160,1,202.500007724762
417,242,80987,2,0,L|512:233,1,67.5000025749208,2|0,0:0|0:0,0:0:0:0:
393,363,81160,2,0,L|252:352,1,135.000005149842,8|0,0:0|0:0,0:0:0:0:
35,291,81505,6,0,B|41:213|137:182|191:227,1,202.500007724762,2|0,0:0|0:0,0:0:0:0:
295,262,81849,2,0,L|303:191,1,67.5000025749208,8|0,0:0|0:0,0:0:0:0:
379,120,82022,2,0,L|408:271,1,135.000005149842
490,32,82367,1,2,0:0:0:0:
253,110,82539,1,8,0:0:0:0:
504,237,82711,6,0,B|475:384|475:384|432:324,1,202.500007724762,6|0,0:0|0:0,0:0:0:0:
333,299,83056,2,0,L|230:311,1,67.5000025749208,2|0,0:0|0:0,0:0:0:0:
309,157,83229,2,0,L|370:240,1,67.5000025749208,8|0,0:0|0:0,0:0:0:0:
199,249,83401,2,0,L|240:153,1,67.5000025749208
271,60,83573,5,0,0:0:0:0:
333,299,83746,1,2,0:0:0:0:
142,109,83918,2,0,B|74:72|8:114|8:114|47:104|87:122,1,202.500007724762,8|0,0:0|0:0,0:0:0:0:
146,91,84263,6,0,P|71:74|-1:101,1,135.000005149842,2|0,0:0|0:0,0:0:0:0:
199,249,84608,1,8,0:0:0:0:
326,75,84780,2,0,B|391:33|477:77|477:77|437:99,1,202.500007724762
369,164,85125,2,0,L|381:257,1,67.5000025749208,2|0,0:0|0:0,0:0:0:0:
477,333,85298,2,0,L|485:266,1,67.5000025749208,8|0,0:0|0:0,0:0:0:0:
298,270,85470,6,0,P|265:321|360:305,1,202.500007724762,2|0,0:0|0:0,0:0:0:0:
377,231,85815,2,0,L|369:165,1,67.5000025749208
262,70,85987,2,0,L|253:136,1,67.5000025749208,8|0,0:0|0:0,0:0:0:0:
154,228,86160,6,0,B|115:270|29:259|2:221|18:170|71:166|89:202,1,202.500007724762
120,271,86505,2,0,P|79:273|45:261,1,67.5000025749208,2|0,0:0|0:0,0:0:0:0:
254,136,86677,2,0,B|300:130|300:130|334:146|334:146|402:140,1,135.000005149842,8|0,0:0|0:0,0:0:0:0:
221,112,87022,6,0,B|288:103|288:103|337:126|337:126|437:117,1,202.500007724762,2|0,0:0|0:0,0:0:0:0:
484,213,87367,2,0,P|489:247|476:290,1,67.5000025749208,8|0,0:0|0:0,0:0:0:0:
303,360,87539,6,0,B|269:361|240:341|240:341|209:355|150:343|150:343|174:339|193:319,1,202.500007724762
139,197,87884,2,0,P|128:229|134:262,1,67.5000025749208,2|0,0:0|0:0,0:0:0:0:
162,116,88056,2,0,P|140:90|108:79,1,67.5000025749208,8|0,0:0|0:0,0:0:0:0:
221,178,88229,2,0,P|253:171|279:150,1,67.5000025749208,2|0,0:0|0:0,0:0:0:0:
372,35,88401,5,8,0:0:0:0:
444,280,88573,1,0,0:0:0:0:
512,14,88746,5,8,0:0:0:0:
373,196,88918,1,0,0:0:0:0:
216,26,89091,5,8,0:0:0:0:
182,21,89177,1,2,0:0:0:0:
148,26,89263,1,2,0:0:0:0:
120,45,89349,1,2,0:0:0:0:
96,116,89436,5,2,0:0:0:0:
101,150,89522,1,2,0:0:0:0:
96,184,89608,1,2,0:0:0:0:
77,212,89694,1,2,0:0:0:0:
4,196,89780,6,0,P|69:162|181:225,1,202.500007724762,6|0,0:0|0:0,0:0:0:0:
272,280,90125,2,0,P|286:250|290:203,1,67.5000025749208,8|0,0:0|0:0,0:0:0:0:
193,87,90298,2,0,P|167:174|181:226,1,135.000005149842
300,73,90642,1,2,0:0:0:0:
72,36,90815,1,8,0:0:0:0:
176,215,90987,6,0,B|211:260|287:259|314:218|299:153|241:157,1,202.500007724762,2|0,0:0|0:0,0:0:0:0:
156,196,91332,2,0,L|148:287,1,67.5000025749208,2|0,0:0|0:0,0:0:0:0:
38,363,91505,2,0,B|13:325|13:325|22:235,1,135.000005149842,8|0,0:0|0:0,0:0:0:0:
148,95,91849,6,0,L|232:92,1,67.5000025749208
287,1,92022,2,0,L|219:-1,1,67.5000025749208,2|0,0:0|0:0,0:0:0:0:
59,49,92194,2,0,B|30:114|78:167|78:167|33:134|-12:158,1,202.500007724762,8|0,0:0|0:0,0:0:0:0:
23,235,92539,6,0,P|91:254|155:212,1,135.000005149842,2|0,0:0|0:0,0:0:0:0:
242,31,92884,2,0,P|191:80|195:156,1,135.000005149842,8|0,0:0|0:0,0:0:0:0:
306,323,93229,2,0,P|288:254|220:220,1,135.000005149842,0|2,0:0|0:0,0:0:0:0:
7,150,93573,1,8,0:0:0:0:
242,31,93746,6,0,B|312:0|383:42|383:42|346:41|309:56,1,202.500007724762,2|0,0:0|0:0,0:0:0:0:
306,127,94091,2,0,P|341:137|384:136,1,67.5000025749208,2|0,0:0|0:0,0:0:0:0:
449,52,94263,2,0,P|417:43|384:42,1,67.5000025749208,8|0,0:0|0:0,0:0:0:0:
209,109,94436,6,0,B|198:157|240:201|240:201|174:176|125:220,1,202.500007724762
165,349,94780,2,0,P|188:325|197:293,1,67.5000025749208,2|0,0:0|0:0,0:0:0:0:
96,135,94953,2,0,B|48:190|103:258|103:258|112:231|144:205,1,202.500007724762,8|0,0:0|0:0,0:0:0:0:
315,262,95298,6,0,P|249:253|197:293,1,135.000005149842,2|0,0:0|0:0,0:0:0:0:
412,323,95642,2,0,P|429:262|409:196,1,135.000005149842,8|0,0:0|0:0,0:0:0:0:
267,68,95987,1,0,0:0:0:0:
315,262,96160,1,2,0:0:0:0:
394,52,96332,1,8,0:0:0:0:
193,181,96505,6,0,B|156:220|73:212|60:164|74:107|133:114,1,202.500007724762,2|0,0:0|0:0,0:0:0:0:
216,168,96849,2,0,L|206:257,1,67.5000025749208,2|0,0:0|0:0,0:0:0:0:
29,229,97022,2,0,P|1:164|32:83,1,135.000005149842,8|0,0:0|0:0,0:0:0:0:
233,28,97367,6,0,L|312:35,1,67.5000025749208
387,127,97539,2,0,L|308:134,1,67.5000025749208,2|0,0:0|0:0,0:0:0:0:
209,235,97711,2,0,B|169:293|214:370|214:370|245:329|222:290,1,202.500007724762,8|0,0:0|0:0,0:0:0:0:
114,227,98056,6,0,P|99:305|114:366,1,135.000005149842,2|0,0:0|0:0,0:0:0:0:
351,260,98401,2,0,P|345:180|315:125,1,135.000005149842,8|0,0:0|0:0,0:0:0:0:
149,50,98746,1,0,0:0:0:0:
209,235,98918,1,2,0:0:0:0:
281,12,99091,1,8,0:0:0:0:
49,100,99263,6,0,B|0:136|11:229|79:252|132:217,1,202.500007724762,2|0,0:0|0:0,0:0:0:0:
157,117,99608,2,0,L|148:45,1,67.5000025749208,2|0,0:0|0:0,0:0:0:0:
320,132,99780,2,0,L|311:204,1,67.5000025749208,8|0,0:0|0:0,0:0:0:0:
278,335,99953,5,0,0:0:0:0:
275,348,100039,1,0,0:0:0:0:
273,361,100125,2,0,L|182:351,1,67.5000025749208,2|0,0:0|0:0,0:0:0:0:
113,226,100298,2,0,L|204:216,1,67.5000025749208,2|0,0:0|0:0,0:0:0:0:
311,198,100470,5,2,0:0:0:0:
336,219,100556,1,2,0:0:0:0:
420,196,100642,5,2,0:0:0:0:
445,217,100728,1,2,0:0:0:0:
501,285,100815,6,0,B|497:326|497:326|390:380|338:282,1,202.500007724762,6|0,0:0|0:0,0:0:0:0:
311,198,101160,2,0,B|244:165|172:174|150:243|196:261|276:229,1,202.500007724762,8|0,0:0|0:0,0:0:0:0:
337,193,101505,6,0,L|347:131,5,45.0000017166138,0|0|0|2|0|0,0:0|0:0|0:0|0:0|0:0|0:0,0:0:0:0:
426,114,101849,2,0,L|409:15,1,67.5000025749208,8|0,0:0|0:0,0:0:0:0:
279,28,102022,6,0,B|247:35|219:25|219:25|194:40|150:30|150:30|199:42|223:71,1,202.500007724762,2|0,0:0|0:0,0:0:0:0:
241,174,102367,2,0,L|226:271,1,67.5000025749208,2|0,0:0|0:0,0:0:0:0:
116,324,102539,2,0,B|88:294|88:294|78:244|78:244|90:197,1,135.000005149842,8|0,0:0|0:0,0:0:0:0:
364,230,102884,6,0,B|312:244|312:244|208:239,1,135.000005149842,0|2,0:0|0:0,0:0:0:0:
309,350,103142,1,0,0:0:0:0:
309,350,103229,2,0,P|380:364|456:330,1,135.000005149842,8|2,0:0|0:0,0:0:0:0:
491,225,103487,1,0,0:0:0:0:
480,216,103573,6,0,L|488:130,1,67.5000025749208,2|0,0:0|0:0,0:0:0:0:
362,51,103746,1,0,0:0:0:0:
350,57,103832,1,0,0:0:0:0:
338,63,103918,2,0,L|346:149,1,67.5000025749208,8|0,0:0|0:0,0:0:0:0:
232,240,104091,5,0,0:0:0:0:
222,249,104177,1,0,0:0:0:0:
212,258,104263,2,0,L|140:254,5,45.0000017166138,0|0|0|2|0|0,0:0|0:0|0:0|0:0|0:0|0:0,0:0:0:0:
112,194,104608,2,0,B|69:185|69:185|22:208|22:208|4:252,1,135.000005149842,8|2,0:0|0:0,0:0:0:0:
283,369,104953,6,0,P|297:327|295:295,1,67.5000025749208
239,160,105125,1,2,0:0:0:0:
228,152,105211,1,0,0:0:0:0:
217,143,105298,2,0,B|282:101|358:105|390:170|351:189|304:166,1,202.500007724762,8|0,0:0|0:0,0:0:0:0:
207,135,105642,6,0,L|210:64,1,67.5000025749208
69,180,105815,2,0,L|72:251,1,67.5000025749208,2|0,0:0|0:0,0:0:0:0:
211,332,105987,2,0,P|259:276|161:250,1,202.500007724762,8|0,0:0|0:0,0:0:0:0:
195,348,106332,6,0,B|254:353|254:353|296:339|296:339|336:359|336:359|425:363,1,202.500007724762,2|0,0:0|0:0,0:0:0:0:
482,317,106677,2,0,P|491:285|484:246,1,67.5000025749208,8|0,0:0|0:0,0:0:0:0:
409,140,106849,6,0,B|331:110|278:136|278:136|260:169|294:223,1,202.500007724762
336,48,107194,2,0,P|291:50|248:63,1,67.5000025749208,2|0,0:0|0:0,0:0:0:0:
138,153,107367,1,8,0:0:0:0:
129,163,107453,1,0,0:0:0:0:
122,174,107539,2,0,L|131:269,1,67.5000025749208,2|0,0:0|0:0,0:0:0:0:
265,341,107711,5,0,0:0:0:0:
274,331,107798,1,0,0:0:0:0:
281,320,107884,2,0,L|274:252,1,67.5000025749208,2|0,0:0|0:0,0:0:0:0:
404,184,108056,2,0,L|410:116,5,45.0000017166138,8|0|0|0|0|0,0:0|0:0|0:0|0:0|0:0|0:0,0:0:0:0:
478,96,108401,6,0,L|469:-6,1,67.5000025749208
351,19,108573,2,0,L|342:121,1,67.5000025749208,2|0,0:0|0:0,0:0:0:0:
219,180,108746,2,0,L|210:78,1,67.5000025749208,8|0,0:0|0:0,0:0:0:0:
96,46,108918,1,0,0:0:0:0:
82,42,109005,1,0,0:0:0:0:
69,37,109091,6,0,B|32:107|69:181|69:181|97:148|93:110,1,202.500007724762,2|0,0:0|0:0,0:0:0:0:
36,65,109436,2,0,P|30:113|45:156,1,67.5000025749208,8|0,0:0|0:0,0:0:0:0:
99,271,109608,6,0,B|160:308|242:264|242:264|211:274|162:252,1,202.500007724762
213,113,109953,2,0,L|218:180,1,67.5000025749208,2|0,0:0|0:0,0:0:0:0:
350,262,110125,2,0,L|355:194,1,67.5000025749208,8|0,0:0|0:0,0:0:0:0:
439,96,110298,1,0,0:0:0:0:
446,84,110384,1,0,0:0:0:0:
455,74,110470,6,0,L|460:141,1,67.5000025749208
319,77,110642,2,0,L|324:9,1,67.5000025749208,2|0,0:0|0:0,0:0:0:0:
356,195,110815,6,0,B|308:207|267:189|267:189|235:203|235:203|186:187|186:187|238:171,1,220.499993270874,8|0,0:0|0:0,0:0:0:0:
135,243,111505,6,0,P|109:196|165:116,1,153.000002918243,2|0,0:1|0:0,0:0:0:0:
356,195,111849,5,6,0:0:0:0:
305,297,112022,1,0,0:0:0:0:
305,297,112108,1,0,0:0:0:0:
305,297,112194,2,0,L|273:301,1,22.5
154,330,112367,5,0,0:0:0:0:
154,330,112453,1,0,0:0:0:0:
154,330,112539,1,0,0:0:0:0:
73,300,112711,1,0,0:0:0:0:
30,225,112884,1,0,0:0:0:0:
48,141,113056,1,0,0:0:0:0:
114,86,113229,6,0,L|169:80,1,45
174,73,113487,1,0,0:0:0:0:
190,64,113573,2,0,L|212:66,5,15
268,110,113918,5,0,0:0:0:0:
277,125,114005,1,0,0:0:0:0:
281,142,114091,1,0,0:0:0:0:
281,159,114177,1,0,0:0:0:0:
279,176,114263,2,0,L|289:240,1,45
367,258,114608,6,0,L|357:322,1,45
279,343,114953,1,0,0:0:0:0:
224,286,115125,1,0,0:0:0:0:
224,286,115211,1,0,0:0:0:0:
224,286,115298,1,0,0:0:0:0:
149,336,115470,1,0,0:0:0:0:
149,336,115556,1,0,0:0:0:0:
149,336,115642,2,0,L|86:331,1,45
66,248,115987,6,0,P|51:188|126:252,1,247.5
37,193,117022,6,0,P|79:145|160:189,1,161.999995056153,4|0,3:0|0:0,0:0:0:0:
231,241,117367,6,0,B|319:220|319:220|398:258|398:258|498:218|498:218|375:148,1,405.000015449525,6|0,0:0|0:0,0:0:0:0:
310,312,118056,2,0,L|318:389,1,67.5000025749208,8|0,0:0|0:0,0:0:0:0:
231,241,118229,2,0,L|223:164,1,67.5000025749208
141,312,118401,2,0,L|149:389,1,67.5000025749208
62,241,118574,2,0,L|54:164,1,67.5000025749208
211,43,118746,6,0,B|318:-12|467:21|452:105|435:177|293:177|293:55,1,405.000015449525,2|0,0:0|0:0,0:0:0:0:
97,19,119436,5,8,0:0:0:0:
64,30,119522,1,0,0:0:0:0:
64,64,119608,1,0,0:0:0:0:
97,74,119694,1,0,0:0:0:0:
116,47,119780,2,0,B|139:174|60:116|113:280,1,202.500007724762
156,314,120125,6,0,P|209:309|232:296,1,67.5000025749208,2|0,0:0|0:0,0:0:0:0:
234,279,120470,6,0,P|253:344|273:256,1,202.500007724762
274,199,120815,6,0,P|309:190|353:203,1,67.5000025749208,8|0,0:0|0:0,0:0:0:0:
445,299,120987,2,0,P|419:273|408:228,1,67.5000025749208
446,98,121160,2,0,P|436:132|403:164,1,67.5000025749208
310,273,121332,1,0,0:0:0:0:
300,282,121418,1,0,0:0:0:0:
290,291,121505,6,0,B|259:300|236:298|236:298|206:277|206:277|171:274|143:288|143:288|121:268|89:265,1,202.500007724762,2|0,0:0|0:0,0:0:0:0:
34,166,121849,6,2,L|38:129,22,33.7500012874604,2|2|2|2|2|2|2|2|2|2|2|2|2|2|2|2|2|2|2|2|2|2|2,0:1|0:1|0:1|0:1|0:1|0:1|0:1|0:1|0:1|0:1|0:1|0:1|0:1|0:1|0:1|0:1|0:1|0:1|0:1|0:1|0:1|0:1|0:1,0:1:0:0:
102,55,122884,6,0,B|151:13|235:20|284:75|233:117|164:84,1,216,6|0,0:0|0:0,0:0:0:0:
309,34,123229,2,0,P|316:78|306:116,1,72,8|0,0:0|0:0,0:0:0:0:
194,163,123401,2,0,P|187:119|197:81,1,72
366,191,123573,6,0,L|278:197,1,72
168,305,123746,2,0,L|256:311,1,72,2|0,0:0|0:0,0:0:0:0:
82,351,123918,2,0,B|56:291|93:243|93:243|73:198|73:198|90:126,1,216,8|0,0:0|0:0,0:0:0:0:
163,25,124263,6,0,B|215:16|215:16|263:36|263:36|334:27|334:27|294:61,1,216,2|0,0:0|0:0,0:0:0:0:
234,146,124608,2,0,L|241:228,1,72,8|0,0:0|0:0,0:0:0:0:
401,160,124780,2,0,L|408:78,1,72
445,247,124953,6,2,B|378:276|327:223|327:223|379:277|356:347,1,256.499993150711,0|0,0:1|0:1,0:1:0:0:
502,186,125298,2,0,B|512:83|512:83|478:122,1,144,8|0,0:0|0:0,0:0:0:0:
255,306,125642,6,0,B|187:352|63:314|96:244|157:234|198:275,1,216,2|0,0:0|0:0,0:0:0:0:
277,310,125987,2,0,L|284:399,1,72,8|0,0:0|0:0,0:0:0:0:
366,212,126160,6,0,B|411:196|413:125|413:125|331:96|294:185,1,216
354,231,126505,2,0,L|441:234,1,72,2|0,0:0|0:0,0:0:0:0:
209,167,126677,6,0,B|139:139|108:193|33:168|33:168|71:142,1,216,8|0,0:0|0:0,0:0:0:0:
166,258,127022,2,0,L|157:359,1,72
343,245,127194,2,0,L|334:144,1,72,2|0,0:0|0:0,0:0:0:0:
247,29,127367,2,0,B|192:2|138:32|138:32|187:60,1,144,8|0,0:0|0:0,0:0:0:0:
416,104,127711,6,0,L|502:96,1,72
307,177,127884,2,0,L|221:169,1,72,2|0,0:0|0:0,0:0:0:0:
47,211,128056,2,0,B|5:245|2:331|21:363|81:364|96:323|68:300,1,216,8|0,0:0|0:0,0:0:0:0:
27,120,128401,6,0,B|99:112|130:170|130:170|130:110|187:78,1,216,6|0,0:0|0:0,0:0:0:0:
307,177,128746,2,0,L|221:169,1,72,8|0,0:0|0:0,0:0:0:0:
302,289,128918,2,0,L|388:281,1,72
504,178,129091,6,0,P|509:143|498:98,1,72
304,106,129263,2,0,P|299:141|310:186,1,72,2|0,0:0|0:0,0:0:0:0:
448,311,129436,2,0,B|377:318|377:318|346:331|346:331|315:324|315:324|213:335,1,216,8|0,0:0|0:0,0:0:0:0:
105,272,129780,6,0,B|50:210|93:88|192:130|183:188,1,216,2|0,0:0|0:0,0:0:0:0:
65,253,130125,2,0,P|59:214|69:170,1,72,8|0,0:0|0:0,0:0:0:0:
227,302,130298,2,0,P|233:341|223:385,1,72
178,161,130470,6,2,B|236:133|307:172|307:172|282:112|314:46,1,256.499993150711,0|0,0:1|0:1,0:1:0:0:
444,32,130815,2,0,P|391:81|389:152,1,144,8|0,0:0|0:0,0:0:0:0:
500,346,131160,6,0,B|468:375|396:375|353:345|353:345|384:347|422:329,1,216,6|0,0:0|0:0,0:0:0:0:
491,192,131505,2,0,L|479:120,1,72,8|0,0:0|0:0,0:0:0:0:
236,41,131677,6,0,B|196:9|146:2|102:10|76:55|116:98|150:102,1,216
310,157,132022,2,0,L|217:165,1,72,2|0,0:0|0:0,0:0:0:0:
148,282,132194,6,0,B|191:323|191:323|237:285|243:219|203:164,1,216,8|0,0:0|0:0,0:0:0:0:
69,234,132539,2,0,P|57:270|69:332,1,72
234,316,132711,2,0,P|248:282|248:226,1,72,2|0,0:0|0:0,0:0:0:0:
155,78,132884,6,0,B|117:52|117:52|161:19|241:14|296:57,1,216,12|0,0:0|0:0,0:0:0:0:
391,110,133229,2,0,L|489:96,1,72,6|0,0:0|0:0,0:0:0:0:
322,257,133401,2,0,L|224:243,1,72,2|0,0:0|0:0,0:0:0:0:
69,234,133573,2,0,B|30:279|49:350|49:350|100:370|140:328,1,216,12|0,0:0|0:0,0:0:0:0:
163,194,133918,6,0,B|177:146|177:146|158:97|158:97|184:33|184:33|209:84,1,216,6|0,0:0|0:0,0:0:0:0:
82,153,134263,2,0,L|2:147,1,72,8|0,0:0|0:0,0:0:0:0:
166,225,134436,2,0,L|246:219,1,72
389,145,134608,6,0,P|393:114|383:64,1,72
250,254,134780,2,0,P|246:285|256:335,1,72,2|0,0:0|0:0,0:0:0:0:
465,290,134953,2,0,B|427:242|354:233|288:264|336:355|392:305,1,216,8|0,0:0|0:0,0:0:0:0:
460,259,135298,6,0,B|391:219|333:256|333:256|331:209|296:185,1,216,2|0,0:0|0:0,0:0:0:0:
178,259,135642,2,0,L|269:253,1,72,8|0,0:0|0:0,0:0:0:0:
116,166,135815,2,0,L|25:160,1,72
168,63,135987,6,2,B|197:46|232:54|232:54|280:69|344:50|344:50|320:25|267:20,1,256.499993150711,0|0,0:1|0:1,0:1:0:0:
212,136,136332,2,0,B|201:181|212:237|212:237|263:260,1,144,8|0,0:0|0:0,0:0:0:0:
478,163,136677,6,0,B|421:108|294:137|317:209|409:182,1,216,2|0,0:0|0:0,0:0:0:0:
494,78,137022,2,0,P|456:62|403:62,1,72,8|0,0:0|0:0,0:0:0:0:
212,136,137194,6,0,B|172:156|134:139|134:139|91:116|48:140|48:140|76:139|106:151,1,216
168,63,137539,2,0,P|137:50|83:48,1,72,2|0,0:0|0:0,0:0:0:0:
240,216,137711,6,0,B|290:199|298:134|298:134|290:199|358:242,1,216,8|0,0:0|0:0,0:0:0:0:
437,277,138056,2,0,L|430:356,1,72
228,303,138229,2,0,L|221:224,1,72,2|0,0:0|0:0,0:0:0:0:
99,46,138401,2,0,B|43:22|0:46|0:46|20:41|49:52,1,144,8|0,0:0|0:0,0:0:0:0:
298,134,138746,6,0,L|394:124,1,72
204,241,138918,2,0,L|132:233,1,72,2|0,0:0|0:0,0:0:0:0:
0,35,139091,2,0,B|40:15|83:30|83:30|99:46|99:46|115:32|115:32|151:12|212:37,1,216,8|0,0:0|0:0,0:0:0:0:
298,134,139436,6,0,P|292:241|193:230,1,216,6|0,0:0|0:0,0:0:0:0:
109,189,139780,2,0,L|96:274,1,72,8|0,0:0|0:0,0:0:0:0:
11,107,139953,2,0,L|-2:22,1,72
172,103,140125,6,0,P|137:108|85:98,1,72
280,52,140298,2,0,P|315:47|367:57,1,72,2|0,0:0|0:0,0:0:0:0:
420,188,140470,2,0,B|364:222|234:201|275:114|341:140,1,216,8|0,0:0|0:0,0:0:0:0:
442,180,140815,6,0,L|455:265,1,72,2|0,0:0|0:0,0:0:0:0:
344,366,140987,2,0,L|331:281,1,72
470,171,141160,2,0,L|483:256,1,72,8|0,0:0|0:0,0:0:0:0:
314,371,141332,2,0,L|301:286,1,72
192,137,141505,6,2,B|124:79|-37:122|77:223|129:187,1,256.499993150711,0|0,0:1|0:1,0:1:0:0:
221,52,141849,2,0,P|155:27|72:31,1,144,8|0,0:0|0:0,0:0:0:0:
37,263,142194,6,0,B|101:299|174:262|174:262|127:286|125:329,1,216,2|0,0:0|0:0,0:0:0:0:
281,334,142539,2,0,P|246:340|211:336,1,72,8|0,0:0|0:0,0:0:0:0:
126,188,142711,6,0,B|68:125|130:30|130:30|170:73,1,216
277,172,143056,2,0,L|288:73,1,72,2|0,0:0|0:0,0:0:0:0:
455,21,143229,6,0,B|501:66|503:150|457:185|391:150|400:104|438:84,1,216,8|0,0:0|0:0,0:0:0:0:
512,203,143573,2,0,P|445:229|368:190,1,144,2|0,0:0|0:0,0:0:0:0:
207,140,143918,6,0,P|129:125|214:190,1,270
115,243,144608,6,0,P|85:196|168:87,1,202.500007724762,2|0,0:1|0:0,0:0:0:0:
274,190,144953,5,4,3:0:0:0:
151,247,149091,6,0,L|269:258,1,90
316,224,149350,1,0,0:0:0:0:
326,204,149436,2,0,L|444:193,1,90
316,324,149781,1,0,0:0:0:0:
228,157,149954,1,0,0:0:0:0:
216,139,150040,1,0,0:0:0:0:
203,123,150126,2,0,P|151:107|90:134,1,108
86,140,150470,6,0,L|71:33,1,90,2|0,0:0|0:0,0:0:0:0:
98,236,150729,1,0,0:0:0:0:
80,249,150815,2,0,L|65:142,1,90,2|0,0:0|0:0,0:0:0:0:
75,358,151160,2,0,L|60:251,1,90,2|0,0:0|0:0,0:0:0:0:
158,291,151418,1,0,0:0:0:0:
179,299,151505,2,0,L|171:245,1,45,2|0,0:0|0:0,0:0:0:0:
263,312,151677,2,0,L|256:356,1,45
273,378,151849,6,0,L|285:285,1,90,2|0,0:0|0:0,0:0:0:0:
303,154,152194,2,0,L|292:112,5,30,2|0|0|0|0|0,0:0|0:0|0:0|0:0|0:0|0:0,0:0:0:0:
287,95,152539,2,0,P|332:100|377:81,1,90,2|0,0:0|0:0,0:0:0:0:
184,22,152884,2,0,P|139:17|94:36,1,90,2|0,0:0|0:0,0:0:0:0:
15,252,153229,5,2,0:0:0:0:
248,238,153401,1,2,0:0:0:0:
29,113,153573,5,2,0:0:0:0:
153,333,153746,1,2,0:0:0:0:
287,95,153918,5,2,0:0:0:0:
89,280,154091,1,2,0:0:0:0:
184,22,154263,5,2,0:0:0:0:
367,233,154436,1,2,0:0:0:0:
92,187,154608,5,2,0:0:0:0:
92,187,154953,6,0,B|130:171|130:171|171:183|171:183|207:170|207:170|267:188,1,161.999995056153
389,285,155298,2,0,B|351:301|351:301|310:289|310:289|274:302|274:302|214:284,1,161.999995056153
445,205,155642,6,0,P|474:236|485:287,1,80.9999975280763
484,272,155987,6,0,L|491:128,1,135.000005149842,6|0,0:0|0:0,0:0:0:0:
324,20,156332,1,8,0:0:0:0:
207,186,156505,2,0,B|164:225|28:207|74:115|149:155,1,202.500007724762
231,176,156849,2,0,L|238:257,1,67.5000025749208,2|0,0:0|0:0,0:0:0:0:
376,158,157022,2,0,L|383:77,1,67.5000025749208,8|0,0:0|0:0,0:0:0:0:
449,252,157194,6,0,B|392:292|331:268|331:268|380:295|380:355,1,202.500007724762,2|0,0:0|0:0,0:0:0:0:
227,355,157539,2,0,L|294:347,1,67.5000025749208,2|0,0:0|0:0,0:0:0:0:
237,243,157711,2,0,L|170:234,1,67.5000025749208,8|0,0:0|0:0,0:0:0:0:
39,136,157884,6,0,P|87:27|182:36,1,202.500007724762
231,73,158229,2,0,L|218:152,1,67.5000025749208,2|0,0:0|0:0,0:0:0:0:
187,339,158401,2,0,B|120:357|120:357|48:323,1,135.000005149842,8|0,0:0|0:0,0:0:0:0:
43,306,158746,6,0,B|101:320|136:265|136:265|159:326|240:318,1,202.500007724762,2|0,0:0|0:0,0:0:0:0:
207,169,159091,2,0,L|211:237,1,67.5000025749208,8|0,0:0|0:0,0:0:0:0:
379,328,159263,2,0,B|398:322|418:307|418:307|396:257|330:245|280:279,1,202.500007724762
205,318,159608,1,2,0:0:0:0:
309,139,159780,1,8,0:0:0:0:
449,203,159953,6,0,B|467:181|476:154|476:154|451:131|441:70|441:70|425:99|396:112,1,202.500007724762,2|0,0:0|0:0,0:0:0:0:
309,139,160298,2,0,P|268:136|225:115,1,67.5000025749208,2|0,0:0|0:0,0:0:0:0:
152,9,160470,2,0,P|169:46|173:93,1,67.5000025749208,8|0,0:0|0:0,0:0:0:0:
117,208,160642,2,0,P|140:173|179:147,1,67.5000025749208
244,281,160815,5,0,0:0:0:0:
16,250,160987,1,2,0:0:0:0:
244,127,161160,2,0,B|287:119|287:119|363:193|443:154,1,202.500007724762,8|0,0:0|0:0,0:0:0:0:
414,44,161505,5,2,0:0:0:0:
398,75,161591,5,0,0:0:0:0:
364,70,161677,5,0,0:0:0:0:
360,35,161763,5,0,0:0:0:0:
389,21,161849,6,0,L|276:25,1,67.5000025749208,12|0,0:0|0:0,0:0:0:0:
218,44,162022,6,0,B|157:95|183:207|283:189|235:107,1,202.500007724762
165,86,162367,2,0,P|159:124|175:171,1,67.5000025749208,2|0,0:0|0:0,0:0:0:0:
320,180,162539,2,0,P|326:142|310:95,1,67.5000025749208,8|0,0:0|0:0,0:0:0:0:
251,259,162711,6,0,B|284:288|337:296|376:268|376:268|336:296|342:361,1,202.500007724762,2|0,0:0|0:0,0:0:0:0:
424,334,163056,1,2,0:0:0:0:
319,114,163229,1,8,0:0:0:0:
161,240,163401,6,0,B|125:270|119:325|140:368|140:368|105:336|59:331,1,202.500007724762
9,308,163746,2,0,P|5:260|9:236,1,67.5000025749208,2|0,0:0|0:0,0:0:0:0:
82,60,163918,2,0,B|127:53|127:53|167:71|167:71|224:64,1,135.000005149842,8|0,0:0|0:0,0:0:0:0:
428,70,164263,5,2,0:0:0:0:
474,85,164349,5,2,0:0:0:0:
474,132,164436,5,2,0:0:0:0:
428,146,164522,5,2,0:0:0:0:
401,109,164608,6,0,L|393:209,1,67.5000025749208,8|0,0:0|0:0,0:0:0:0:
285,303,164780,1,2,0:0:0:0:
277,314,164867,1,2,0:0:0:0:
270,326,164953,6,0,L|262:226,1,67.5000025749208,8|0,0:0|0:0,0:0:0:0:
103,251,165125,2,0,L|193:294,1,67.5000025749208,2|0,0:0|0:0,0:0:0:0:
253,143,165298,2,0,L|170:199,1,67.5000025749208,8|0,0:0|0:0,0:0:0:0:
18,302,165470,6,0,L|24:346,13,45,2|0|0|0|0|0|0|0|0|0|0|0|0|0,0:0|0:0|0:0|0:0|0:0|0:0|0:0|0:0|0:0|0:0|0:0|0:0|0:0|0:0,0:0:0:0:
52,367,166677,6,0,B|44:283|44:283|76:314|118:314,1,153.000002918243,2|0,0:1|0:0,0:0:0:0:
169,207,167022,6,0,L|116:212,1,53.9999983520508,2|0,0:0|0:0,0:0:0:0:
39,173,167367,1,0,0:0:0:0:
35,86,167539,1,0,0:0:0:0:
35,86,167625,1,0,0:0:0:0:
35,86,167711,5,0,0:0:0:0:
106,41,167884,1,0,0:0:0:0:
183,79,168057,1,0,0:0:0:0:
188,165,168229,1,0,0:0:0:0:
116,212,168402,1,0,0:0:0:0:
190,253,168573,1,0,0:0:0:0:
190,253,168660,1,0,0:0:0:0:
190,253,168746,6,0,L|213:252,6,13.4999995880127
252,320,169091,1,0,0:0:0:0:
270,331,169177,1,0,0:0:0:0:
290,338,169263,1,0,0:0:0:0:
311,338,169349,1,0,0:0:0:0:
331,332,169436,2,0,L|396:334,1,53.9999983520508
460,257,169780,6,0,P|467:229|464:199,1,53.9999983520508
399,117,170125,1,0,0:0:0:0:
321,166,170298,1,0,0:0:0:0:
321,166,170384,1,0,0:0:0:0:
321,166,170470,1,0,0:0:0:0:
251,119,170642,1,0,0:0:0:0:
251,119,170729,1,0,0:0:0:0:
251,119,170815,2,0,L|184:124,1,53.9999983520508
111,88,171160,6,0,B|0:232|201:232|83:379,1,296.99999093628
113,216,172194,6,0,P|141:301|101:387,1,161.999995056153,4|0,3:0|0:0,0:0:0:0:
27,295,172539,6,0,B|82:263|161:274|161:274|224:336|334:305|334:305|313:271|238:244,1,405.000015449525,6|0,0:0|0:0,0:0:0:0:
59,164,173229,6,0,L|54:88,1,67.5000025749208,8|0,0:0|0:0,0:0:0:0:
205,130,173401,2,0,L|210:206,1,67.5000025749208
109,315,173573,2,0,L|104:239,1,67.5000025749208
244,314,173745,2,0,L|249:390,1,67.5000025749208
429,348,173918,6,0,B|461:326|476:287|476:287|434:234|464:133|464:133|436:210|365:219|311:184,1,405.000015449525,2|0,0:0|0:0,0:0:0:0:
161,83,174608,5,8,0:0:0:0:
129,73,174694,1,0,0:0:0:0:
129,39,174780,1,0,0:0:0:0:
161,29,174867,1,0,0:0:0:0:
181,56,174953,2,0,B|213:171|131:122|176:260,1,202.500007724762
212,326,175298,6,0,P|247:319|300:341,1,67.5000025749208,2|0,0:0|0:0,0:0:0:0:
316,331,175642,6,0,B|332:273|303:234|303:234|293:171|339:136,1,202.500007724762
458,186,175987,6,0,P|430:204|398:212,1,67.5000025749208,8|0,0:0|0:0,0:0:0:0:
280,102,176160,2,0,P|309:117|332:142,1,67.5000025749208
172,120,176332,2,0,P|170:86|180:54,1,67.5000025749208
339,15,176505,1,0,0:0:0:0:
358,9,176591,1,0,0:0:0:0:
377,3,176677,6,0,B|428:36|439:68|439:68|419:117|444:154|444:154|424:184|439:239|439:239|429:265|413:285,1,315,2|0,0:0|0:0,0:0:0:0:
324,208,178056,5,6,0:0:0:0:
245,187,178229,1,0,0:0:0:0:
226,265,178401,1,2,0:0:0:0:
303,287,178573,1,0,0:0:0:0:
266,108,178746,5,2,0:0:0:0:
245,187,178919,1,0,0:0:0:0:
168,165,179091,1,2,0:0:0:0:
187,87,179263,1,0,0:0:0:0:
226,265,179435,5,2,0:0:0:0:
147,244,179608,1,0,0:0:0:0:
128,322,179780,1,2,0:0:0:0:
205,344,179952,1,0,0:0:0:0:
168,165,180125,6,0,L|107:156,1,53.9999983520508,2|0,0:0|0:0,0:0:0:0:
245,187,180470,2,0,L|306:178,1,53.9999983520508,2|0,0:0|0:0,0:0:0:0:
378,164,180815,5,2,0:0:0:0:
407,88,180987,1,0,0:0:0:0:
368,16,181160,1,2,0:0:0:0:
291,42,181332,2,0,L|302:100,2,53.9999983520508,0|2|0,0:0|0:0|0:0,0:0:0:0:
211,22,181849,5,2,0:0:0:0:
182,98,182021,1,0,0:0:0:0:
221,170,182194,1,2,0:0:0:0:
291,211,182367,2,0,L|280:269,2,53.9999983520508,0|2|0,0:0|0:0|0:0,0:0:0:0:
371,195,182884,2,0,P|388:252|372:314,1,107.999996704102,2|2,0:0|0:0,0:0:0:0:
380,299,183573,6,0,L|423:303,1,36,2|0,0:0|0:0,0:0:0:0:
414,200,183746,2,0,L|447:172,1,36,2|0,0:0|0:0,0:0:0:0:
357,122,183918,2,0,L|361:79,1,36,2|0,0:0|0:0,0:0:0:0:
259,96,184091,2,0,L|231:62,1,36,2|0,0:0|0:0,0:0:0:0:
170,144,184263,2,0,L|127:140,1,36,2|0,0:0|0:0,0:0:0:0:
155,240,184436,2,0,L|121:267,1,36,2|0,0:0|0:0,0:0:0:0:
202,329,184608,2,0,L|197:371,1,36,2|0,0:0|0:0,0:0:0:0:
298,352,184780,2,0,L|325:385,1,36,2|0,0:0|0:0,0:0:0:0:
353,247,184953,6,0,P|331:243|293:249,1,40.4999987640381,2|0,0:0|0:0,0:0:0:0:
332,132,185125,2,0,P|313:144|290:175,1,40.4999987640381,2|0,0:0|0:0,0:0:0:0:
242,60,185298,2,0,P|238:82|243:120,1,40.4999987640381,2|0,0:0|0:0,0:0:0:0:
127,77,185470,2,0,P|139:95|170:118,1,40.4999987640381,2|0,0:0|0:0,0:0:0:0:
67,181,185642,2,0,P|89:185|127:179,1,40.4999987640381,2|0,0:0|0:0,0:0:0:0:
92,297,185815,2,0,P|110:284|133:253,1,40.4999987640381,2|0,0:0|0:0,0:0:0:0:
185,364,185987,2,0,P|189:342|183:304,1,40.4999987640381,2|0,0:0|0:0,0:0:0:0:
298,352,186160,2,0,P|285:333|254:310,1,40.4999987640381,2|0,0:0|0:0,0:0:0:0:
123,271,186332,5,2,0:0:0:0:
82,272,186418,1,2,0:0:0:0:
45,256,186504,1,2,0:0:0:0:
18,227,186590,1,2,0:0:0:0:
6,188,186676,1,2,0:0:0:0:
11,149,186763,1,2,0:0:0:0:
76,79,186850,5,2,0:0:0:0:
104,109,186936,1,2,0:0:0:0:
141,124,187022,1,2,0:0:0:0:
181,122,187108,1,2,0:0:0:0:
217,104,187194,1,2,0:0:0:0:
242,72,187281,1,2,0:0:0:0:
325,29,187367,6,0,L|333:90,1,45,2|2,0:0|0:0,0:0:0:0:
412,157,187539,2,0,L|404:218,1,45,2|2,0:0|0:0,0:0:0:0:
294,298,187711,5,8,3:0:0:0:
240,320,187798,5,8,3:0:0:0:
201,274,187884,5,8,3:0:0:0:
233,225,187970,5,8,3:0:0:0:
291,238,188056,6,0,L|340:234,1,49.5000015106202,8|0,3:0|0:0,0:0:0:0:
441,71,188228,5,8,3:0:0:0:
387,49,188315,5,8,3:0:0:0:
348,95,188401,5,8,3:0:0:0:
380,144,188487,5,8,3:0:0:0:
438,131,188573,6,0,L|487:135,1,49.5000015106202,8|0,3:0|0:0,0:0:0:0:
366,248,188746,6,0,B|262:257|262:257|306:282,1,135,4|0,1:0|0:0,0:0:0:0:
425,228,189091,6,0,B|358:235|358:235|315:221|315:221|276:239|276:239|201:245,1,229.500004377365,6|0,0:0|0:0,0:0:0:0:
92,143,189436,2,0,P|83:102|89:63,1,76.5000014591217,8|0,0:0|0:0,0:0:0:0:
231,56,189608,2,0,P|240:97|234:136,1,76.5000014591217
94,247,189780,6,0,L|17:253,1,76.5000014591217
165,337,189953,2,0,L|241:343,1,76.5000014591217,2|0,0:0|0:0,0:0:0:0:
400,328,190125,2,0,B|419:289|419:289|400:253|409:180|409:180|388:218|346:232,1,229.500004377365,8|0,0:0|0:0,0:0:0:0:
236,131,190470,6,0,P|335:126|255:63,1,229.500004377365,2|0,0:0|0:0,0:0:0:0:
131,110,190815,2,0,L|141:219,1,76.5000014591217,8|0,0:0|0:0,0:0:0:0:
241,343,190987,2,0,L|251:234,1,76.5000014591217
284,54,191160,6,2,B|354:-1|451:39|451:39|463:95|425:133,1,270,0|0,0:1|0:1,0:1:0:0:
325,215,191505,2,0,B|345:207|357:197|357:197|402:243|473:222,1,153.000002918243,8|0,0:0|0:0,0:0:0:0:
84,36,191849,6,0,B|52:81|93:132|93:132|67:193|67:193|91:250,1,229.500004377365,2|0,0:0|0:0,0:0:0:0:
142,373,192194,2,0,L|48:384,1,76.5000014591217,8|0,0:0|0:0,0:0:0:0:
187,213,192367,6,0,B|251:188|325:215|325:215|274:194|260:138,1,229.500004377365
436,110,192711,2,0,P|398:121|341:119,1,76.5000014591217,2|0,0:0|0:0,0:0:0:0:
170,52,192884,6,0,B|105:-17|-20:37|40:118|85:109,1,229.500004377365,8|0,0:0|0:0,0:0:0:0:
292,76,193229,2,0,L|286:0,1,76.5000014591217
189,172,193401,2,0,L|183:248,1,76.5000014591217,2|0,0:0|0:0,0:0:0:0:
417,254,193573,2,0,B|440:231|440:231|383:193|325:214,1,153.000002918243,8|0,0:0|0:0,0:0:0:0:
49,285,193918,6,0,L|55:361,1,76.5000014591217
183,248,194091,2,0,L|189:172,1,76.5000014591217,2|0,0:0|0:0,0:0:0:0:
322,41,194263,2,0,B|403:49|452:10|452:10|403:50|406:105,1,229.500004377365,8|0,0:0|0:0,0:0:0:0:
483,230,194608,6,0,B|512:269|506:332|473:365|473:365|457:298|391:288,1,229.500004377365,6|0,0:0|0:0,0:0:0:0:
306,370,194953,2,0,L|383:378,1,76.5000014591217,8|0,0:0|0:0,0:0:0:0:
255,268,195125,2,0,L|178:275,1,76.5000014591217
35,183,195298,6,0,P|25:145|35:104,1,76.5000014591217
252,194,195470,2,0,P|262:232|252:273,1,76.5000014591217,2|0,0:0|0:0,0:0:0:0:
184,73,195642,2,0,B|260:34|329:80|329:80|376:65|338:5,1,229.500004377365,8|0,0:0|0:0,0:0:0:0:
157,86,195987,6,0,B|128:141|144:215|234:238|284:163,1,229.500004377365,2|0,0:0|0:0,0:0:0:0:
424,122,196332,2,0,L|523:138,1,76.5000014591217,8|0,0:0|0:0,0:0:0:0:
512,273,196505,2,0,L|413:289,1,76.5000014591217
228,359,196677,6,2,B|173:326|135:367|135:367|87:374|63:306|94:265|145:259,1,270,0|0,0:1|0:1,0:1:0:0:
16,382,197022,2,0,P|0:306|33:234,1,153.000002918243,8|0,0:0|0:0,0:0:0:0:
311,84,197367,6,0,B|357:131|436:128|461:74|461:74|441:41|387:34,1,229.500004377365,6|0,0:0|0:0,0:0:0:0:
176,21,197711,2,0,L|184:114,1,76.5000014591217,8|0,0:0|0:0,0:0:0:0:
193,324,197884,6,0,B|123:366|37:311|37:311|69:330|122:307,1,229.500004377365
87,147,198229,2,0,P|71:181|76:219,1,76.5000014591217,2|0,0:0|0:0,0:0:0:0:
314,203,198401,6,0,B|287:181|249:177|249:177|209:193|152:194|152:194|189:209|231:207,1,229.500004377365,8|0,0:0|0:0,0:0:0:0:
384,256,198746,2,0,P|399:225|391:167,1,76.5000014591217
244,292,198918,2,0,P|251:336|284:378,1,76.5000014591217,2|0,0:0|0:0,0:0:0:0:
391,73,199091,6,0,B|318:59|272:126|272:126|273:173|315:204,1,229.500004377365,12|0,0:0|0:0,0:0:0:0:
509,126,199436,2,0,L|501:25,1,76.5000014591217,6|0,0:0|0:0,0:0:0:0:
413,257,199608,2,0,L|405:358,1,76.5000014591217,2|0,0:0|0:0,0:0:0:0:
217,355,199780,2,0,B|162:362|162:362|111:346|111:346|40:356|40:356|87:304,1,229.500004377365,12|0,0:0|0:0,0:0:0:0:
195,171,200125,6,0,B|263:129|323:181|323:181|301:242|236:230,1,229.500004377365,6|0,0:0|0:0,0:0:0:0:
89,202,200470,2,0,L|95:94,1,76.5000014591217,8|0,0:0|0:0,0:0:0:0:
160,287,200642,2,0,L|166:395,1,76.5000014591217
341,376,200815,6,0,L|336:299,1,76.5000014591217
412,138,200987,2,0,L|407:214,1,76.5000014591217,2|0,0:0|0:0,0:0:0:0:
195,171,201160,2,0,B|152:154|130:133|130:133|204:75|286:131,1,229.500004377365,8|0,0:0|0:0,0:0:0:0:
135,95,201505,6,0,B|194:64|270:90|270:90|231:46|245:2,1,229.500004377365,2|0,0:0|0:0,0:0:0:0:
397,15,201849,2,0,L|322:24,1,76.5000014591217,8|0,0:0|0:0,0:0:0:0:
412,138,202022,2,0,L|487:146,1,76.5000014591217
315,328,202194,6,2,B|268:365|157:374|138:286|198:232|255:252,1,270,0|0,0:0|0:0,0:1:0:0:
91,367,202539,2,0,P|70:291|102:214,1,153.000002918243,8|0,0:0|0:0,0:0:0:0:
321,24,202884,6,0,B|376:15|376:15|422:44|493:22|493:22|444:81,1,229.500004377365,2|0,0:0|0:0,0:0:0:0:
345,179,203229,2,0,L|342:278,1,76.5000014591217,8|0,0:0|0:0,0:0:0:0:
94,223,203401,6,0,B|138:137|271:163|244:254|208:265|176:270,1,229.500004377365
46,123,203746,2,0,L|52:25,1,76.5000014591217,2|0,0:0|0:0,0:0:0:0:
305,43,203918,6,0,B|337:72|336:97|336:97|289:134|324:212|324:212|331:185|353:174,1,229.500004377365,8|0,0:0|0:0,0:0:0:0:
484,246,204263,2,0,L|407:237,1,76.5000014591217
240,345,204436,2,0,L|316:336,1,76.5000014591217,2|0,0:0|0:0,0:0:0:0:
492,121,204608,2,0,B|505:17|505:17|458:61,1,153.000002918243,8|0,0:0|0:0,0:0:0:0:
209,194,204953,6,0,L|120:187,1,76.5000014591217
51,47,205125,2,0,L|140:40,1,76.5000014591217,2|0,0:0|0:0,0:0:0:0:
294,136,205298,2,0,B|322:189|309:233|285:261|285:261|323:221|389:236,1,229.500004377365,8|0,0:0|0:0,0:0:0:0:
209,194,205642,6,0,P|186:278|291:363,1,229.500004377365,6|0,0:0|0:0,0:0:0:0:
436,345,205987,2,0,L|518:350,1,76.5000014591217,8|0,0:0|0:0,0:0:0:0:
449,228,206160,2,0,L|367:233,1,76.5000014591217
206,86,206332,6,0,P|201:47|206:9,1,76.5000014591217
373,157,206505,2,0,P|378:196|373:234,1,76.5000014591217,2|0,0:0|0:0,0:0:0:0:
117,192,206677,2,0,B|160:159|239:160|281:194|281:194|256:216|218:199,1,229.500004377365,8|0,0:0|0:0,0:0:0:0:
55,99,207022,6,0,L|61:15,1,76.5000014591217,2|0,0:0|0:0,0:0:0:0:
123,214,207194,2,0,L|129:298,1,76.5000014591217
30,97,207367,2,0,L|36:13,1,76.5000014591217,8|0,0:0|0:0,0:0:0:0:
145,211,207539,2,0,L|151:295,1,76.5000014591217
347,350,207711,6,2,B|389:385|482:387|511:310|478:268|478:268|426:292,1,270,0|0,0:1|0:1,0:1:0:0:
267,381,208056,2,0,B|253:332|282:295|282:295|261:263|268:203,1,153.000002918243,8|0,0:0|0:0,0:0:0:0:
115,44,208401,6,0,B|67:0|1:39|1:39|9:103|98:115,1,229.500004377365,2|0,0:0|0:0,0:0:0:0:
215,87,208746,2,0,L|207:-10,1,76.5000014591217,8|0,0:0|0:0,0:0:0:0:
26,242,208918,6,0,B|69:290|177:272|158:190|158:190|109:206,1,229.500004377365
74,343,209263,2,0,P|123:342|163:322,1,76.5000014591217,2|0,0:0|0:0,0:0:0:0:
312,131,209436,6,0,B|360:116|402:141|402:141|449:119|497:137|497:137|450:156,1,229.500004377365,8|0,0:0|0:0,0:0:0:0:
245,187,209780,2,0,P|227:112|277:50,1,153.000002918243,2|0,0:0|0:0,0:0:0:0:
461,151,210125,6,0,B|429:328|429:328|389:231,1,270
499,142,210815,6,2,L|462:342,1,202.500007724762,2|0,0:1|0:1,0:1:0:0:
319,343,211160,6,0,P|242:355|324:295,1,270,4|0,3:0|0:0,0:0:0:0:
135,344,211849,6,0,P|132:299|147:252,1,76.5000014591217,8|0,0:0|0:0,0:0:0:0:
304,212,212022,2,0,P|318:254|316:303,1,76.5000014591217
135,154,212194,1,0,0:0:0:0:
121,146,212280,1,0,0:0:0:0:
107,138,212367,2,0,L|25:147,1,76.5000014591217
220,33,212539,6,0,B|281:48|281:48|325:28|325:28|373:48|373:48|442:22,1,229.500004377365,2|0,0:0|0:0,0:0:0:0:
510,88,212884,2,0,L|505:125,6,38.2500007295609
415,190,213229,5,8,0:0:0:0:
381,208,213315,1,0,0:0:0:0:
342,208,213401,1,0,0:0:0:0:
304,200,213487,1,0,0:0:0:0:
272,178,213573,2,0,B|193:119|129:138|65:174|122:252|169:243,1,229.500004377365
199,330,213918,6,0,B|120:374|47:318|47:318|101:372,1,229.500004377365,4|0,3:0|0:0,0:0:0:0:
302,361,214263,2,0,L|298:266,1,76.5000014591217
415,190,214436,2,0,L|411:285,1,76.5000014591217
199,146,214608,6,0,L|195:51,1,76.5000014591217,8|0,0:0|0:0,0:0:0:0:
69,218,214780,1,0,0:0:0:0:
60,230,214867,1,0,0:0:0:0:
51,242,214953,2,0,L|47:337,1,76.5000014591217
199,330,215125,2,0,L|195:235,1,76.5000014591217
330,110,215298,6,0,P|392:198|302:193,1,229.500004377365,4|0,3:0|0:0,0:0:0:0:
399,100,215987,6,0,P|423:195|371:250,1,153.000002918243,8|0,0:0|0:0,0:0:0:0:
51,242,216332,2,0,B|4:194|-1:125|48:57|48:57|23:101|49:147,1,270
175,181,216677,6,0,B|238:186|276:131|276:131|204:70|136:102,1,270,6|0,0:0|0:0,0:0:0:0:
51,242,217367,6,0,P|46:288|66:330,1,90,8|0,0:0|0:0,0:0:0:0:
154,198,217539,2,0,P|110:193|70:211,1,90
199,300,217711,2,0,P|204:254|184:212,1,90
86,338,217884,2,0,P|132:343|174:323,1,90
356,123,218056,6,0,B|394:104|394:104|368:243,1,153.000002918243,2|0,0:0|0:0,0:0:0:0:
307,383,218315,1,0,0:0:0:0:
307,383,218401,2,0,B|266:344|277:285|277:285|217:356|152:316,1,229.500004377365
38,283,218746,5,8,0:0:0:0:
16,252,218832,1,0,0:0:0:0:
3,216,218918,1,0,0:0:0:0:
4,178,219005,1,0,0:0:0:0:
18,143,219091,2,0,B|91:112|159:156|159:156|137:107|167:61,1,229.500004377365
247,118,219436,6,0,L|296:125,5,30,4|0|0|0|0|0,3:0|0:0|0:0|0:0|0:0|0:0,0:0:0:0:
297,139,219780,2,0,B|333:102|403:121|403:121|405:191|330:203,1,229.500004377365,2|0,3:0|0:0,0:0:0:0:
170,214,220125,6,0,L|177:301,1,76.5000014591217,8|0,0:0|0:0,0:0:0:0:
71,127,220298,2,0,L|-8:89,1,76.5000014591217
192,86,220470,2,0,L|263:36,1,76.5000014591217
369,2,220642,1,0,0:0:0:0:
389,25,220729,1,0,0:0:0:0:
409,47,220815,6,0,B|425:92|397:134|397:134|443:103|443:103|481:151|481:151|466:94|501:43,1,306.000005836487,2|0,0:0|0:0,0:0:0:0:
