osu file format v14

[General]
AudioFilename: audio.mp3
AudioLeadIn: 0
PreviewTime: 176849
Countdown: 0
SampleSet: Soft
StackLeniency: 0.4
Mode: 0
LetterboxInBreaks: 0
WidescreenStoryboard: 0

[Editor]
DistanceSpacing: 1.9
BeatDivisor: 4
GridSize: 32
TimelineZoom: 1.3

[Metadata]
Title:Genesis
TitleUnicode:Genesis
Artist:STEREO DIVE FOUNDATION
ArtistUnicode:STEREO DIVE FOUNDATION
Creator:Akitoshi
Version:Insane
Source:Dimension W
Tags:opening electronic Corinn
BeatmapID:1389962
BeatmapSetID:655970

[Difficulty]
HPDrainRate:6
CircleSize:4
OverallDifficulty:7.7
ApproachRate:9
SliderMultiplier:1.5
SliderTickRate:1

[Events]
//Background and Video events
0,0,"mira1.jpg",0,0
//Break Periods
2,2049,3663
2,34808,39180
2,112049,116422
2,145153,148491
2,167222,171594
//Storyboard Layer 0 (Background)
//Storyboard Layer 1 (Fail)
//Storyboard Layer 2 (Pass)
//Storyboard Layer 3 (Foreground)
//Storyboard Sound Samples

[TimingPoints]
1505,344.827586206897,4,2,1,60,1,0
5642,-100,4,2,1,60,0,0
6677,-125,4,2,1,60,0,0
7022,-100,4,2,1,70,0,0
11160,-100,4,2,1,60,0,0
12539,-90.9090909090909,4,2,1,80,0,0
23573,-100,4,2,1,70,0,0
33573,-125,4,2,1,80,0,0
34263,-76.9230769230769,4,2,1,80,0,0
34608,-125,4,2,1,60,0,0
39780,-100,4,2,1,60,0,0
40125,-90.9090909090909,4,2,1,80,0,0
42884,-133.333333333333,4,2,1,80,0,0
43229,-90.9090909090909,4,2,1,80,0,0
44263,-125,4,2,1,60,0,0
45642,-142.857142857143,4,2,1,60,0,0
51160,-125,4,2,1,60,0,0
52539,-111.111111111111,4,2,1,60,0,0
53918,-100,4,2,1,60,0,0
55298,-90.9090909090909,4,2,1,60,0,0
56332,-100,4,2,1,60,0,0
56677,-83.3333333333333,4,2,1,90,0,1
77711,-100,4,2,1,60,0,0
78401,-100,4,2,1,80,0,0
78746,-90.9090909090909,4,2,1,80,0,0
89780,-100,4,2,1,70,0,0
110815,-125,4,2,1,70,0,0
111505,-76.9230769230769,4,2,1,70,0,0
111849,-100,4,2,1,70,0,0
117022,-100,4,2,1,70,0,0
117367,-90.9090909090909,4,2,1,70,0,0
120125,-125,4,2,1,70,0,0
120470,-90.9090909090909,4,2,1,70,0,0
121849,-100,4,2,1,30,0,0
122194,-100,4,2,1,50,0,0
122539,-100,4,2,1,70,0,0
122884,-83.3333333333333,4,2,1,90,0,1
143918,-100,4,2,1,60,0,0
144953,-100,4,2,1,60,0,0
150125,-125,4,2,1,60,0,0
150470,-100,4,2,1,70,0,0
154953,-83.3333333333333,4,2,1,60,0,0
155642,-100,4,2,1,60,0,0
155987,-90.9090909090909,4,2,1,80,0,0
165470,-100,4,2,1,80,0,0
166677,-90.9090909090909,4,2,1,80,0,0
167022,-100,4,2,1,80,0,0
172194,-100,4,2,1,80,0,0
172539,-90.9090909090909,4,2,1,80,0,0
175298,-125,4,2,1,80,0,0
175642,-90.9090909090909,4,2,1,80,0,0
176677,-125,4,2,1,80,0,0
178056,-142.857142857143,4,2,1,80,0,0
183573,-125,4,2,1,80,0,0
184953,-111.111111111111,4,2,1,80,0,0
186332,-100,4,2,1,80,0,0
187711,-90.9090909090909,4,2,1,80,0,0
188746,-100,4,2,1,80,0,0
189091,-83.3333333333333,4,2,1,90,0,1
210125,-100,4,2,1,80,0,0
211160,-100,4,2,1,80,0,0
211849,-90.9090909090909,4,2,1,80,0,0
215298,-100,4,2,1,80,0,0
215987,-83.3333333333333,4,2,1,80,0,0
216677,-100,4,2,1,80,0,0
217367,-90.9090909090909,4,2,1,80,0,0
219436,-125,4,2,1,80,0,0
219780,-90.9090909090909,4,2,1,80,0,0
221160,-90.9090909090909,4,2,1,5,0,0

[Colours]
Combo1 : 0,128,64
Combo2 : 31,224,108
Combo3 : 0,255,255
Combo4 : 128,128,128

[HitObjects]
184,172,1505,6,0,P|247:153|309:219,1,150,2|0,0:0|0:0,0:0:0:0:
305,203,4263,6,0,B|309:96|309:96|267:147,1,150,0|0,0:0|0:0,0:0:0:0:
281,129,5642,6,0,L|180:124,1,75,0|0,0:0|0:0,0:0:0:0:
93,122,5987,1,0,0:0:0:0:
85,234,6160,1,0,0:0:0:0:
85,234,6246,1,0,0:0:0:0:
85,234,6332,1,0,0:0:0:0:
200,244,6505,1,0,0:0:0:0:
200,244,6591,1,0,0:0:0:0:
200,244,6677,2,0,P|250:238|300:263,1,90,0|0,0:0|0:0,0:0:0:0:
316,263,7022,6,0,L|328:104,2,150,2|2|2,0:0|0:0|0:0,0:0:0:0:
99,323,8056,1,2,0:0:0:0:
99,323,8229,2,0,P|77:285|72:250,1,75,0|2,0:0|0:0,0:0:0:0:
150,174,8573,1,0,0:0:0:0:
150,174,8746,2,0,P|172:136|177:101,1,75,2|0,0:0|0:0,0:0:0:0:
263,33,9091,2,0,L|415:21,1,150,2|2,0:0|0:0,0:0:0:0:
177,106,9780,5,2,0:0:0:0:
133,270,9953,1,2,0:0:0:0:
72,111,10125,1,2,0:0:0:0:
213,203,10298,1,2,0:0:0:0:
44,212,10470,5,2,0:0:0:0:
177,106,10642,1,2,0:0:0:0:
133,270,10815,1,2,0:0:0:0:
72,111,10987,1,2,0:0:0:0:
213,203,11160,5,2,0:0:0:0:
419,113,11505,2,0,L|407:10,1,75,0|0,0:0|0:0,0:0:0:0:
511,138,11849,2,0,L|499:241,1,75,0|0,0:0|0:0,0:0:0:0:
459,291,12194,2,0,P|402:304|344:284,1,112.5,0|0,0:0|0:0,0:0:0:0:
319,269,12539,6,0,L|308:358,1,82.5000025177003,6|0,0:0|0:0,0:0:0:0:
197,252,12884,1,8,0:0:0:0:
297,154,13056,2,0,P|323:152|385:172,1,82.5000025177003,0|0,0:0|0:0,0:0:0:0:
319,269,13401,1,2,0:0:0:0:
183,136,13573,2,0,L|193:48,1,82.5000025177003,8|0,0:0|0:0,0:0:0:0:
74,192,13918,6,0,L|84:280,1,82.5000025177003,2|0,0:0|0:0,0:0:0:0:
202,348,14263,1,8,0:0:0:0:
319,269,14436,2,0,B|417:250|387:311|505:283,1,165.000005035401,0|2,0:0|0:0,0:0:0:0:
396,174,14953,2,0,P|351:167|301:178,1,82.5000025177003,8|0,0:0|0:0,0:0:0:0:
162,212,15298,6,0,L|151:114,1,82.5000025177003,2|0,0:0|0:0,0:0:0:0:
41,251,15642,1,8,0:0:0:0:
163,319,15815,2,0,P|205:325|256:310,1,82.5000025177003,0|0,0:0|0:0,0:0:0:0:
335,245,16160,1,2,0:0:0:0:
411,371,16332,1,8,0:0:0:0:
494,247,16505,6,0,B|512:198|512:198|491:69,1,165.000005035401,2|2,0:0|0:0,0:0:0:0:
341,21,17022,2,0,L|328:119,1,82.5000025177003,8|0,0:0|0:0,0:0:0:0:
308,225,17367,1,0,0:0:0:0:
411,157,17539,1,2,0:0:0:0:
230,145,17711,2,0,L|124:156,1,82.5000025177003,8|0,0:0|0:0,0:0:0:0:
20,258,18056,6,0,L|126:269,1,82.5000025177003,2|0,0:0|0:0,0:0:0:0:
249,288,18401,1,8,0:0:0:0:
337,202,18573,2,0,P|345:161|329:102,1,82.5000025177003,0|0,0:0|0:0,0:0:0:0:
219,159,18918,1,2,0:0:0:0:
264,43,19091,2,0,P|295:22|358:17,1,82.5000025177003,8|0,0:0|0:0,0:0:0:0:
454,107,19436,6,0,L|444:208,1,82.5000025177003,2|0,0:0|0:0,0:0:0:0:
427,336,19780,1,8,0:0:0:0:
321,270,19953,2,0,B|246:249|238:302|156:278,1,165.000005035401,0|2,0:0|0:0,0:0:0:0:
193,107,20470,2,0,P|201:147|196:188,1,82.5000025177003,8|0,0:0|0:0,0:0:0:0:
54,235,20815,6,0,P|45:194|51:154,1,82.5000025177003,2|0,0:0|0:0,0:0:0:0:
110,17,21160,1,8,0:0:0:0:
193,107,21332,2,0,L|300:96,1,82.5000025177003,0|0,0:0|0:0,0:0:0:0:
157,189,21677,1,2,0:0:0:0:
224,15,21849,2,0,L|331:4,1,82.5000025177003,8|2,0:0|0:0,0:0:0:0:
474,95,22194,5,8,0:0:0:0:
357,173,22367,1,2,0:0:0:0:
415,0,22539,1,8,0:0:0:0:
495,124,22711,1,2,0:0:0:0:
298,97,22884,5,8,0:0:0:0:
265,94,22970,1,2,0:0:0:0:
233,101,23056,1,2,0:0:0:0:
207,122,23142,1,2,0:0:0:0:
178,138,23229,1,2,0:0:0:0:
145,142,23315,1,2,0:0:0:0:
113,132,23401,1,2,0:0:0:0:
87,111,23487,1,2,0:0:0:0:
67,83,23573,6,0,P|93:129|66:235,1,150,6|8,0:0|0:0,0:0:0:0:
170,297,24091,2,0,P|207:278|252:276,1,75,0|0,0:0|0:0,0:0:0:0:
239,379,24436,1,2,0:0:0:0:
92,349,24608,1,8,0:0:0:0:
239,274,24780,6,0,B|263:227|263:227|244:114,1,150,2|2,0:0|0:0,0:0:0:0:
145,51,25298,2,0,L|128:140,1,75,8|0,0:0|0:0,0:0:0:0:
99,232,25642,1,0,0:0:0:0:
43,133,25815,1,2,0:0:0:0:
194,189,25987,2,0,P|229:196|289:181,1,75,8|0,0:0|0:0,0:0:0:0:
386,125,26332,6,0,L|402:214,1,75,2|0,0:0|0:0,0:0:0:0:
276,87,26677,2,0,L|292:-2,1,75,8|0,0:0|0:0,0:0:0:0:
158,87,27022,1,0,0:0:0:0:
158,87,27194,1,2,0:0:0:0:
267,190,27367,1,8,0:0:0:0:
133,258,27539,6,0,L|47:253,1,75,2|0,0:0|0:0,0:0:0:0:
209,366,27884,2,0,L|295:361,1,75,2|8,0:0|0:0,0:0:0:0:
381,352,28229,1,0,0:0:0:0:
323,273,28401,1,0,0:0:0:0:
446,243,28573,1,2,0:0:0:0:
357,151,28746,2,0,L|272:146,1,75,8|0,0:0|0:0,0:0:0:0:
174,52,29091,6,0,L|259:47,1,75,2|0,0:0|0:0,0:0:0:0:
80,0,29436,2,0,P|67:59|113:141,1,150,8|0,0:0|0:0,0:0:0:0:
196,204,29953,1,2,0:0:0:0:
174,52,30125,1,8,0:0:0:0:
312,127,30298,6,0,L|298:297,1,150,2|2,0:0|0:0,0:0:0:0:
174,360,30815,2,0,L|166:269,1,75,8|0,0:0|0:0,0:0:0:0:
159,172,31160,1,0,0:0:0:0:
60,274,31332,1,2,0:0:0:0:
30,134,31505,2,0,L|36:59,1,75,8|0,0:0|0:0,0:0:0:0:
169,8,31849,6,0,L|175:82,1,75,2|0,0:0|0:0,0:0:0:0:
284,186,32194,2,0,P|348:190|417:133,1,150,8|0,0:0|0:0,0:0:0:0:
320,81,32711,1,2,0:0:0:0:
184,176,32884,1,8,0:0:0:0:
296,295,33056,6,0,B|338:284|338:284|455:294,1,150,2|2,0:0|0:0,0:0:0:0:
346,382,33573,1,8,0:0:0:0:
346,382,33918,2,0,L|273:374,1,60,0|0,0:0|0:0,0:0:0:0:
163,342,34263,6,0,B|149:238|149:238,1,97.4999955368044,2|0,0:1|0:0,0:0:0:0:
52,305,34608,5,6,0:0:0:0:
256,192,39780,6,0,L|140:181,1,112.5,4|0,0:3|0:0,0:0:0:0:
120,210,40125,6,0,P|151:146|17:129,1,247.500007553101,6|0,0:0|0:0,0:0:0:0:
1,195,40815,1,8,0:0:0:0:
26,273,40987,1,0,0:0:0:0:
98,312,41160,1,0,0:0:0:0:
180,312,41332,1,0,0:0:0:0:
227,244,41505,6,0,B|322:221|319:283|426:260|426:260|376:222,1,247.500007553101,2|0,0:0|0:0,0:0:0:0:
321,131,42194,1,8,0:0:0:0:
321,131,42280,1,0,0:0:0:0:
321,131,42367,1,0,0:0:0:0:
321,131,42453,1,0,0:0:0:0:
321,131,42539,2,0,L|327:36,1,82.5000025177003,0|0,0:0|0:0,0:0:0:0:
187,126,42884,6,0,L|191:202,1,56.2500021457673,2|0,0:0|0:0,0:0:0:0:
143,256,43229,6,0,P|96:258|46:235,1,82.5000025177003,0|0,0:0|0:0,0:0:0:0:
4,188,43573,1,8,0:0:0:0:
4,105,43746,1,0,0:0:0:0:
62,46,43918,1,0,0:0:0:0:
144,46,44091,1,0,0:0:0:0:
207,109,44263,6,0,B|260:140|320:112|320:112|284:172|317:223|317:223|282:290|320:341,1,360,2|0,0:0|0:0,0:0:0:0:
501,288,45642,6,0,P|450:278|399:285,3,104.999996795654,2|2|2|2,0:0|0:0|0:0|0:0,0:0:0:0:
315,220,47022,2,0,P|263:230|212:223,3,104.999996795654,2|2|2|2,0:0|0:0|0:0|0:0,0:0:0:0:
120,171,48401,6,0,L|113:296,1,104.999996795654,2|2,0:0|0:0,0:0:0:0:
87,350,48918,2,0,P|55:356|25:354,2,52.4999983978272,0|2|0,0:0|0:0|0:0,0:0:0:0:
165,339,49436,6,0,L|291:348,1,104.999996795654,2|2,0:0|0:0,0:0:0:0:
343,318,49953,2,0,P|375:324|405:322,2,52.4999983978272,0|2|0,0:0|0:0|0:0,0:0:0:0:
292,256,50470,6,0,L|286:185,1,52.4999983978272,2|0,0:0|0:0,0:0:0:0:
236,143,50815,2,0,L|242:72,1,52.4999983978272,2|0,0:0|0:0,0:0:0:0:
174,28,51160,6,0,L|137:22,3,30,2|0|2|0,0:0|0:0|0:0|0:0,0:0:0:0:
89,83,51505,2,0,L|53:96,3,30,2|0|2|0,0:0|0:0|0:0|0:0,0:0:0:0:
59,174,51849,6,0,L|35:203,3,30,2|0|2|0,0:0|0:0|0:0|0:0,0:0:0:0:
88,262,52194,2,0,L|82:299,3,30,2|0|2|0,0:0|0:0|0:0|0:0,0:0:0:0:
146,348,52539,5,2,0:0:0:0:
174,366,52625,1,0,0:0:0:0:
206,373,52711,1,2,0:0:0:0:
240,373,52798,1,0,0:0:0:0:
272,364,52884,2,0,L|280:312,3,33.7499989700318,2|0|2|0,0:0|0:0|0:0|0:0,0:0:0:0:
297,248,53229,5,2,0:0:0:0:
327,232,53315,1,0,0:0:0:0:
360,230,53401,1,2,0:0:0:0:
392,239,53487,1,0,0:0:0:0:
419,258,53573,2,0,L|469:254,3,33.7499989700318,2|0|2|0,0:0|0:0|0:0|0:0,0:0:0:0:
507,178,53918,5,2,0:0:0:0:
504,140,54005,1,2,0:0:0:0:
481,109,54091,1,2,0:0:0:0:
450,87,54177,1,2,0:0:0:0:
414,75,54263,2,0,L|362:78,1,37.5,2|2,0:0|0:0,0:0:0:0:
283,96,54436,5,2,0:0:0:0:
250,113,54522,1,2,0:0:0:0:
214,124,54608,1,2,0:0:0:0:
177,131,54694,1,2,0:0:0:0:
139,131,54780,1,2,0:0:0:0:
101,124,54867,1,2,0:0:0:0:
66,112,54953,6,0,L|58:164,3,37.5,2|2|2|2,0:0|0:0|0:0|0:0,0:0:0:0:
55,266,55298,5,8,3:0:0:0:
94,253,55384,1,8,3:0:0:0:
135,254,55470,1,8,3:0:0:0:
171,272,55556,1,8,3:0:0:0:
198,302,55642,1,8,3:0:0:0:
55,266,55815,5,8,3:0:0:0:
42,227,55901,1,8,3:0:0:0:
43,186,55987,1,8,3:0:0:0:
61,150,56073,1,8,3:0:0:0:
91,123,56159,1,8,3:0:0:0:
329,189,56332,6,0,B|325:129|325:129|325:130|325:130|320:60,1,112.5,4|0,1:0|0:0,0:0:0:0:
326,38,56677,6,0,P|390:24|496:86,1,179.999994506836,6|8,0:0|0:0,0:0:0:0:
458,255,57194,2,0,L|440:358,1,89.9999972534181,0|0,0:0|0:0,0:0:0:0:
310,284,57539,1,2,0:0:0:0:
425,159,57711,2,0,P|469:156|511:170,1,89.9999972534181,8|0,0:0|0:0,0:0:0:0:
326,294,58056,6,0,L|133:275,1,179.999994506836,2|8,0:0|0:0,0:0:0:0:
12,261,58573,1,0,0:0:0:0:
96,111,58746,2,2,B|139:99|139:99|196:115,1,89.9999972534181,0|2,0:1|0:0,0:1:0:0:
329,200,59091,2,0,P|354:136|342:51,1,134.999995880127,8|0,0:0|0:0,0:0:0:0:
311,54,59436,6,0,P|376:75|500:37,1,179.999994506836,2|8,0:0|0:0,0:0:0:0:
509,173,59953,2,0,L|498:268,1,89.9999972534181,0|0,0:0|0:0,0:0:0:0:
401,343,60298,1,2,0:0:0:0:
267,252,60470,2,0,B|179:238|178:297|84:270,1,179.999994506836,8|0,0:0|0:0,0:0:0:0:
126,164,60987,1,2,0:0:0:0:
18,320,61160,2,0,P|4:277|22:219,1,89.9999972534181,8|0,0:0|0:0,0:0:0:0:
126,164,61505,5,0,0:0:0:0:
92,272,61677,1,2,0:0:0:0:
21,126,61849,2,0,L|34:29,1,89.9999972534181,8|0,0:0|0:0,0:0:0:0:
281,117,62194,6,0,P|194:128|132:58,1,179.999994506836,6|8,0:0|0:0,0:0:0:0:
78,209,62711,2,0,L|86:317,1,89.9999972534181,0|0,0:0|0:0,0:0:0:0:
162,374,63056,1,2,0:0:0:0:
277,272,63229,2,0,L|385:264,1,89.9999972534181,8|0,0:0|0:0,0:0:0:0:
452,119,63573,6,0,P|374:94|272:123,1,179.999994506836,2|8,0:0|0:0,0:0:0:0:
187,189,64091,1,0,0:0:0:0:
52,137,64263,2,2,B|39:95|39:95|55:48,1,89.9999972534181,0|2,0:1|0:0,0:1:0:0:
205,180,64608,2,0,P|213:252|187:311,1,134.999995880127,8|0,0:0|0:0,0:0:0:0:
159,335,64953,6,0,B|284:327|284:327|340:362,1,179.999994506836,6|8,0:0|0:0,0:0:0:0:
507,266,65470,2,0,B|382:274|382:274|326:239,1,179.999994506836,0|2,0:0|0:0,0:0:0:0:
192,134,65987,2,0,L|173:243,1,89.9999972534181,8|0,0:0|0:0,0:0:0:0:
129,48,66332,5,0,0:0:0:0:
292,101,66505,1,2,0:0:0:0:
90,177,66677,2,0,L|-5:169,1,89.9999972534181,12|0,0:0|0:0,0:0:0:0:
176,222,67022,2,0,L|216:308,1,89.9999972534181,6|2,0:0|0:0,0:0:0:0:
172,127,67367,2,0,L|226:48,1,89.9999972534181,12|0,0:0|0:0,0:0:0:0:
401,29,67711,6,0,P|450:67|443:186,1,179.999994506836,6|8,0:0|0:0,0:0:0:0:
369,263,68229,2,0,L|387:356,1,89.9999972534181,0|0,0:0|0:0,0:0:0:0:
475,276,68573,1,2,0:0:0:0:
345,163,68746,2,0,P|298:157|254:169,1,89.9999972534181,8|0,0:0|0:0,0:0:0:0:
96,194,69091,6,0,P|66:129|104:25,1,179.999994506836,2|8,0:0|0:0,0:0:0:0:
180,114,69608,1,0,0:0:0:0:
133,287,69780,2,2,B|88:294|88:294|28:276,1,89.9999972534181,0|2,0:1|0:0,0:1:0:0:
232,213,70125,2,0,P|299:201|382:234,1,134.999995880127,8|0,0:0|0:0,0:0:0:0:
384,253,70470,6,0,P|356:175|395:87,1,179.999994506836,6|8,0:0|0:0,0:0:0:0:
488,254,70987,2,0,L|479:352,1,89.9999972534181,0|0,0:0|0:0,0:0:0:0:
369,383,71332,1,2,0:0:0:0:
273,262,71505,2,0,B|183:236|184:305|86:277,1,179.999994506836,8|0,0:0|0:0,0:0:0:0:
6,196,72022,1,2,0:0:0:0:
117,88,72194,2,0,L|128:178,1,89.9999972534181,8|0,0:0|0:0,0:0:0:0:
195,40,72539,5,0,0:0:0:0:
24,96,72711,1,2,0:0:0:0:
230,160,72884,2,0,L|334:149,1,89.9999972534181,8|0,0:0|0:0,0:0:0:0:
473,202,73229,6,0,P|500:285|445:363,1,179.999994506836,6|8,0:0|0:0,0:0:0:0:
310,281,73746,2,0,L|400:272,1,89.9999972534181,0|0,0:0|0:0,0:0:0:0:
280,382,74091,1,2,0:0:0:0:
155,278,74263,2,0,P|138:232|142:172,1,89.9999972534181,8|0,0:0|0:0,0:0:0:0:
235,61,74608,6,0,P|154:69|62:19,1,179.999994506836,2|8,0:0|0:0,0:0:0:0:
0,121,75125,1,0,0:0:0:0:
137,191,75298,2,2,B|180:179|180:179|232:191,1,89.9999972534181,0|2,0:1|0:0,0:1:0:0:
375,217,75642,2,0,L|391:79,1,134.999995880127,8|0,0:0|0:0,0:0:0:0:
395,43,75987,6,0,P|340:82|220:46,1,179.999994506836,2|8,0:0|0:0,0:0:0:0:
99,8,76505,2,0,L|87:98,1,89.9999972534181,0|0,0:0|0:0,0:0:0:0:
64,238,76849,1,2,0:0:0:0:
214,177,77022,2,0,P|256:178|309:206,1,89.9999972534181,8|0,0:0|0:0,0:0:0:0:
207,353,77367,1,2,0:0:0:0:
207,353,77711,6,0,P|152:327|69:372,2,150,0|0|2,0:0|0:0|0:1,0:0:0:0:
207,353,78746,6,0,L|296:344,1,82.5000025177003,6|0,0:0|0:0,0:0:0:0:
428,322,79091,1,8,0:0:0:0:
322,243,79263,2,0,P|284:238|229:257,1,82.5000025177003,0|0,0:0|0:0,0:0:0:0:
143,294,79608,1,2,0:0:0:0:
71,173,79780,2,0,L|81:71,1,82.5000025177003,8|0,0:0|0:0,0:0:0:0:
239,48,80125,6,0,P|256:86|253:148,1,82.5000025177003,2|0,0:0|0:0,0:0:0:0:
242,249,80470,1,8,0:0:0:0:
363,226,80642,2,0,B|427:260|487:232|487:232|511:183,1,165.000005035401,0|2,0:0|0:0,0:0:0:0:
474,52,81160,2,0,L|370:61,1,82.5000025177003,8|0,0:0|0:0,0:0:0:0:
258,126,81505,6,0,L|154:117,1,82.5000025177003,2|0,0:0|0:0,0:0:0:0:
71,14,81849,1,8,0:0:0:0:
12,123,82022,2,0,P|2:164|13:213,1,82.5000025177003,0|0,0:0|0:0,0:0:0:0:
79,305,82367,1,2,0:0:0:0:
100,166,82539,1,8,0:0:0:0:
220,278,82711,6,0,P|297:270|384:264,1,165.000005035401,6|2,0:0|0:0,0:0:0:0:
480,149,83229,2,0,P|441:145|398:142,1,82.5000025177003,8|0,0:0|0:0,0:0:0:0:
274,139,83573,1,0,0:0:0:0:
370,60,83746,1,2,0:0:0:0:
336,221,83918,2,0,L|329:318,1,82.5000025177003,8|0,0:0|0:0,0:0:0:0:
204,366,84263,6,0,L|197:269,1,82.5000025177003,2|0,0:0|0:0,0:0:0:0:
188,134,84608,1,8,0:0:0:0:
109,229,84780,2,0,P|93:285|100:319,1,82.5000025177003,0|0,0:0|0:0,0:0:0:0:
198,284,85125,1,2,0:0:0:0:
98,131,85298,1,8,0:0:0:0:
266,197,85470,6,0,B|377:208|377:208|429:179,1,165.000005035401,2|0,0:0|0:0,0:0:0:0:
345,74,85987,1,8,0:0:0:0:
217,109,86160,2,0,P|168:176|199:274,1,165.000005035401,0|2,0:0|0:0,0:0:0:0:
295,372,86677,2,0,L|185:371,1,82.5000025177003,8|0,0:0|0:0,0:0:0:0:
98,253,87022,6,0,L|208:252,1,82.5000025177003,2|0,0:0|0:0,0:0:0:0:
329,249,87367,1,8,0:0:0:0:
240,163,87539,2,0,P|201:147|145:151,1,82.5000025177003,0|0,0:0|0:0,0:0:0:0:
39,173,87884,1,2,0:0:0:0:
180,252,88056,1,8,0:0:0:0:
25,283,88229,1,2,0:0:0:0:
86,95,88401,5,8,0:0:0:0:
98,253,88573,1,0,0:0:0:0:
234,108,88746,5,8,0:0:0:0:
84,175,88918,1,0,0:0:0:0:
268,248,89091,5,8,0:0:0:0:
294,259,89177,1,2,0:0:0:0:
320,271,89263,1,2,0:0:0:0:
347,280,89349,1,2,0:0:0:0:
373,291,89436,2,0,L|381:240,1,41.2500012588501,2|2,0:0|0:0,0:0:0:0:
449,192,89608,2,0,L|441:141,1,41.2500012588501,2|2,0:0|0:0,0:0:0:0:
379,92,89780,6,0,P|327:114|209:75,1,150,6|8,0:0|0:0,0:0:0:0:
131,57,90298,2,0,L|122:145,1,75,0|0,0:0|0:0,0:0:0:0:
105,242,90642,1,2,0:0:0:0:
32,127,90815,1,8,0:0:0:0:
193,195,90987,6,0,B|296:181|296:181|362:205,1,150,2|2,0:0|0:0,0:0:0:0:
418,316,91505,2,0,P|389:334|330:333,1,75,8|0,0:0|0:0,0:0:0:0:
243,299,91849,1,0,0:0:0:0:
339,196,92022,1,2,0:0:0:0:
193,195,92194,2,0,L|95:185,1,75,8|0,0:0|0:0,0:0:0:0:
20,82,92539,6,0,P|14:41|25:0,1,75,2|0,0:0|0:0,0:0:0:0:
186,9,92884,2,0,P|192:50|181:91,1,75,8|0,0:0|0:0,0:0:0:0:
94,186,93229,1,0,0:0:0:0:
94,186,93401,1,2,0:0:0:0:
104,46,93573,1,8,0:0:0:0:
226,168,93746,6,0,P|300:156|395:146,1,150,2|2,0:0|0:0,0:0:0:0:
504,207,94263,1,8,0:0:0:0:
452,73,94436,2,0,P|378:40|301:69,1,150,0|2,0:0|0:0,0:0:0:0:
226,168,94953,2,0,P|216:129|206:77,1,75,8|0,0:0|0:0,0:0:0:0:
90,14,95298,6,0,P|82:50|73:87,1,75,2|0,0:0|0:0,0:0:0:0:
35,224,95642,2,0,P|84:268|173:265,1,150,8|0,0:0|0:0,0:0:0:0:
280,233,96160,1,2,0:0:0:0:
125,172,96332,1,8,0:0:0:0:
291,123,96505,6,0,B|396:136|396:136|458:113,1,150,2|2,0:0|0:0,0:0:0:0:
313,11,97022,2,0,L|218:23,1,75,8|0,0:0|0:0,0:0:0:0:
291,123,97367,1,0,0:0:0:0:
412,35,97539,1,2,0:0:0:0:
439,212,97711,2,0,L|432:306,1,75,8|0,0:0|0:0,0:0:0:0:
306,353,98056,6,0,L|299:259,1,75,2|0,0:0|0:0,0:0:0:0:
207,169,98401,2,0,P|127:159|65:207,1,150,8|0,0:0|0:0,0:0:0:0:
8,289,98918,1,2,0:0:0:0:
4,128,99091,1,8,0:0:0:0:
155,259,99263,6,0,L|312:245,1,150,2|2,0:0|0:0,0:0:0:0:
396,136,99780,2,0,L|317:129,1,75,8|0,0:0|0:0,0:0:0:0:
212,160,100125,1,2,0:0:0:0:
155,259,100298,1,2,0:0:0:0:
144,274,100384,1,0,0:0:0:0:
135,290,100470,2,0,L|141:351,3,37.5,2|2|2|2,0:0|0:0|0:0|0:0,0:0:0:0:
120,351,100815,6,0,L|107:253,1,75,6|0,0:0|0:0,0:0:0:0:
10,173,101160,2,0,L|-3:271,1,75,8|0,0:0|0:0,0:0:0:0:
125,151,101505,2,0,L|112:53,1,75,0|2,0:0|0:0,0:0:0:0:
10,173,101849,1,8,0:0:0:0:
110,276,102022,6,0,B|149:288|149:288|245:271,1,112.5,2|0,0:0|0:0,0:0:0:0:
219,275,102367,1,2,0:0:0:0:
315,180,102539,2,0,B|324:143|324:143|313:87,1,75,8|0,0:0|0:0,0:0:0:0:
192,60,102884,2,0,B|139:71|139:71|80:45,1,112.5
59,27,103229,2,0,L|51:116,1,75,8|0,0:0|0:0,0:0:0:0:
6,236,103573,6,0,L|18:367,1,112.5,2|0,0:0|0:0,0:0:0:0:
43,368,103918,2,0,B|80:375|80:375|126:360,1,75,8|0,0:0|0:0,0:0:0:0:
231,293,104263,1,0,0:0:0:0:
231,293,104349,1,0,0:0:0:0:
231,293,104436,2,0,L|236:238,1,37.5,2|0,0:0|0:0,0:0:0:0:
290,195,104608,2,0,B|328:188|328:188|381:198,1,75,8|2,0:0|0:0,0:0:0:0:
482,261,104953,5,0,0:0:0:0:
377,346,105125,1,2,0:0:0:0:
377,346,105211,1,0,0:0:0:0:
377,346,105298,2,0,L|294:337,1,75,8|0,0:0|0:0,0:0:0:0:
234,255,105642,1,0,0:0:0:0:
363,197,105815,1,2,0:0:0:0:
303,338,105987,2,0,P|249:361|171:340,1,112.5,8|0,0:0|0:0,0:0:0:0:
174,328,106332,6,0,B|102:311|96:361|18:335,1,150,2|8,0:0|0:0,0:0:0:0:
112,242,106849,2,0,P|150:237|200:251,1,75
295,310,107194,1,2,0:0:0:0:
373,208,107367,2,0,L|367:166,3,37.5,8|0|2|0,0:0|0:0|0:0|0:0,0:0:0:0:
389,145,107711,6,0,L|402:244,1,75,0|2,0:0|0:0,0:0:0:0:
501,109,108056,1,8,0:0:0:0:
501,109,108142,1,0,0:0:0:0:
501,109,108229,2,0,L|509:63,1,37.5,0|0,0:0|0:0,0:0:0:0:
439,13,108401,2,0,B|385:32|385:32|309:17,1,112.5
298,13,108746,2,0,L|288:99,1,75,8|0,0:0|0:0,0:0:0:0:
215,191,109091,6,0,P|138:211|82:168,1,150,2|8,0:0|0:0,0:0:0:0:
151,51,109608,2,0,L|158:126,1,75,0|0,0:0|0:0,0:0:0:0:
289,87,109953,1,2,0:0:0:0:
152,26,110125,1,8,0:0:0:0:
233,178,110298,6,0,L|401:186,1,150,0|2,0:0|0:0,0:0:0:0:
245,292,110815,1,8,0:0:0:0:
245,292,111160,2,0,L|161:296,1,60,0|0,0:0|0:0,0:0:0:0:
73,233,111505,6,0,B|59:186|59:186|75:129|75:129,1,97.4999955368044,2|0,0:1|0:0,0:0:0:0:
206,184,111849,5,6,0:0:0:0:
268,273,117022,6,0,P|333:261|387:280,1,112.5,4|0,3:0|0:0,0:0:0:0:
407,295,117367,6,0,B|403:258|388:234|388:234|428:190|415:100|415:100|380:59,1,247.500007553101,6|0,0:0|0:0,0:0:0:0:
322,18,118056,1,8,0:0:0:0:
239,22,118229,1,0,0:0:0:0:
169,68,118401,1,0,0:0:0:0:
162,150,118573,1,0,0:0:0:0:
189,228,118746,6,0,B|139:242|104:207|104:207|117:269|86:302|86:302|111:319|160:333,1,247.500007553101,2|0,0:0|0:0,0:0:0:0:
269,366,119436,1,8,0:0:0:0:
269,366,119522,1,0,0:0:0:0:
269,366,119608,1,0,0:0:0:0:
269,366,119694,1,0,0:0:0:0:
269,366,119780,2,0,L|354:351,1,82.5000025177003
431,241,120125,6,0,P|436:207|430:169,1,60,2|0,0:0|0:0,0:0:0:0:
345,163,120470,6,0,P|338:205|346:252,1,82.5000025177003,0|0,0:0|0:0,0:0:0:0:
437,103,120815,1,8,0:0:0:0:
371,56,120987,1,0,0:0:0:0:
291,66,121159,1,0,0:0:0:0:
241,129,121332,1,0,0:0:0:0:
247,209,121505,6,0,B|256:289|256:289|229:350,1,123.75000377655,2|0,0:0|0:0,0:0:0:0:
162,368,121849,6,0,L|135:367,22,18.75,2|2|2|2|2|2|2|2|2|2|2|2|2|2|2|2|2|2|2|2|2|2|2,0:1|0:1|0:1|0:1|0:1|0:1|0:1|0:1|0:1|0:1|0:1|0:1|0:1|0:1|0:1|0:1|0:1|0:1|0:1|0:1|0:1|0:1|0:1,0:0:0:0:
122,379,122884,6,0,B|94:336|94:336|116:181,1,179.999994506836,6|8,0:0|0:0,0:0:0:0:
230,110,123401,2,0,L|248:225,1,89.9999972534181,0|0,0:0|0:0,0:0:0:0:
339,78,123746,1,2,0:0:0:0:
176,26,123918,2,0,P|124:23|83:37,1,89.9999972534181,8|0,0:0|0:0,0:0:0:0:
239,164,124263,6,0,L|440:173,1,179.999994506836,2|8,0:0|0:0,0:0:0:0:
340,259,124780,1,0,0:0:0:0:
327,78,124953,2,2,B|289:57|289:57|238:55,1,89.9999972534181,0|2,0:1|0:0,0:1:0:0:
109,149,125298,2,0,L|122:297,1,134.999995880127,8|0,0:0|0:0,0:0:0:0:
129,323,125642,6,0,B|230:288|220:356|315:328,1,179.999994506836,2|8,0:0|0:0,0:0:0:0:
278,151,126160,2,0,P|265:193|272:238,1,89.9999972534181,0|0,0:0|0:0,0:0:0:0:
379,206,126505,1,2,0:0:0:0:
336,59,126677,2,0,B|215:44|215:44|152:71,1,179.999994506836,8|0,0:0|0:0,0:0:0:0:
234,158,127194,1,2,0:0:0:0:
67,23,127367,2,0,P|58:67|68:111,1,89.9999972534181,8|0,0:0|0:0,0:0:0:0:
171,221,127711,5,0,0:0:0:0:
162,67,127884,1,2,0:0:0:0:
63,206,128056,2,0,L|83:312,1,89.9999972534181,8|0,0:0|0:0,0:0:0:0:
310,273,128401,6,0,P|276:217|172:221,1,179.999994506836,6|8,0:0|0:0,0:0:0:0:
278,377,128918,2,0,L|381:366,1,89.9999972534181,0|0,0:0|0:0,0:0:0:0:
483,349,129263,1,2,0:0:0:0:
407,225,129436,2,0,L|413:115,1,89.9999972534181,8|0,0:0|0:0,0:0:0:0:
323,10,129780,6,0,P|268:72|271:189,1,179.999994506836,2|8,0:0|0:0,0:0:0:0:
310,273,130298,1,0,0:0:0:0:
164,319,130470,2,2,B|118:310|118:310|69:318,1,89.9999972534181,0|2,0:1|0:0,0:1:0:0:
10,178,130815,2,0,P|63:175|147:103,1,134.999995880127,8|0,0:0|0:0,0:0:0:0:
151,95,131160,6,0,B|265:117|265:117|335:95,1,179.999994506836,6|8,0:0|0:0,0:0:0:0:
493,199,131677,2,0,B|379:177|379:177|309:199,1,179.999994506836,0|2,0:0|0:0,0:0:0:0:
374,365,132194,2,0,P|391:324|385:280,1,89.9999972534181,8|0,0:0|0:0,0:0:0:0:
214,220,132539,5,0,0:0:0:0:
264,373,132711,1,2,0:0:0:0:
318,196,132884,2,0,P|330:153|323:96,1,89.9999972534181,12|0,0:0|0:0,0:0:0:0:
143,169,133229,2,0,P|174:200|227:223,1,89.9999972534181,6|2,0:0|0:0,0:0:0:0:
253,31,133573,2,0,P|209:42|163:76,1,89.9999972534181,12|0,0:0|0:0,0:0:0:0:
45,195,133918,6,0,L|65:377,1,179.999994506836,6|8,0:0|0:0,0:0:0:0:
203,257,134436,2,0,L|213:156,1,89.9999972534181,0|0,0:0|0:0,0:0:0:0:
312,227,134780,1,2,0:0:0:0:
264,81,134953,2,0,P|215:67|162:80,1,89.9999972534181,8|0,0:0|0:0,0:0:0:0:
300,240,135298,6,0,B|389:258|391:199|488:221,1,179.999994506836,2|8,0:0|0:0,0:0:0:0:
444,322,135815,1,0,0:0:0:0:
333,147,135987,2,2,B|327:100|327:100|342:58,1,89.9999972534181,0|2,0:1|0:0,0:1:0:0:
196,8,136332,2,0,P|152:48|72:46,1,134.999995880127,8|0,0:0|0:0,0:0:0:0:
43,29,136677,6,0,P|4:116|42:219,1,179.999994506836,2|8,0:0|0:0,0:0:0:0:
99,306,137194,2,0,L|-1:296,1,89.9999972534181,0|0,0:0|0:0,0:0:0:0:
138,183,137539,1,2,0:0:0:0:
236,310,137711,2,0,P|316:344|410:285,1,179.999994506836,8|0,0:0|0:0,0:0:0:0:
314,230,138229,1,2,0:0:0:0:
464,371,138401,2,0,P|487:330|481:269,1,89.9999972534181,8|0,0:0|0:0,0:0:0:0:
436,152,138746,5,0,0:0:0:0:
395,307,138918,1,2,0:0:0:0:
276,195,139091,2,0,L|282:100,1,89.9999972534181,8|0,0:0|0:0,0:0:0:0:
255,311,139436,6,0,P|191:276|162:171,1,179.999994506836,6|8,0:0|0:0,0:0:0:0:
92,82,139953,2,0,L|-9:67,1,89.9999972534181,0|0,0:0|0:0,0:0:0:0:
175,14,140298,1,2,0:0:0:0:
161,179,140470,2,0,L|60:194,1,89.9999972534181,8|0,0:0|0:0,0:0:0:0:
181,336,140815,6,0,P|270:361|364:307,1,179.999994506836,2|8,0:0|0:0,0:0:0:0:
258,232,141332,1,0,0:0:0:0:
440,283,141505,2,2,B|453:329|453:329|438:376,1,89.9999972534181,0|2,0:1|0:0,0:1:0:0:
281,251,141849,2,0,L|291:92,1,134.999995880127,8|0,0:0|0:0,0:0:0:0:
291,75,142194,6,0,P|233:98|126:45,1,179.999994506836,2|8,0:0|0:0,0:0:0:0:
27,108,142711,2,0,L|39:224,1,89.9999972534181,0|0,0:0|0:0,0:0:0:0:
121,278,143056,1,2,0:0:0:0:
249,193,143229,2,0,L|358:202,1,89.9999972534181,8|0,0:0|0:0,0:0:0:0:
213,47,143573,1,2,0:0:0:0:
213,47,143918,6,0,B|142:30|133:72|58:52,2,150,0|0|2,0:0|0:0|0:1,0:0:0:0:
213,47,144953,5,4,3:0:0:0:
231,255,149091,6,0,L|332:260,1,75,0|0,0:0|0:0,0:0:0:0:
419,262,149436,1,0,0:0:0:0:
427,150,149609,1,0,0:0:0:0:
427,150,149695,1,0,0:0:0:0:
427,150,149781,1,0,0:0:0:0:
315,147,149954,1,0,0:0:0:0:
315,147,150040,1,0,0:0:0:0:
315,147,150126,2,0,P|265:153|215:128,1,90,0|0,0:0|0:0,0:0:0:0:
196,121,150471,6,0,L|184:280,2,150,2|2|2,0:0|0:0|0:0,0:0:0:0:
413,61,151505,1,2,0:0:0:0:
413,61,151678,2,0,P|435:99|440:134,1,75,0|2,0:0|0:0,0:0:0:0:
362,210,152022,1,0,0:0:0:0:
362,210,152195,2,0,L|368:249,5,25,2|0|0|0|0|0,0:0|0:0|0:0|0:0|0:0|0:0,0:0:0:0:
366,259,152540,2,0,P|290:278|214:255,1,150,2|2,0:0|0:0,0:0:0:0:
140,89,153229,5,2,0:0:0:0:
33,248,153401,1,2,0:0:0:0:
231,151,153573,1,2,0:0:0:0:
124,308,153746,1,2,0:0:0:0:
40,136,153918,5,2,0:0:0:0:
223,260,154091,1,2,0:0:0:0:
33,248,154263,1,2,0:0:0:0:
140,89,154436,1,2,0:0:0:0:
124,308,154608,5,2,0:0:0:0:
277,54,154953,2,0,B|321:43|321:43|387:60,1,89.9999972534181,0|0,0:0|0:0,0:0:0:0:
362,189,155298,2,0,B|318:200|318:200|252:183,1,89.9999972534181,0|0,0:0|0:0,0:0:0:0:
165,123,155642,2,0,P|149:178|160:241,1,112.5,0|0,0:0|0:0,0:0:0:0:
166,267,155987,6,0,L|53:258,1,82.5000025177003,6|0,0:0|0:0,0:0:0:0:
232,366,156332,1,8,0:0:0:0:
323,282,156505,2,0,P|335:241|322:186,1,82.5000025177003,0|0,0:0|0:0,0:0:0:0:
268,95,156849,1,2,0:0:0:0:
241,234,157022,1,8,0:0:0:0:
150,117,157194,6,0,B|89:98|26:116|26:116|1:150,1,165.000005035401,2|2,0:0|0:0,0:0:0:0:
40,291,157711,1,8,0:0:0:0:
160,262,157884,2,0,B|209:282|209:282|328:274,1,165.000005035401,0|2,0:0|0:0,0:0:0:0:
438,157,158401,2,0,L|342:150,1,82.5000025177003,8|0,0:0|0:0,0:0:0:0:
226,94,158746,6,0,P|223:51|251:0,1,82.5000025177003,2|0,0:0|0:0,0:0:0:0:
343,169,159091,1,8,0:0:0:0:
222,197,159263,2,0,L|112:190,1,82.5000025177003,0|0,0:0|0:0,0:0:0:0:
15,182,159608,1,2,0:0:0:0:
132,91,159780,1,8,0:0:0:0:
77,264,159953,6,0,P|102:321|204:354,1,165.000005035401,2|2,0:0|0:0,0:0:0:0:
261,239,160470,2,0,L|180:252,1,82.5000025177003,8|0,0:0|0:0,0:0:0:0:
310,324,160815,1,0,0:0:0:0:
327,176,160987,1,2,0:0:0:0:
180,252,161160,2,0,P|162:209|162:169,1,82.5000025177003,8|0,0:0|0:0,0:0:0:0:
239,46,161505,6,0,L|280:49,3,41.2500012588501,2|0|0|0,0:0|0:0|0:0|0:0,0:0:0:0:
363,94,161849,2,0,L|404:91,1,41.2500012588501,12|0,0:0|0:0,0:0:0:0:
494,58,162022,2,0,P|500:106|479:153,1,82.5000025177003,0|0,0:0|0:0,0:0:0:0:
415,257,162367,1,2,0:0:0:0:
363,94,162539,1,8,0:0:0:0:
236,212,162711,6,0,L|120:199,1,82.5000025177003,2|0,0:0|0:0,0:0:0:0:
283,128,163056,1,2,0:0:0:0:
218,307,163229,1,8,0:0:0:0:
173,122,163401,2,0,P|91:148|80:241,1,165.000005035401,0|2,0:0|0:0,0:0:0:0:
218,307,163918,2,0,L|331:296,1,82.5000025177003,8|0,0:0|0:0,0:0:0:0:
448,225,164263,5,2,0:0:0:0:
448,225,164349,1,2,0:0:0:0:
448,225,164436,1,2,0:0:0:0:
448,225,164522,1,2,0:0:0:0:
448,225,164608,2,0,L|434:120,1,82.5000025177003,8|2,0:0|0:0,0:0:0:0:
407,127,164867,1,2,0:0:0:0:
407,127,164953,2,0,L|421:22,1,82.5000025177003,8|2,0:0|0:0,0:0:0:0:
282,154,165298,1,8,0:0:0:0:
363,288,165470,6,0,L|375:330,13,37.5,2|0|0|0|0|0|0|0|0|0|0|0|0|0,0:0|0:0|0:0|0:0|0:0|0:0|0:0|0:0|0:0|0:0|0:0|0:0|0:0|0:0,0:0:0:0:
376,352,166677,6,0,P|336:368|274:352,1,82.5000025177003,2|0,0:1|0:0,0:0:0:0:
185,275,167022,5,2,0:0:0:0:
200,70,172194,6,0,B|144:63|139:99|77:84,1,112.5,4|0,3:0|0:0,0:0:0:0:
53,80,172539,6,0,B|26:114|25:146|25:146|69:195|59:244|59:244|97:258|132:233,1,247.500007553101,6|0,0:0|0:0,0:0:0:0:
179,177,173229,1,8,0:0:0:0:
251,138,173401,1,0,0:0:0:0:
332,150,173573,1,0,0:0:0:0:
381,216,173746,1,0,0:0:0:0:
361,295,173918,6,0,B|281:321|260:256|172:301|172:301|203:305|237:300,1,247.500007553101,2|0,0:0|0:0,0:0:0:0:
326,201,174608,1,8,0:0:0:0:
326,201,174694,1,0,0:0:0:0:
326,201,174780,1,0,0:0:0:0:
326,201,174867,1,0,0:0:0:0:
326,201,174953,2,0,L|312:99,1,82.5000025177003,0|0,0:0|0:0,0:0:0:0:
220,65,175298,6,0,L|208:147,1,60,2|0,0:0|0:0,0:0:0:0:
138,202,175642,6,0,P|88:211|36:195,1,82.5000025177003,0|0,0:0|0:0,0:0:0:0:
3,141,175987,1,8,0:0:0:0:
17,60,176159,1,0,0:0:0:0:
79,6,176331,1,0,0:0:0:0:
162,8,176505,1,0,0:0:0:0:
220,65,176677,6,0,B|282:94|335:66|335:66|287:106|291:171|291:171|347:132|412:168,1,360,2|0,0:0|0:0,0:0:0:0:
358,357,178056,6,0,L|352:253,1,104.999996795654,6|2,0:0|0:0,0:0:0:0:
273,243,178573,1,0,0:0:0:0:
194,235,178746,2,0,L|190:182,1,52.4999983978272,2|0,0:0|0:0,0:0:0:0:
113,166,179091,2,0,L|109:113,1,52.4999983978272,2|0,0:0|0:0,0:0:0:0:
115,34,179436,5,2,0:0:0:0:
190,16,179608,1,0,0:0:0:0:
265,38,179780,1,2,0:0:0:0:
320,93,179953,1,0,0:0:0:0:
341,169,180125,2,0,L|408:166,1,52.4999983978272,2|0,0:0|0:0,0:0:0:0:
442,228,180470,2,0,L|509:225,1,52.4999983978272,2|0,0:0|0:0,0:0:0:0:
418,305,180815,6,0,L|292:310,1,104.999996795654,2|2,0:0|0:0,0:0:0:0:
252,360,181332,2,0,P|234:311|265:245,1,104.999996795654,0|0,0:0|0:0,0:0:0:0:
299,201,181849,6,0,P|250:219|184:188,1,104.999996795654,2|2,0:0|0:0,0:0:0:0:
248,140,182367,2,0,L|243:35,1,104.999996795654,0|0,0:0|0:0,0:0:0:0:
167,12,182884,6,0,L|110:14,1,52.4999983978272,2|0,0:0|0:0,0:0:0:0:
65,75,183229,2,0,L|8:77,1,52.4999983978272,2|0,0:0|0:0,0:0:0:0:
2,166,183573,6,0,L|7:210,3,30,2|0|2|0,0:0|0:0|0:0|0:0,0:0:0:0:
79,230,183918,2,0,L|74:274,3,30,2|0|2|0,0:0|0:0|0:0|0:0,0:0:0:0:
140,309,184263,6,0,L|196:304,3,30,2|0|2|0,0:0|0:0|0:0|0:0,0:0:0:0:
225,246,184608,2,0,L|281:251,3,30,2|0|2|0,0:0|0:0|0:0|0:0,0:0:0:0:
323,299,184953,5,2,0:0:0:0:
353,312,185039,1,0,0:0:0:0:
386,312,185125,1,2,0:0:0:0:
418,302,185211,1,0,0:0:0:0:
442,278,185298,2,0,L|435:223,3,33.7499989700318,2|0|2|0,0:0|0:0|0:0|0:0,0:0:0:0:
425,161,185642,5,2,0:0:0:0:
391,168,185729,1,0,0:0:0:0:
357,163,185815,1,2,0:0:0:0:
326,149,185901,1,0,0:0:0:0:
303,123,185987,2,0,L|251:121,3,33.7499989700318,2|0|2|0,0:0|0:0|0:0|0:0,0:0:0:0:
194,63,186332,5,2,0:0:0:0:
156,68,186418,1,2,0:0:0:0:
118,74,186505,1,2,0:0:0:0:
81,79,186591,1,2,0:0:0:0:
44,86,186677,2,0,L|56:145,1,37.5,2|2,0:0|0:0,0:0:0:0:
72,213,186849,5,2,0:0:0:0:
105,230,186936,1,2,0:0:0:0:
141,235,187022,1,2,0:0:0:0:
178,235,187108,1,2,0:0:0:0:
214,227,187194,1,2,0:0:0:0:
246,209,187280,1,2,0:0:0:0:
274,184,187367,6,0,L|281:239,3,37.5,2|2|2|2,0:0|0:0|0:0|0:0,0:0:0:0:
306,320,187711,5,8,3:0:0:0:
346,309,187798,1,8,3:0:0:0:
386,314,187884,1,8,3:0:0:0:
419,337,187970,1,8,3:0:0:0:
442,370,188056,1,8,3:0:0:0:
492,234,188229,5,8,3:0:0:0:
503,274,188316,1,8,3:0:0:0:
498,314,188402,1,8,3:0:0:0:
475,347,188488,1,8,3:0:0:0:
442,370,188574,1,8,3:0:0:0:
233,318,188746,6,0,B|238:251|238:251|238:252|238:252|243:180,1,112.5,4|0,1:0|0:0,0:0:0:0:
247,167,189091,6,0,P|175:203|69:147,1,179.999994506836,6|8,0:0|0:0,0:0:0:0:
158,3,189608,2,0,L|166:93,1,89.9999972534181,0|0,0:0|0:0,0:0:0:0:
257,19,189953,1,2,0:0:0:0:
58,59,190125,2,0,L|65:148,1,89.9999972534181,8|0,0:0|0:0,0:0:0:0:
123,290,190470,6,0,P|210:319|301:255,1,179.999994506836,2|8,0:0|0:0,0:0:0:0:
199,205,190987,1,0,0:0:0:0:
367,326,191160,2,2,B|375:281|375:281|363:221,1,89.9999972534181,0|2,0:1|0:0,0:1:0:0:
292,102,191505,2,0,P|361:100|432:34,1,134.999995880127,8|0,0:0|0:0,0:0:0:0:
439,32,191849,6,0,P|489:95|483:201,1,179.999994506836,2|8,0:0|0:0,0:0:0:0:
366,238,192367,2,0,L|259:224,1,89.9999972534181,0|0,0:0|0:0,0:0:0:0:
372,138,192711,1,2,0:0:0:0:
264,315,192884,2,0,B|240:278|240:278|249:142,1,179.999994506836,8|0,0:0|0:0,0:0:0:0:
153,11,193401,1,2,0:0:0:0:
59,142,193573,2,0,L|67:255,1,89.9999972534181,8|0,0:0|0:0,0:0:0:0:
155,119,193918,5,0,0:0:0:0:
6,53,194091,1,2,0:0:0:0:
65,231,194263,2,0,L|54:329,1,89.9999972534181,8|0,0:0|0:0,0:0:0:0:
298,301,194608,6,0,P|251:256|147:296,1,179.999994506836,6|8,0:0|0:0,0:0:0:0:
388,368,195125,2,0,L|398:278,1,89.9999972534181,0|0,0:0|0:0,0:0:0:0:
497,340,195470,1,2,0:0:0:0:
354,166,195642,2,0,P|306:156|251:165,1,89.9999972534181,8|0,0:0|0:0,0:0:0:0:
108,201,195987,6,0,L|121:14,1,179.999994506836,2|8,0:0|0:0,0:0:0:0:
210,97,196505,1,0,0:0:0:0:
11,39,196677,2,2,B|9:72|9:72|3:94|3:94|0:149,1,89.9999972534181,0|2,0:1|0:0,0:1:0:0:
49,283,197022,2,0,P|113:302|183:267,1,134.999995880127,8|0,0:0|0:0,0:0:0:0:
200,245,197367,6,0,B|267:238|267:238|317:257|317:257|401:249,1,179.999994506836,6|8,0:0|0:0,0:0:0:0:
497,94,197884,2,0,B|430:87|430:87|380:106|380:106|296:98,1,179.999994506836,0|2,0:0|0:0,0:0:0:0:
152,68,198401,2,0,L|163:174,1,89.9999972534181,8|0,0:0|0:0,0:0:0:0:
175,319,198746,5,0,0:0:0:0:
267,186,198918,1,2,0:0:0:0:
94,239,199091,2,0,P|49:242|-1:224,1,89.9999972534181,12|0,0:0|0:0,0:0:0:0:
158,114,199436,2,0,P|177:73|218:39,1,89.9999972534181,6|2,0:0|0:0,0:0:0:0:
235,228,199780,2,0,P|260:265|269:317,1,89.9999972534181,12|0,0:0|0:0,0:0:0:0:
50,300,200125,6,0,P|126:264|185:325,1,179.999994506836,6|8,0:0|0:0,0:0:0:0:
340,372,200642,2,0,P|361:330|354:271,1,89.9999972534181,0|0,0:0|0:0,0:0:0:0:
321,167,200987,1,2,0:0:0:0:
185,324,201160,2,0,P|228:329|278:300,1,89.9999972534181,8|0,0:0|0:0,0:0:0:0:
92,200,201505,6,0,L|85:380,1,179.999994506836,2|8,0:0|0:0,0:0:0:0:
215,247,202022,1,0,0:0:0:0:
140,103,202194,2,2,B|108:99|108:99|79:102|79:102|34:99,1,89.9999972534181,0|2,0:1|0:0,0:1:0:0:
247,33,202539,2,0,P|309:21|391:53,1,134.999995880127,8|0,0:0|0:0,0:0:0:0:
407,68,202884,6,0,B|392:197|392:197|423:257,1,179.999994506836,2|8,0:0|0:0,0:0:0:0:
338,353,203401,2,0,P|268:337|237:343,1,89.9999972534181,0|0,0:0|0:0,0:0:0:0:
118,365,203746,1,2,0:0:0:0:
177,224,203918,2,0,B|192:95|192:95|161:35,1,179.999994506836,8|0,0:0|0:0,0:0:0:0:
71,117,204436,1,2,0:0:0:0:
278,202,204608,2,0,L|292:85,1,89.9999972534181,8|0,0:0|0:0,0:0:0:0:
344,284,204953,5,0,0:0:0:0:
177,224,205125,1,2,0:0:0:0:
377,168,205298,2,0,L|476:175,1,89.9999972534181,8|0,0:0|0:0,0:0:0:0:
247,296,205642,6,0,P|165:324|87:268,1,179.999994506836,6|8,0:0|0:0,0:0:0:0:
170,134,206160,2,0,L|177:224,1,89.9999972534181,0|0,0:0|0:0,0:0:0:0:
289,113,206505,1,2,0:0:0:0:
97,66,206677,2,0,P|74:110|73:159,1,89.9999972534181,8|0,0:0|0:0,0:0:0:0:
344,128,207022,6,0,B|294:106|253:129|253:129|214:149|167:133,1,179.999994506836,2|8,0:0|0:0,0:0:0:0:
205,40,207539,1,0,0:0:0:0:
298,213,207711,2,2,B|343:221|343:221|401:209,1,89.9999972534181,0|2,0:1|0:0,0:1:0:0:
235,339,208056,2,0,P|173:322|77:352,1,134.999995880127,8|0,0:0|0:0,0:0:0:0:
69,356,208401,6,0,L|80:175,1,179.999994506836,2|8,0:0|0:0,0:0:0:0:
219,76,208918,2,0,L|224:166,1,89.9999972534181,0|0,0:0|0:0,0:0:0:0:
316,10,209263,1,2,0:0:0:0:
112,82,209436,2,0,L|21:76,1,89.9999972534181,8|0,0:0|0:0,0:0:0:0:
166,236,209780,1,2,0:0:0:0:
166,236,210125,6,0,P|224:214|314:243,2,150,0|0|2,0:0|0:0|0:1,0:0:0:0:
166,236,211160,6,0,B|131:177|154:130|154:130|187:68|157:11,1,225,4|0,3:0|0:0,0:0:0:0:
248,170,211849,2,0,L|334:160,1,82.5000025177003,8|0,0:0|0:0,0:0:0:0:
452,211,212194,1,0,0:0:0:0:
452,211,212280,1,0,0:0:0:0:
452,211,212367,2,0,P|458:236|457:268,1,41.2500012588501,0|0,0:0|0:0,0:0:0:0:
403,338,212539,6,0,L|317:328,1,82.5000025177003,2|0,0:0|0:0,0:0:0:0:
208,275,212884,2,0,L|175:279,6,20.6250006294251,0|0|0|0|0|0|0,0:0|0:0|0:0|0:0|0:0|0:0|0:0,0:0:0:0:
162,279,213229,1,8,0:0:0:0:
145,261,213315,1,0,0:0:0:0:
135,238,213401,1,0,0:0:0:0:
131,213,213487,1,0,0:0:0:0:
139,189,213573,2,0,P|201:194|259:157,1,123.75000377655
279,139,213918,6,0,L|303:312,1,165.000005035401,4|0,3:0|0:0,0:0:0:0:
379,374,214436,1,0,0:0:0:0:
201,287,214608,1,8,0:0:0:0:
390,223,214780,1,0,0:0:0:0:
390,223,214867,1,0,0:0:0:0:
390,223,214953,1,0,0:0:0:0:
248,381,215125,1,0,0:0:0:0:
292,229,215298,6,0,B|387:209|380:275|478:253|478:253|430:295,1,225,4|0,3:0|0:0,0:0:0:0:
441,140,215987,6,0,L|433:34,1,89.9999972534181,8|0,0:0|0:0,0:0:0:0:
258,9,216332,2,0,L|246:156,1,134.999995880127,0|0,0:0|0:0,0:0:0:0:
240,176,216677,6,0,P|184:151|85:255,1,225,6|0,0:0|0:0,0:0:0:0:
149,317,217367,1,8,0:0:0:0:
239,317,217539,1,0,0:0:0:0:
329,317,217711,1,0,0:0:0:0:
420,317,217884,1,0,0:0:0:0:
484,252,218056,6,0,L|474:159,1,82.5000025177003,2|0,0:0|0:0,0:0:0:0:
365,95,218401,2,0,L|355:188,1,82.5000025177003,0|0,0:0|0:0,0:0:0:0:
224,246,218746,1,8,0:0:0:0:
193,258,218832,1,0,0:0:0:0:
160,259,218918,1,0,0:0:0:0:
126,255,219005,1,0,0:0:0:0:
98,236,219091,2,0,L|86:132,1,82.5000025177003,0|0,0:0|0:0,0:0:0:0:
179,74,219436,6,0,L|181:46,5,20,4|0|0|0|0|0,3:0|0:0|0:0|0:0|0:0|0:0,0:0:0:0:
203,34,219780,2,0,P|256:66|332:61,1,123.75000377655,0|0,0:0|0:0,0:0:0:0:
353,46,220125,1,8,0:0:0:0:
457,140,220298,1,0,0:0:0:0:
457,140,220384,1,0,0:0:0:0:
457,140,220470,2,0,L|451:200,1,41.2500012588501,0|0,0:0|0:0,0:0:0:0:
359,244,220643,1,0,0:0:0:0:
359,244,220729,1,0,0:0:0:0:
359,244,220815,6,0,P|295:234|329:301,1,165.000005035401,2|0,0:0|0:0,0:0:0:0:
