osu file format v14

[General]
AudioFilename: audio.mp3
AudioLeadIn: 0
PreviewTime: 58179
Countdown: 0
SampleSet: Soft
StackLeniency: 0.5
Mode: 0
LetterboxInBreaks: 0
WidescreenStoryboard: 0

[Editor]
Bookmarks: 654,43854,89454
DistanceSpacing: 1.3
BeatDivisor: 4
GridSize: 4
TimelineZoom: 3.399999

[Metadata]
Title:Chronos (TV Size)
TitleUnicode:Chronos (TV Size)
Artist:STEREO DIVE FOUNDATION
ArtistUnicode:STEREO DIVE FOUNDATION
Creator:Cris-
Version:Hazu & Cris' Hard
Source:食戟のソーマ 神ノ皿
Tags:Blitzifyyy TheShadowOfDark Hazu- wolf3211 AirinCat Hantrik Crissa [-Crissaegrim-] Darksonic NeKroMan4ik Shokugeki no Soma Souma Shin no Sara Food Wars Season 4 Opening 4th Plate J.C.Staff Anime Japanese
BeatmapID:2194435
BeatmapSetID:1049950

[Difficulty]
HPDrainRate:5
CircleSize:3.8
OverallDifficulty:6
ApproachRate:8
SliderMultiplier:1.4
SliderTickRate:1

[Events]
//Background and Video events
0,0,"Oagariyo.jpg",0,0
Video,200,"Rebels.mp4"
//Break Periods
2,53654,55104
//Storyboard Layer 0 (Background)
//Storyboard Layer 1 (Fail)
//Storyboard Layer 2 (Pass)
//Storyboard Layer 3 (Foreground)
//Storyboard Layer 4 (Overlay)
//Storyboard Sound Samples

[TimingPoints]
654,300,4,2,1,50,1,0
654,-125,4,2,1,50,0,0
4854,-111.111111111111,4,2,1,50,0,0
5154,-111.111111111111,4,2,1,55,0,0
5454,-100,4,2,1,70,0,0
15054,-125,4,2,1,60,0,0
24579,-125,4,2,1,5,0,0
24654,-111.111111111111,4,2,1,65,0,0
33054,-200,4,2,1,55,0,0
34179,-200,4,2,1,5,0,0
34254,-111.111111111111,4,2,1,65,0,0
53454,-125,4,2,1,55,0,0
57654,-125,4,2,1,45,0,0
58254,-100,4,2,1,80,0,1
65304,-100,4,2,1,80,0,0
65454,272.727272727273,4,2,1,80,1,1
65454,-100,4,2,1,80,0,1
65590,310.880829015544,4,2,1,80,1,0
65590,-100,4,2,1,80,0,0
65900,272.727272727273,4,2,1,80,1,1
65900,-100,4,2,1,80,0,1
66036,307.692307692308,4,2,1,80,1,0
66036,-100,4,2,1,80,0,0
66189,324.324324324324,4,2,1,80,1,0
66351,250,4,2,1,80,1,1
66351,-100,4,2,1,80,0,1
66476,352.941176470588,4,2,1,80,1,0
66476,-100,4,2,1,80,0,0
66652,309.278350515464,4,2,1,80,1,0
66805,264.31718061674,4,2,1,80,1,1
66805,-100,4,2,1,80,0,1
66937,295.566502463054,4,2,1,80,1,0
66937,-100,4,2,1,80,0,0
67084,324.324324324324,4,2,1,80,1,0
67246,292.682926829268,4,2,1,80,1,1
67246,-100,4,2,1,80,0,1
67392,337.078651685393,4,2,1,80,1,0
67392,-100,4,2,1,80,0,0
67560,294.117647058824,4,2,1,80,1,0
67560,-100,4,2,1,80,0,0
67780,-100,4,2,1,5,0,0
67854,300,4,2,1,80,1,1
67854,-100,4,2,1,80,0,1
68979,-100,4,2,1,5,0,1
69054,-100,4,2,1,80,0,1
70179,-100,4,2,1,5,0,1
70254,-100,4,2,1,80,0,1
71379,-100,4,2,1,5,0,1
71454,-100,4,2,1,80,0,1
72579,-100,4,2,1,5,0,1
72654,-100,4,2,1,80,0,1
73779,-100,4,2,1,5,0,1
73854,-100,4,2,1,80,0,1
74904,-100,4,2,1,80,0,0
75054,-100,4,2,1,80,0,1
75204,-100,4,2,1,80,0,0
75504,-100,4,2,1,80,0,1
75654,-100,4,2,1,80,0,0
75954,-100,4,2,1,80,0,1
76104,-100,4,2,1,80,0,0
76404,-100,4,2,1,80,0,1
76554,-100,4,2,1,80,0,0
77454,-100,4,2,1,80,0,1
84654,272.727272727273,4,2,1,70,1,0
84654,-100,4,2,1,70,0,0
84790,300,4,2,1,70,1,0
84940,324.324324324324,4,2,1,70,1,0
85102,272.727272727273,4,2,1,70,1,0
85238,307.692307692308,4,2,1,70,1,0
85391,326.086956521739,4,2,1,70,1,0
85554,300,4,2,1,70,1,0
86154,292.682926829268,4,2,1,70,1,0
86300,279.06976744186,4,2,1,70,1,0
86439,291.26213592233,4,2,1,70,1,0
86583,324.324324324324,4,2,1,70,1,0
86745,310.880829015544,4,2,1,70,1,0
87054,300,4,2,1,60,1,0
87054,-100,4,2,1,60,0,0
89454,-100,4,2,1,5,0,0

[Colours]
Combo1 : 243,187,71
Combo2 : 255,62,62
Combo3 : 186,117,255
Combo4 : 67,126,224

[HitObjects]
256,192,654,12,2,4854,0:0:0:0:
108,172,5454,6,0,B|182:159|169:224|260:202,1,140,14|0,0:0|1:0,0:0:0:0:
306,154,5904,2,0,P|367:135|445:191,1,140,10|0,0:0|1:0,0:0:0:0:
475,239,6354,2,0,P|468:272|457:331,1,70,14|0,0:0|1:0,0:0:0:0:
398,363,6654,1,0,1:0:0:0:
325,321,6804,2,0,B|280:314|280:314|240:336|240:336|176:329,1,140,10|0,0:0|1:0,0:0:0:0:
119,286,7254,2,0,P|90:291|40:301,1,70,10|0,0:0|1:0,0:0:0:0:
11,223,7554,2,0,P|40:218|90:208,1,70,10|0,0:0|1:2,0:0:0:0:
166,162,7854,6,0,P|180:99|201:5,1,140,14|0,0:0|1:0,0:0:0:0:
276,52,8304,2,0,P|262:115|241:209,1,140,10|0,0:0|1:0,0:0:0:0:
302,253,8754,2,0,P|310:284|320:332,1,70,14|0,0:0|1:0,0:0:0:0:
397,350,9054,1,0,1:0:0:0:
471,310,9204,2,0,P|490:252|437:174,1,140,10|0,0:0|1:0,0:0:0:0:
379,150,9654,2,0,P|340:156|293:168,1,70,2|2,1:2|1:2,0:0:0:0:
243,110,9954,2,0,P|204:116|157:128,1,70,2|0,1:2|1:0,0:0:0:0:
92,177,10254,6,0,B|68:222|68:222|106:323,1,140,14|0,0:0|1:0,0:0:0:0:
176,340,10704,2,0,B|200:295|200:295|162:194,1,140,10|0,0:0|1:0,0:0:0:0:
220,145,11154,2,0,P|263:141|310:172,1,70,14|0,0:0|1:0,0:0:0:0:
329,223,11454,1,0,1:0:0:0:
412,210,11604,2,0,P|443:156|401:72,1,140,10|0,0:0|1:0,0:0:0:0:
352,34,12054,2,0,P|308:25|261:15,1,70,10|0,0:0|1:0,0:0:0:0:
213,66,12354,2,0,P|169:57|122:47,1,70,10|0,0:0|1:0,0:0:0:0:
47,36,12654,6,0,P|65:106|83:184,1,140,14|0,0:0|1:0,0:0:0:0:
19,229,13104,2,0,P|37:299|55:377,1,140,10|0,0:0|1:0,0:0:0:0:
136,362,13554,2,0,P|126:316|115:274,1,70,14|0,0:0|1:0,0:0:0:0:
176,231,13854,1,0,1:0:0:0:
235,289,14004,2,0,P|303:305|381:324,1,140,10|0,0:0|1:0,0:0:0:0:
441,274,14454,1,10,0:0:0:0:
441,274,14604,2,0,P|469:281|522:294,2,70,8|8|8,0:3|0:3|0:3,0:0:0:0:
365,214,15054,6,0,P|332:150|371:57,1,168,6|2,1:2|0:0,0:0:0:0:
441,33,15654,1,2,0:0:0:0:
245,191,16104,1,2,1:2:0:0:
245,191,16254,2,0,P|162:173|80:155,1,168,2|2,0:0|0:0,0:0:0:0:
21,95,16854,2,0,P|13:59|2:17,1,56,2|2,0:0|1:2,0:0:0:0:
84,5,17154,2,0,P|92:41|103:83,1,56,10|2,0:0|0:0,0:0:0:0:
187,88,17454,5,2,1:2:0:0:
434,42,17904,1,2,0:0:0:0:
434,42,18054,2,0,P|421:92|390:223,1,168,2|2,0:0|0:0,0:0:0:0:
369,285,18654,2,0,P|349:203|328:121,1,168,2|2,1:2|0:0,0:0:0:0:
258,74,19254,2,0,P|225:66|194:71,1,56,2|2,0:0|1:2,0:0:0:0:
149,133,19554,2,0,P|121:134|94:127,1,56,8|2,0:0|0:0,0:0:0:0:
32,55,19854,6,0,B|50:123|50:123|30:196|30:196|52:285,1,224,2|2,1:2|0:0,0:0:0:0:
296,318,20904,1,2,1:2:0:0:
296,318,21054,2,0,P|306:244|241:177,1,168,2|2,0:0|0:0,0:0:0:0:
80,154,21804,2,0,P|53:162|13:173,2,56,2|10|2,1:2|0:0|0:0,0:0:0:0:
170,122,22254,5,2,1:2:0:0:
413,58,22704,1,2,0:0:0:0:
413,58,22854,2,0,P|394:136|373:227,1,168,2|2,0:0|0:0,0:0:0:0:
401,301,23454,1,2,1:2:0:0:
248,230,23754,1,8,0:0:0:0:
248,230,23904,2,0,P|220:235|170:244,1,56,0|2,1:2|1:2,0:0:0:0:
138,303,24204,1,2,1:2:0:0:
57,277,24354,2,0,P|35:233|43:184,1,84,10|0,0:0|0:0,0:0:0:0:
60,161,24654,5,6,1:2:0:0:
206,63,24954,2,0,P|234:58|290:48,1,62.9999980773926,10|0,0:0|3:2,0:0:0:0:
342,98,25254,1,2,1:2:0:0:
342,98,25404,2,0,P|370:93|426:83,1,62.9999980773926,2|10,3:2|0:0,0:0:0:0:
469,136,25704,2,0,P|457:182|436:271,1,125.999996154785,2|0,3:2|3:0,0:0:0:0:
365,296,26154,2,0,P|373:324|381:366,2,62.9999980773926,10|0|2,0:2|3:0|1:2,0:0:0:0:
298,247,26604,1,2,3:2:0:0:
226,287,26754,2,0,P|199:280|148:271,1,62.9999980773926,10|0,0:2|3:2,0:0:0:0:
85,314,27054,5,2,1:2:0:0:
33,158,27354,2,0,P|60:165|111:174,1,62.9999980773926,8|2,0:0|3:2,0:0:0:0:
165,131,27654,1,0,1:2:0:0:
165,131,27804,2,0,P|195:136|226:144,1,62.9999980773926,2|8,3:2|0:0,0:0:0:0:
288,198,28104,2,0,P|276:132|261:65,1,125.999996154785,2|0,3:2|3:0,0:0:0:0:
325,21,28554,1,10,0:0:0:0:
450,231,29004,1,10,0:0:0:0:
450,231,29154,2,0,P|441:266|430:320,1,62.9999980773926,2|8,1:2|0:0,0:0:0:0:
362,343,29454,5,6,1:2:0:0:
296,192,29754,2,0,P|302:161|310:130,1,62.9999980773926,10|0,0:0|3:0,0:0:0:0:
250,74,30054,2,0,P|202:83|116:100,1,125.999996154785,0|10,1:2|0:0,0:0:0:0:
57,143,30504,2,0,P|37:198|74:263,1,125.999996154785,2|0,3:2|3:0,0:0:0:0:
142,299,30954,1,10,0:0:0:0:
142,299,31104,2,0,P|203:286|265:275,1,125.999996154785,2|2,3:2|3:2,0:0:0:0:
332,322,31554,2,0,P|372:331|404:340,1,62.9999980773926,10|0,0:0|3:0,0:0:0:0:
472,298,31854,6,0,P|497:228|431:127,1,188.999994232178,2|0,1:2|3:0,0:0:0:0:
367,101,32454,2,0,P|331:107|309:113,3,31.4999990386963,2|2|2|2,1:2|0:0|3:2|0:0,0:0:0:0:
305,134,32754,2,0,P|296:170|284:213,1,62.9999980773926,10|0,0:0|3:0,0:0:0:0:
325,279,33054,6,0,P|287:221|235:335,1,262.5,2|0,1:2|0:0,0:0:0:0:
270,348,34254,5,6,1:2:0:0:
430,316,34554,2,0,P|436:277|422:232,1,62.9999980773926,2|0,1:2|1:0,0:0:0:0:
386,185,34854,1,10,0:0:0:0:
246,99,35154,2,0,P|254:131|263:172,1,62.9999980773926,2|2,0:0|0:0,0:0:0:0:
191,204,35454,2,0,P|176:254|152:344,1,125.999996154785,2|0,1:2|1:2,0:0:0:0:
88,370,35904,1,2,1:2:0:0:
5,228,36204,2,0,P|-4:162|37:107,1,125.999996154785,2|2,1:2|0:0,0:0:0:0:
105,72,36654,6,0,B|147:69|147:69|187:87|187:87|241:82,1,125.999996154785,6|0,1:2|1:2,0:0:0:0:
302,129,37104,1,0,1:0:0:0:
302,129,37254,1,10,0:0:0:0:
431,51,37554,2,0,P|422:92|412:136,1,62.9999980773926,2|0,0:0|0:0,0:0:0:0:
471,182,37854,1,0,1:2:0:0:
471,182,38004,2,0,P|480:233|496:326,1,125.999996154785,8|2,0:0|1:2,0:0:0:0:
431,362,38454,1,10,0:0:0:0:
342,224,38754,2,0,P|294:212|258:205,1,62.9999980773926,10|10,0:0|0:0,0:0:0:0:
224,141,39054,5,0,1:0:0:0:
108,256,39354,2,0,P|114:283|121:315,3,31.4999990386963,2|2|2|2,1:2|1:2|1:2|1:2,0:0:0:0:
94,323,39654,1,10,0:0:0:0:
12,180,39954,2,0,P|4:136|-3:101,1,62.9999980773926,2|8,0:0|0:0,0:0:0:0:
56,57,40254,1,2,1:2:0:0:
169,174,40554,1,2,1:2:0:0:
169,174,40704,2,0,B|211:171|211:171|251:189|251:189|305:184,1,125.999996154785,2|2,1:2|1:2,0:0:0:0:
360,229,41154,2,0,P|367:259|373:290,1,62.9999980773926,2|0,0:0|0:0,0:0:0:0:
323,363,41454,5,2,1:2:0:0:
476,307,41754,1,0,1:0:0:0:
476,307,41904,2,0,P|469:276|462:245,1,62.9999980773926,2|10,1:2|0:0,0:0:0:0:
491,168,42204,1,2,1:2:0:0:
491,168,42354,2,0,P|484:137|477:106,1,62.9999980773926,0|8,0:0|0:0,0:0:0:0:
397,69,42654,5,0,1:2:0:0:
336,123,42804,2,0,P|343:154|348:172,2,31.4999990386963,2|2|2,1:2|1:2|1:2,0:0:0:0:
274,68,43104,1,2,1:2:0:0:
274,68,43179,1,2,1:2:0:0:
274,68,43254,2,0,P|231:60|139:43,1,125.999996154785,10|10,1:2|0:0,0:0:0:0:
72,72,43704,1,8,0:0:0:0:
136,124,43854,6,0,L|177:132,2,41.9999987182618,2|0|0,1:2|1:2|1:2,0:0:0:0:
92,160,44154,2,0,L|51:152,2,41.9999987182618,2|0|0,0:2|1:2|1:2,0:0:0:0:
120,208,44454,2,0,L|96:331,1,125.999996154785,10|0,0:0|0:0,0:0:0:0:
160,384,44904,1,2,0:0:0:0:
224,336,45054,6,0,L|212:275,1,62.9999980773926,2|8,1:2|0:0,0:0:0:0:
272,216,45354,1,2,1:2:0:0:
328,276,45504,1,2,1:2:0:0:
384,216,45654,2,0,L|414:210,2,31.4999990386963,10|2|0,0:0|0:0|1:0,0:0:0:0:
328,156,45954,1,2,0:0:0:0:
272,216,46104,1,8,0:0:0:0:
272,216,46179,1,8,0:0:0:0:
272,216,46254,6,0,P|240:224|212:216,1,62.9999980773926,2|8,1:2|0:0,0:0:0:0:
152,156,46554,2,0,P|120:148|92:156,1,62.9999980773926,2|0,1:2|1:2,0:0:0:0:
32,216,46854,2,0,P|24:248|32:276,2,62.9999980773926,10|2|0,0:0|1:2|0:0,0:0:0:0:
92,156,47304,6,0,L|80:95,1,62.9999980773926,2|2,0:2|1:2,0:0:0:0:
160,80,47604,1,10,0:0:0:0:
160,80,47754,2,0,L|172:141,1,62.9999980773926,2|0,1:2|1:2,0:0:0:0:
252,124,48054,2,0,L|240:63,1,62.9999980773926,10|0,0:0|1:2,0:0:0:0:
320,48,48354,2,0,L|326:78,3,31.4999990386963,10|0|8|0,0:0|0:0|0:0|0:0,0:0:0:0:
336,120,48654,5,4,0:3:0:0:
496,164,48954,2,0,L|490:134,3,31.4999990386963,2|2|2|2,1:2|1:2|1:2|1:2,0:0:0:0:
480,92,49254,2,0,L|419:104,1,62.9999980773926,8|2,0:0|1:2,0:0:0:0:
336,120,49554,1,0,0:0:0:0:
256,136,49704,6,0,L|280:259,1,125.999996154785,2|8,0:0|0:0,0:0:0:0:
296,340,50154,2,0,L|235:352,1,62.9999980773926,2|0,1:2|1:2,0:0:0:0:
156,384,50454,2,0,P|148:352|156:324,2,62.9999980773926,10|0|2,0:0|1:2|0:0,0:0:0:0:
234,352,50904,6,0,P|258:292|234:240,1,125.999996154785,10|10,0:0|0:0,0:0:0:0:
212,204,51279,1,0,0:0:0:0:
212,204,51354,2,0,P|204:172|212:144,1,62.9999980773926,2|0,1:2|1:2,0:0:0:0:
288,112,51654,2,0,P|296:144|288:172,1,62.9999980773926,10|0,0:0|1:2,0:0:0:0:
212,144,51954,1,2,0:0:0:0:
288,112,52104,6,0,B|348:88|348:136|410:112,1,125.999996154785,10|8,0:0|0:0,0:0:0:0:
472,168,52554,2,0,P|480:200|472:228,1,62.9999980773926,2|2,1:2|1:2,0:0:0:0:
412,284,52854,1,8,0:0:0:0:
352,228,53004,1,0,1:2:0:0:
292,284,53154,2,0,L|286:314,3,31.4999990386963,8|0|0|0,0:3|0:0|0:0|0:0,0:0:0:0:
276,356,53454,5,2,1:2:0:0:
256,192,55854,12,2,57654,0:0:0:0:
16,288,58254,6,0,B|84:260|84:316|151:288,1,140,6|8,1:2|0:0,0:0:0:0:
216,220,58704,2,0,P|252:212|283:220,1,70,2|8,1:2|0:0,0:0:0:0:
344,288,59004,1,2,1:2:0:0:
408,220,59154,2,0,P|416:186|407:152,1,70,10|0,0:0|1:2,0:0:0:0:
344,83,59454,6,0,P|408:58|471:83,1,140,10|8,0:0|0:0,0:0:0:0:
408,153,59904,1,0,1:2:0:0:
344,83,60054,2,0,L|330:15,1,70,8|0,0:0|1:2,0:0:0:0:
240,16,60354,2,0,L|226:84,1,70,10|0,0:0|1:2,0:0:0:0:
284,156,60654,6,0,P|309:220|284:283,1,140,10|10,0:0|0:0,0:0:0:0:
214,220,61104,1,2,1:2:0:0:
284,156,61254,2,0,B|352:128|352:184|419:156,1,140,10|8,0:0|0:0,0:0:0:0:
471,83,61704,1,2,1:2:0:0:
420,8,61854,6,0,B|352:-20|352:36|285:8,1,140,10|8,0:0|0:0,0:0:0:0:
232,84,62304,1,0,1:2:0:0:
180,8,62454,2,0,B|112:36|112:-20|45:8,1,140,10|8,0:0|0:0,0:0:0:0:
0,88,62904,1,0,1:2:0:0:
0,88,62979,1,0,1:2:0:0:
0,88,63054,6,0,P|-25:152|0:215,1,140,14|8,0:0|0:0,0:0:0:0:
70,152,63504,2,0,P|103:143|137:152,1,70,0|8,1:2|0:0,0:0:0:0:
204,216,63804,1,2,1:2:0:0:
136,280,63954,2,0,P|102:288|68:279,1,70,10|0,0:0|1:2,0:0:0:0:
0,215,64254,6,0,P|-25:151|-1:87,1,140,10|8,0:0|0:0,0:0:0:0:
70,152,64704,1,0,1:0:0:0:
136,88,64854,2,0,L|150:20,1,70,8|0,0:0|1:0,0:0:0:0:
240,20,65154,2,0,L|254:88,1,70,10|0,0:0|1:0,0:0:0:0:
264,132,65379,1,0,1:0:0:0:
264,132,65454,6,0,L|332:116,1,70,14|0,0:0|1:0,0:0:0:0:
424,116,65745,1,0,1:0:0:0:
424,116,65900,2,0,L|492:132,1,70,14|0,0:0|1:0,0:0:0:0:
492,228,66189,1,0,1:0:0:0:
492,228,66351,2,0,L|424:244,1,70,14|0,0:0|1:0,0:0:0:0:
332,244,66652,1,0,1:0:0:0:
332,244,66806,6,0,L|264:228,1,70,14|0,0:0|1:0,0:0:0:0:
248,320,67084,1,0,1:0:0:0:
248,320,67246,2,0,L|316:334,1,70,10|0,0:0|1:0,0:0:0:0:
332,244,67560,2,0,L|230:220,1,105,8|0,0:0|0:0,0:0:0:0:
184,212,67854,6,0,P|176:178|185:144,1,70,6|0,1:2|1:2,0:0:0:0:
248,75,68154,2,0,P|184:50|121:75,1,140,8|0,0:0|1:2,0:0:0:0:
184,145,68604,1,2,1:2:0:0:
248,75,68754,2,0,L|262:7,1,70,10|0,0:0|0:0,0:0:0:0:
352,8,69054,6,0,L|366:76,1,70,2|0,1:2|1:2,0:0:0:0:
308,148,69354,2,0,B|296:188|296:188|320:240|320:240|308:279,1,140,8|0,0:0|1:0,0:0:0:0:
248,348,69804,1,0,1:2:0:0:
184,280,69954,2,0,L|116:294,1,70,10|0,0:0|0:0,0:0:0:0:
24,312,70254,5,2,1:2:0:0:
56,228,70404,1,0,1:2:0:0:
115,294,70554,2,0,L|129:362,2,70,10|0|2,0:0|0:0|1:2,0:0:0:0:
56,228,71004,1,0,1:2:0:0:
88,144,71154,2,0,L|156:130,1,70,8|2,0:0|0:0,0:0:0:0:
206,196,71454,6,0,L|138:210,1,70,2|0,1:2|1:2,0:0:0:0:
115,294,71754,2,0,L|183:280,1,70,8|0,0:0|0:0,0:0:0:0:
233,346,72054,2,0,L|165:360,1,70,2|2,1:2|1:2,0:0:0:0:
184,280,72354,2,0,L|252:266,1,70,8|2,0:0|0:0,0:0:0:0:
316,324,72654,6,0,P|349:332|383:323,1,70,6|0,1:2|1:2,0:0:0:0:
443,267,72954,2,0,B|431:227|431:227|455:175|455:175|443:136,1,140,8|2,0:0|1:2,0:0:0:0:
428,52,73404,1,2,1:2:0:0:
428,52,73554,2,0,L|496:38,1,70,10|0,0:0|0:0,0:0:0:0:
512,122,73854,6,0,L|444:136,1,70,2|0,1:2|1:2,0:0:0:0:
362,104,74154,2,0,B|294:76|294:132|227:104,1,140,10|0,0:0|1:2,0:0:0:0:
166,34,74604,1,0,1:2:0:0:
102,102,74754,1,10,0:0:0:0:
166,170,74904,1,0,1:0:0:0:
166,170,74979,1,0,1:0:0:0:
166,170,75054,6,0,P|174:204|165:238,2,70,14|0|0,0:0|1:0|1:0,0:0:0:0:
227,104,75504,2,0,P|219:70|228:36,2,70,14|0|0,0:0|1:0|1:0,0:0:0:0:
290,170,75954,6,0,B|262:238|318:238|290:305,1,140,14|0,0:0|1:0,0:0:0:0:
226,370,76404,1,14,0:0:0:0:
226,370,76479,1,8,0:0:0:0:
226,370,76554,2,0,L|192:363,3,35,8|8|8|8,0:0|0:0|0:0|0:0,0:0:0:0:
146,354,76854,2,0,L|153:320,3,35,8|8|8|8,0:0|0:0|0:0|0:0,0:0:0:0:
162,274,77154,2,0,L|196:281,3,35,8|8|8|8,0:0|0:0|0:0|0:0,0:0:0:0:
242,290,77454,6,0,L|270:153,1,140,6|8,1:2|0:0,0:0:0:0:
286,62,77904,1,0,0:0:0:0:
374,78,78054,2,0,L|442:92,1,70,0|2,1:2|0:0,0:0:0:0:
426,182,78354,2,0,L|358:168,1,70,8|0,0:0|0:0,0:0:0:0:
270,153,78654,6,0,L|242:290,1,140,2|10,1:2|0:0,0:0:0:0:
226,378,79104,1,0,0:0:0:0:
136,360,79254,2,0,L|68:346,1,70,0|0,1:0|0:0,0:0:0:0:
84,256,79554,2,0,L|152:270,1,70,10|0,0:0|0:0,0:0:0:0:
242,290,79854,6,0,P|306:315|369:290,1,140,2|10,1:2|0:0,0:0:0:0:
306,220,80304,1,0,0:0:0:0:
242,290,80454,2,0,L|228:358,1,70,0|2,1:2|0:0,0:0:0:0:
136,358,80754,2,0,L|122:290,1,70,8|0,0:0|0:0,0:0:0:0:
180,220,81054,6,0,B|192:180|192:180|168:128|168:128|180:89,1,140,2|8,1:2|0:0,0:0:0:0:
244,20,81504,1,0,0:0:0:0:
308,88,81654,2,0,L|376:74,1,70,0|0,1:0|0:0,0:0:0:0:
392,164,81954,2,0,L|324:178,1,70,8|0,0:0|0:0,0:0:0:0:
232,198,82254,6,0,P|207:262|232:325,1,140,6|10,1:2|0:0,0:0:0:0:
302,262,82704,1,0,0:0:0:0:
232,198,82854,2,0,L|164:212,1,70,0|2,1:2|0:0,0:0:0:0:
148,124,83154,2,0,L|216:110,1,70,8|0,0:0|0:0,0:0:0:0:
308,94,83454,6,0,L|336:231,1,140,2|8,1:2|0:0,0:0:0:0:
352,320,83904,2,0,L|284:334,1,70,0|0,0:0|1:0,0:0:0:0:
192,352,84204,1,2,0:0:0:0:
176,264,84354,2,0,L|244:250,1,70,10|0,0:0|0:0,0:0:0:0:
336,231,84654,6,0,L|322:163,1,70,14|0,0:0|1:0,0:0:0:0:
376,95,84940,1,2,1:2:0:0:
452,136,85102,2,0,L|466:204,1,70,14|0,0:0|1:0,0:0:0:0:
412,276,85391,1,0,1:2:0:0:
336,231,85554,6,0,L|199:259,1,140,14|2,0:0|1:2,0:0:0:0:
112,275,86004,1,10,0:0:0:0:
96,187,86154,1,8,0:0:0:0:
184,171,86300,1,8,0:0:0:0:
199,259,86439,2,0,L|213:327,1,70,2|8,1:2|0:3,0:0:0:0:
126,344,86745,2,0,L|112:276,1,70,8|8,0:3|0:3,0:0:0:0:
96,187,87055,5,6,1:2:0:0:
256,192,87129,12,0,89454,0:0:0:0:
