osu file format v14

[General]
AudioFilename: audio.mp3
AudioLeadIn: 0
PreviewTime: 59250
Countdown: 0
SampleSet: Soft
StackLeniency: 0.7
Mode: 2
LetterboxInBreaks: 0
WidescreenStoryboard: 1

[Editor]
DistanceSpacing: 1.7
BeatDivisor: 12
GridSize: 4
TimelineZoom: 1.6

[Metadata]
Title:ALPHA (TV Size)
TitleUnicode:ALPHA (TV Size)
Artist:STEREO DIVE FOUNDATION
ArtistUnicode:STEREO DIVE FOUNDATION
Creator:rew0825
Version:Rain
Source:憂国のモリアーティ
Tags:Yuukoku no Moriarty the Patriot Patriotism Anime Japanese J-Pop JPop Pop Iida Ryuta 飯田龍太 R·O·N RON Male Vocal ED Ending Sherlock Holmes William James Arthur Conan Doyle
BeatmapID:3150670
BeatmapSetID:1538705

[Difficulty]
HPDrainRate:5
CircleSize:4
OverallDifficulty:8.7
ApproachRate:8.7
SliderMultiplier:2.24
SliderTickRate:2

[Events]
//Background and Video events
0,0,"BG.jpg",0,0
Video,-305,"VDO.mp4"
//Break Periods
//Storyboard Layer 0 (Background)
//Storyboard Layer 1 (Fail)
//Storyboard Layer 2 (Pass)
//Storyboard Layer 3 (Foreground)
//Storyboard Layer 4 (Overlay)
//Storyboard Sound Samples

[TimingPoints]
231,461.538461538462,4,2,1,60,1,0
5769,-100,4,2,1,45,0,0
7384,-100,4,2,1,55,0,0
7615,-100,4,2,1,60,0,0
22384,-100,4,2,2,55,0,0
37154,-100,4,2,1,60,0,0
50077,-100,4,2,2,60,0,0
51923,-100,4,2,1,55,0,0
52038,-100,4,2,1,45,0,0
52846,-100,4,2,1,55,0,0
52961,-100,4,2,1,45,0,0
53769,-100,4,2,1,55,0,0
53884,-100,4,2,1,45,0,0
54692,-100,4,2,1,55,0,0
54807,-100,4,2,1,45,0,0
55615,-100,4,2,1,55,0,0
55730,-100,4,2,1,45,0,0
56538,-100,4,2,1,55,0,0
56653,-100,4,2,1,45,0,0
57461,-100,4,2,1,55,0,0
59307,-100,4,2,1,65,0,1
73384,-100,4,2,2,60,0,1
73615,-100,4,2,1,60,0,1
73731,-100,4,2,2,60,0,1
73961,-100,4,2,2,60,0,0
74077,-100,4,2,1,65,0,1
87231,-100,4,2,1,45,0,0
88384,-100,4,2,1,55,0,0
88846,-100,4,2,1,25,0,0

[Colours]
Combo1 : 227,204,108
Combo2 : 70,108,208
Combo3 : 201,61,85

[HitObjects]
180,332,231,6,0,L|176:216,1,112,4|2,1:2|0:0,0:0:0:0:
300,220,692,2,0,L|304:108,1,112,2|2,0:0|0:0,0:0:0:0:
100,108,1038,2,0,L|96:224,1,112,6|0,1:2|0:0,0:0:0:0:
158,219,1384,2,0,L|277:219,2,112,6|2|2,1:2|0:0|0:0,0:0:0:0:
362,222,1961,6,0,L|366:338,1,112,6|0,1:2|0:0,0:0:0:0:
304,336,2307,2,0,L|188:338,2,112,6|2|2,1:2|0:0|0:0,0:0:0:0:
100,336,2884,2,0,L|96:224,1,112,6|0,1:2|0:0,0:0:0:0:
204,224,3231,2,0,L|324:224,1,112,6|2,1:2|0:0,0:0:0:0:
132,224,3577,2,0,L|128:112,1,112,4|0,1:2|0:0,0:0:0:0:
316,224,3923,6,0,L|320:112,1,112,4|2,1:2|0:0,0:0:0:0:
196,112,4384,2,0,L|192:224,1,112,2|2,0:0|0:0,0:0:0:0:
396,224,4731,2,0,L|400:340,1,112,6|0,1:2|0:0,0:0:0:0:
337,335,5077,2,0,L|219:337,2,112,6|2|2,1:2|0:0|0:0,0:0:0:0:
256,192,5769,12,2,7384,2:3:0:0:
340,224,7615,6,0,L|476:224,1,112,4|2,1:2|2:1,0:0:0:0:
260,224,8077,2,0,L|144:224,1,112,10|2,2:1|2:1,0:0:0:0:
340,224,8538,2,0,P|384:160|328:104,1,168,2|2,1:1|2:1,0:0:0:0:
216,104,9000,2,0,L|100:104,1,112,8|2,0:0|2:1,0:0:0:0:
396,104,9461,6,0,L|400:216,1,112,2|2,1:2|0:0,0:0:0:0:
276,216,9923,1,10,0:0:0:0:
468,216,10154,1,2,0:0:0:0:
276,216,10384,1,2,1:2:0:0:
212,220,10500,1,2,0:0:0:0:
220,280,10615,1,2,0:0:0:0:
284,284,10731,1,2,0:0:0:0:
468,284,10846,2,0,L|472:172,1,112,10|0,0:0|0:0,0:0:0:0:
180,172,11307,6,0,L|64:172,1,112,0|2,1:2|2:1,0:0:0:0:
260,172,11769,2,0,L|392:172,1,112,10|2,2:1|2:1,0:0:0:0:
180,172,12231,2,0,P|124:224|176:276,1,168,2|2,1:1|2:1,0:0:0:0:
288,280,12692,2,0,L|404:280,1,112,8|2,0:0|2:1,0:0:0:0:
108,280,13154,5,2,1:3:0:0:
48,280,13269,1,2,2:3:0:0:
108,280,13384,1,2,2:3:0:0:
300,280,13615,1,8,0:0:0:0:
360,272,13731,1,2,2:3:0:0:
352,212,13846,1,2,2:3:0:0:
292,208,13961,1,2,2:3:0:0:
180,208,14077,1,2,1:3:0:0:
120,208,14192,1,2,2:3:0:0:
180,208,14307,1,2,2:3:0:0:
472,208,14538,2,0,L|476:96,1,112,8|0,0:0|0:0,0:0:0:0:
184,92,15000,6,0,L|48:92,1,112,0|2,1:2|2:1,0:0:0:0:
264,92,15461,2,0,L|392:92,1,112,8|2,2:1|2:1,0:0:0:0:
184,92,15923,2,0,P|128:144|180:196,1,168,2|2,1:1|2:1,0:0:0:0:
292,196,16384,2,0,L|420:196,1,112,8|2,0:0|2:1,0:0:0:0:
112,196,16846,6,0,L|108:316,1,112,2|2,1:2|0:0,0:0:0:0:
232,308,17307,1,10,0:0:0:0:
40,308,17538,1,2,0:0:0:0:
232,308,17769,1,2,1:2:0:0:
292,296,17884,1,2,0:0:0:0:
284,236,18000,1,2,0:0:0:0:
224,228,18115,1,2,0:0:0:0:
40,228,18231,2,0,L|36:116,1,112,10|0,0:0|0:0,0:0:0:0:
328,116,18692,6,0,L|464:116,1,112,0|2,1:2|2:1,0:0:0:0:
248,116,19154,2,0,L|108:116,1,112,10|2,2:1|2:1,0:0:0:0:
328,116,19615,2,0,P|384:168|328:216,1,168,2|2,1:1|2:1,0:0:0:0:
216,216,20077,2,0,L|96:216,1,112,8|2,0:0|2:1,0:0:0:0:
396,216,20538,5,2,1:2:0:0:
460,216,20654,2,0,P|484:276|460:312,1,112,8|8,2:3|2:3,0:0:0:0:
348,312,21000,1,8,2:3:0:0:
284,312,21115,1,2,0:0:0:0:
348,312,21231,1,2,0:0:0:0:
168,312,21461,2,0,L|164:200,1,112,8|8,2:3|2:3,0:0:0:0:
348,204,21923,1,8,2:3:0:0:
412,204,22038,1,8,2:3:0:0:
348,204,22154,1,8,2:3:0:0:
36,200,22384,6,0,P|24:140|144:64,1,224,6|8,1:2|0:0,0:0:0:0:
268,68,23077,1,2,0:0:0:0:
80,68,23307,2,0,L|76:244,1,168,2|2,1:2|0:0,0:0:0:0:
140,236,23769,1,8,0:0:0:0:
332,236,24000,6,0,P|400:292|320:364,1,224,2|2,0:0|0:0,0:0:0:0:
128,356,24692,2,0,L|8:356,1,112,10|2,0:0|0:0,0:0:0:0:
208,352,25154,2,0,L|384:352,1,168,2|2,1:2|0:0,0:0:0:0:
316,352,25615,1,8,0:0:0:0:
24,352,25846,6,0,L|20:184,1,168,2|2,0:0|0:0,0:0:0:0:
132,184,26307,2,0,L|264:184,2,112,2|10|2,0:0|0:0|0:0,0:0:0:0:
324,184,27000,2,0,L|328:300,1,112,2|0,1:2|0:0,0:0:0:0:
204,296,27461,1,10,0:0:0:0:
396,296,27692,6,0,P|464:240|384:168,1,224,2|2,0:0|0:0,0:0:0:0:
192,172,28384,2,0,L|188:56,1,112,10|2,0:0|0:0,0:0:0:0:
312,60,28846,2,0,L|316:172,1,112,2|0,1:2|0:0,0:0:0:0:
124,180,29307,1,2,0:0:0:0:
64,180,29423,1,2,0:0:0:0:
124,180,29538,1,2,0:0:0:0:
416,184,29769,6,0,P|476:128|392:48,1,224,2|8,1:2|0:0,0:0:0:0:
268,48,30461,1,2,0:0:0:0:
460,48,30692,2,0,L|464:220,1,168,2|2,1:2|0:0,0:0:0:0:
400,216,31154,1,8,0:0:0:0:
212,216,31384,6,0,L|100:216,1,112,2|0,0:0|1:2,0:0:0:0:
292,216,31846,2,0,L|408:216,2,112,2|10|2,0:0|0:0|0:0,0:0:0:0:
100,216,32538,2,0,L|96:44,1,168,2|2,1:2|0:0,0:0:0:0:
156,48,33000,1,8,0:0:0:0:
448,48,33231,6,0,L|452:216,1,168,2|0,0:0|0:0,0:0:0:0:
340,216,33692,2,0,L|220:216,2,112,2|10|2,0:0|0:0|0:0,0:0:0:0:
148,216,34384,2,0,L|144:336,1,112,2|2,1:2|0:0,0:0:0:0:
268,332,34846,2,0,L|272:216,1,112,10|2,0:0|0:0,0:0:0:0:
212,220,35192,1,2,0:0:0:0:
116,224,35307,6,0,P|60:204|44:156,1,112,0|2,1:2|0:0,0:0:0:0:
108,128,35654,1,2,0:0:0:0:
220,128,35769,2,0,L|340:128,2,112,10|2|2,0:0|0:0|1:2,0:0:0:0:
28,128,36461,1,10,2:3:0:0:
320,128,36692,2,0,L|324:184,1,56,2|8,1:2|2:3,0:0:0:0:
216,184,36923,2,0,L|212:248,1,56,10|8,2:3|2:3,0:0:0:0:
416,240,37154,6,0,L|420:128,1,112,4|0,1:2|0:0,0:0:0:0:
296,128,37615,2,0,L|176:128,1,112,10|0,0:0|0:0,0:0:0:0:
376,128,38077,2,0,P|436:144|452:240,1,168,2|2,1:2|0:0,0:0:0:0:
392,240,38538,1,8,0:0:0:0:
100,240,38769,6,0,P|40:176|124:104,1,224,2|2,0:0|0:0,0:0:0:0:
316,104,39461,2,0,L|432:104,1,112,10|0,0:0|0:0,0:0:0:0:
236,104,39923,2,0,L|120:104,2,112,2|2|10,1:2|0:0|0:0,0:0:0:0:
428,104,40615,1,2,0:0:0:0:
136,104,40846,6,0,L|132:216,1,112,2|0,1:2|0:0,0:0:0:0:
256,212,41307,2,0,L|392:212,1,112,10|0,0:0|0:0,0:0:0:0:
176,212,41769,2,0,L|8:212,1,168,2|2,1:2|0:0,0:0:0:0:
68,212,42231,1,8,0:0:0:0:
360,208,42461,6,0,P|432:152|356:76,1,224,2|2,0:0|0:0,0:0:0:0:
168,72,43154,2,0,L|48:72,1,112,10|0,0:0|0:0,0:0:0:0:
248,72,43615,2,0,L|380:72,2,112,2|2|10,1:2|0:0|0:0,0:0:0:0:
56,72,44307,1,2,0:0:0:0:
348,72,44538,6,0,L|352:192,1,112,2|0,1:2|0:0,0:0:0:0:
228,184,45000,2,0,L|224:296,1,112,10|0,0:0|0:0,0:0:0:0:
416,296,45461,2,0,P|488:260|472:184,1,168,2|2,1:2|0:0,0:0:0:0:
412,184,45923,1,8,0:0:0:0:
120,184,46154,6,0,P|112:252|232:328,1,224,2|2,0:0|0:0,0:0:0:0:
420,336,46846,2,0,L|424:224,1,112,10|0,0:0|0:0,0:0:0:0:
232,220,47307,2,0,L|116:220,2,112,2|2|10,1:2|0:0|0:0,0:0:0:0:
424,220,48000,1,2,0:0:0:0:
132,220,48231,6,0,L|128:96,1,112,2|0,1:2|0:0,0:0:0:0:
252,108,48692,2,0,L|256:220,1,112,10|0,0:0|0:0,0:0:0:0:
64,216,49154,2,0,P|28:268|88:336,1,168,2|2,1:2|0:0,0:0:0:0:
152,336,49615,1,8,0:0:0:0:
444,336,49846,6,0,L|448:224,1,112,2|0,0:0|1:2,0:0:0:0:
388,224,50192,1,8,2:3:0:0:
448,224,50307,1,2,0:0:0:0:
256,224,50538,2,0,P|208:164|268:120,1,168,2|0,1:2|1:2,0:0:0:0:
380,124,51000,2,0,L|496:124,1,112,10|8,2:3|2:3,0:0:0:0:
200,124,51461,2,0,L|196:184,1,56,10|8,1:3|1:3,0:0:0:0:
304,184,51692,2,0,L|308:244,1,56,8|8,1:3|1:3,0:0:0:0:
104,240,51923,5,6,1:2:0:0:
48,140,52154,1,2,0:0:0:0:
104,240,52384,1,2,0:0:0:0:
228,240,52615,1,0,0:0:0:0:
352,240,52846,1,2,1:2:0:0:
228,240,53077,1,2,0:0:0:0:
40,240,53307,2,0,L|36:124,1,112,8|0,2:3|0:0,0:0:0:0:
352,136,53769,5,4,1:2:0:0:
476,148,54000,1,2,0:0:0:0:
464,272,54231,1,2,0:0:0:0:
340,284,54461,1,0,0:0:0:0:
148,284,54692,1,2,1:2:0:0:
152,160,54923,1,2,0:0:0:0:
344,160,55154,1,8,2:3:0:0:
400,160,55269,1,0,0:0:0:0:
404,160,55384,1,0,0:0:0:0:
112,160,55615,6,0,L|108:276,1,112,4|2,1:2|0:0,0:0:0:0:
300,276,56077,2,0,L|420:276,1,112,2|2,0:0|0:0,0:0:0:0:
100,280,56538,2,0,L|96:168,1,112,6|2,1:2|0:0,0:0:0:0:
288,168,57000,2,0,L|172:168,1,112,2|2,0:0|0:0,0:0:0:0:
468,168,57461,6,0,L|472:280,1,112,6|0,1:2|1:2,0:0:0:0:
280,272,57923,1,2,1:2:0:0:
472,276,58154,1,0,1:2:0:0:
280,272,58384,1,2,0:1:0:0:
220,268,58500,1,2,0:1:0:0:
224,328,58615,1,2,0:1:0:0:
348,328,58846,2,0,L|352:264,1,56,2|2,0:1|0:1,0:0:0:0:
248,272,59077,2,0,L|244:212,1,56,2|0,0:1|0:0,0:0:0:0:
444,216,59307,6,0,L|448:104,1,112,6|0,1:2|0:0,0:0:0:0:
256,104,59769,2,0,L|140:104,1,112,10|0,0:0|0:0,0:0:0:0:
436,104,60231,2,0,L|440:216,1,112,2|2,1:2|2:1,0:0:0:0:
372,216,60577,1,2,0:0:0:0:
440,216,60692,1,10,2:1:0:0:
148,216,60923,6,0,P|88:160|172:80,1,224,2|2,0:0|0:0,0:0:0:0:
360,80,61615,2,0,L|480:80,1,112,10|0,0:0|0:0,0:0:0:0:
180,76,62077,2,0,L|68:76,1,112,2|2,1:1|2:1,0:0:0:0:
260,76,62538,1,10,2:1:0:0:
356,76,62654,2,0,L|352:136,1,56,2|0,0:0|0:0,0:0:0:0:
168,132,62884,6,0,P|112:176|164:240,1,168,2|2,0:0|0:0,0:0:0:0:
340,240,63461,1,10,0:0:0:0:
160,240,63692,1,2,0:0:0:0:
452,240,63923,2,0,L|456:128,1,112,2|0,1:2|0:0,0:0:0:0:
264,124,64384,2,0,L|132:124,1,112,10|0,0:0|0:0,0:0:0:0:
340,124,64731,6,0,L|344:184,1,56,2|0,0:0|1:2,0:0:0:0:
176,184,65077,1,2,2:3:0:0:
344,184,65307,2,0,L|456:184,1,112,8|0,0:0|0:0,0:0:0:0:
272,300,65654,2,0,L|192:300,1,56,2|0,0:0|1:2,0:0:0:0:
408,300,66000,1,2,0:0:0:0:
468,296,66115,1,2,0:0:0:0:
464,236,66231,1,10,0:0:0:0:
340,236,66461,1,2,0:0:0:0:
48,232,66692,6,0,L|44:120,1,112,6|0,1:2|0:0,0:0:0:0:
236,116,67154,2,0,L|364:116,1,112,10|0,0:0|0:0,0:0:0:0:
56,116,67615,2,0,L|52:228,1,112,2|2,1:2|2:1,0:0:0:0:
120,228,67961,1,2,0:0:0:0:
52,227,68077,1,10,2:1:0:0:
344,228,68307,6,0,P|408:168|328:92,1,224,2|2,0:0|0:0,0:0:0:0:
136,92,69000,2,0,L|132:208,1,112,10|0,0:0|0:0,0:0:0:0:
424,220,69461,2,0,P|440:268|428:328,1,112,2|2,1:1|2:1,0:0:0:0:
236,336,69923,1,10,2:1:0:0:
140,332,70038,2,0,L|144:272,1,56,2|0,0:0|0:0,0:0:0:0:
328,276,70269,6,0,P|396:264|436:176,1,168,2|2,0:0|0:0,0:0:0:0:
256,180,70846,1,10,0:0:0:0:
436,180,71077,1,2,0:0:0:0:
144,180,71307,2,0,L|140:64,1,112,2|0,1:2|0:0,0:0:0:0:
332,72,71769,2,0,L|444:72,1,112,10|0,0:0|0:0,0:0:0:0:
260,72,72115,6,0,L|192:72,1,56,2|0,0:0|1:2,0:0:0:0:
372,72,72461,1,2,2:3:0:0:
204,72,72692,2,0,L|84:72,1,112,10|0,0:0|0:0,0:0:0:0:
268,72,73038,2,0,L|272:128,1,56,2|0,0:0|1:2,0:0:0:0:
140,128,73384,1,10,2:3:0:0:
432,128,73615,2,0,L|436:184,1,56,10|8,0:2|2:3,0:0:0:0:
328,128,73846,2,0,L|256:128,1,56,10|8,2:3|2:3,0:0:0:0:
468,128,74077,6,0,P|484:180|472:236,1,112,6|0,1:2|0:0,0:0:0:0:
280,240,74538,2,0,L|128:240,1,112,10|0,0:0|0:0,0:0:0:0:
460,240,75000,2,0,L|464:120,1,112,2|2,1:2|2:1,0:0:0:0:
396,128,75346,1,2,0:0:0:0:
463,128,75461,1,10,2:1:0:0:
172,132,75692,6,0,P|104:192|180:276,1,224,2|2,2:1|0:0,0:0:0:0:
368,276,76384,2,0,L|480:272,1,112,10|0,0:0|0:0,0:0:0:0:
188,276,76846,2,0,L|76:272,1,112,2|2,1:1|2:1,0:0:0:0:
268,276,77307,1,10,2:1:0:0:
328,272,77423,1,2,0:0:0:0:
268,276,77538,1,2,0:0:0:0:
84,280,77654,6,0,P|32:224|88:164,1,168,2|2,0:0|0:0,0:0:0:0:
260,164,78231,1,10,0:0:0:0:
80,164,78461,1,2,0:0:0:0:
372,164,78692,2,0,L|492:164,1,112,2|0,1:2|0:0,0:0:0:0:
292,164,79154,2,0,L|168:164,1,112,10|0,0:0|0:0,0:0:0:0:
364,164,79500,6,0,L|368:220,1,56,2|0,0:0|1:2,0:0:0:0:
244,220,79846,1,2,0:0:0:0:
436,220,80077,2,0,L|440:108,1,112,10|2,0:0|0:0,0:0:0:0:
256,108,80423,2,0,P|204:152|264:220,1,168,2|2,0:0|0:0,0:0:0:0:
444,220,81000,2,0,L|448:108,1,112,10|2,0:0|0:0,0:0:0:0:
156,108,81461,6,0,L|40:108,1,112,6|0,1:2|0:0,0:0:0:0:
236,108,81923,2,0,L|360:108,1,112,10|0,0:0|0:0,0:0:0:0:
56,108,82384,2,0,L|52:224,1,112,2|2,1:2|2:1,0:0:0:0:
120,220,82731,1,2,0:0:0:0:
52,219,82846,1,10,2:1:0:0:
344,220,83077,6,0,P|404:152|312:92,1,224,2|2,0:0|0:0,0:0:0:0:
136,88,83769,2,0,L|24:88,1,112,10|0,0:0|0:0,0:0:0:0:
316,88,84231,2,0,L|436:88,1,112,2|2,1:1|2:1,0:0:0:0:
236,88,84692,1,10,2:1:0:0:
176,92,84807,1,2,0:0:0:0:
180,152,84923,1,2,0:0:0:0:
364,152,85038,6,0,P|416:200|352:256,1,168,2|2,0:0|0:0,0:0:0:0:
180,256,85615,1,10,0:0:0:0:
360,256,85846,1,2,0:0:0:0:
68,256,86077,2,0,L|64:144,1,112,2|0,1:2|0:0,0:0:0:0:
256,144,86538,2,0,L|380:144,1,112,10|0,0:0|0:0,0:0:0:0:
184,144,86884,2,0,L|124:144,1,56,2|0,0:0|1:2,0:0:0:0:
308,144,87231,5,2,0:0:0:0:
420,144,87461,1,2,0:0:0:0:
308,144,87692,1,2,0:0:0:0:
128,144,87923,1,2,0:0:0:0:
120,260,88154,1,2,0:0:0:0:
432,256,88384,6,0,P|492:188|404:120,1,224,6|0,1:2|0:0,0:0:0:0:
