osu file format v14

[General]
AudioFilename: audio.mp3
AudioLeadIn: 0
PreviewTime: 59250
Countdown: 0
SampleSet: Soft
StackLeniency: 0.7
Mode: 2
LetterboxInBreaks: 0
WidescreenStoryboard: 1

[Editor]
DistanceSpacing: 2.9
BeatDivisor: 4
GridSize: 4
TimelineZoom: 1.6

[Metadata]
Title:ALPHA (TV Size)
TitleUnicode:ALPHA (TV Size)
Artist:STEREO DIVE FOUNDATION
ArtistUnicode:STEREO DIVE FOUNDATION
Creator:rew0825
Version:Platter
Source:憂国のモリアーティ
Tags:Yuukoku no Moriarty the Patriot Patriotism Anime Japanese J-Pop JPop Pop Iida Ryuta 飯田龍太 R·O·N RON Male Vocal ED Ending Sherlock Holmes William James Arthur Conan Doyle
BeatmapID:3151539
BeatmapSetID:1538705

[Difficulty]
HPDrainRate:4
CircleSize:3.5
OverallDifficulty:7.7
ApproachRate:7.7
SliderMultiplier:2.04
SliderTickRate:2

[Events]
//Background and Video events
0,0,"BG.jpg",0,0
Video,-305,"VDO.mp4"
//Break Periods
//Storyboard Layer 0 (Background)
//Storyboard Layer 1 (Fail)
//Storyboard Layer 2 (Pass)
//Storyboard Layer 3 (Foreground)
//Storyboard Layer 4 (Overlay)
//Storyboard Sound Samples

[TimingPoints]
231,461.538461538462,4,2,1,60,1,0
5769,-100,4,2,1,45,0,0
7384,-100,4,2,1,55,0,0
7615,-100,4,2,1,60,0,0
22384,-100,4,2,2,55,0,0
37154,-100,4,2,1,60,0,0
50077,-100,4,2,2,60,0,0
51923,-100,4,2,1,55,0,0
52038,-100,4,2,1,45,0,0
52846,-100,4,2,1,55,0,0
52961,-100,4,2,1,45,0,0
53769,-100,4,2,1,55,0,0
53884,-100,4,2,1,45,0,0
54692,-100,4,2,1,55,0,0
54807,-100,4,2,1,45,0,0
55615,-100,4,2,1,55,0,0
55730,-100,4,2,1,45,0,0
56538,-100,4,2,1,55,0,0
56653,-100,4,2,1,45,0,0
57461,-100,4,2,1,55,0,0
59307,-100,4,2,1,65,0,1
73384,-100,4,2,2,60,0,1
73615,-100,4,2,1,60,0,1
73731,-100,4,2,2,60,0,1
73961,-100,4,2,2,60,0,0
74077,-100,4,2,1,65,0,1
87231,-100,4,2,1,45,0,0
88384,-100,4,2,1,55,0,0
88846,-100,4,2,1,25,0,0

[Colours]
Combo1 : 227,204,108
Combo2 : 70,108,208
Combo3 : 201,61,85

[HitObjects]
200,332,231,6,0,P|132:288|200:220,1,204,4|2,1:2|0:0,0:0:0:0:
312,220,923,1,2,0:0:0:0:
200,220,1038,2,0,P|128:216|76:156,1,153,6|6,1:2|1:2,0:0:0:0:
84,108,1615,1,2,0:0:0:0:
196,108,1846,1,2,0:0:0:0:
312,108,1961,6,0,P|384:112|436:172,1,153,6|6,1:2|1:2,0:0:0:0:
428,220,2538,1,2,0:0:0:0:
316,220,2769,1,2,0:0:0:0:
200,220,2884,2,0,P|156:172|208:120,1,153,6|6,1:2|1:2,0:0:0:0:
320,124,3461,1,2,0:0:0:0:
204,124,3577,2,0,P|188:76|196:20,1,102,4|0,1:2|0:0,0:0:0:0:
312,20,3923,6,0,P|380:48|320:128,1,204,4|2,1:2|0:0,0:0:0:0:
208,232,4615,1,2,0:0:0:0:
92,232,4731,2,0,P|48:176|104:128,1,153,6|6,1:2|1:2,0:0:0:0:
208,128,5307,1,2,0:0:0:0:
96,128,5538,1,2,0:0:0:0:
256,192,5769,12,2,7154,0:0:0:0:
52,204,7615,6,0,L|48:100,1,102,4|2,1:2|2:1,0:0:0:0:
152,104,8077,1,10,2:1:0:0:
48,104,8307,1,2,2:1:0:0:
252,104,8538,2,0,L|404:104,1,153,2|2,1:1|2:1,0:0:0:0:
400,256,9231,1,2,2:1:0:0:
196,256,9461,6,0,P|108:232|80:128,1,204,2|10,1:2|0:0,0:0:0:0:
192,132,10154,1,2,0:0:0:0:
396,132,10384,1,2,1:2:0:0:
452,132,10500,1,2,0:0:0:0:
396,132,10615,1,2,0:0:0:0:
192,132,10846,2,0,L|80:132,1,102,10|0,0:0|0:0,0:0:0:0:
388,132,11307,6,0,L|392:236,1,102,0|2,1:2|2:1,0:0:0:0:
288,232,11769,1,10,2:1:0:0:
392,232,12000,1,2,2:1:0:0:
188,232,12231,2,0,L|32:232,1,153,2|2,1:1|2:1,0:0:0:0:
40,120,12923,1,2,2:1:0:0:
244,120,13154,6,0,L|248:12,1,102,2|2,1:3|2:3,0:0:0:0:
136,20,13615,1,8,0:0:0:0:
80,20,13731,1,2,2:3:0:0:
136,20,13846,1,2,2:3:0:0:
340,20,14077,1,2,1:3:0:0:
396,20,14192,1,2,2:3:0:0:
340,20,14307,1,2,2:3:0:0:
136,20,14538,2,0,L|132:128,1,102,8|0,0:0|0:0,0:0:0:0:
428,128,15000,6,0,L|432:232,1,102,0|2,1:2|2:1,0:0:0:0:
328,228,15461,1,8,2:1:0:0:
432,228,15692,1,2,2:1:0:0:
228,228,15923,2,0,P|184:184|236:124,1,153,2|2,1:1|2:1,0:0:0:0:
384,124,16615,1,2,2:1:0:0:
180,120,16846,6,0,P|128:168|204:244,1,204,2|10,1:2|0:0,0:0:0:0:
316,244,17538,1,2,0:0:0:0:
112,244,17769,1,2,1:2:0:0:
56,244,17884,1,2,0:0:0:0:
112,244,18000,1,2,0:0:0:0:
316,244,18231,2,0,L|424:244,1,102,10|0,0:0|0:0,0:0:0:0:
120,244,18692,6,0,L|116:140,1,102,0|2,1:2|2:1,0:0:0:0:
220,144,19154,1,10,2:1:0:0:
116,144,19384,1,2,2:1:0:0:
320,144,19615,2,0,P|360:80|308:40,1,153,2|2,1:1|2:1,0:0:0:0:
156,40,20307,1,2,2:1:0:0:
360,40,20538,6,0,P|400:92|352:152,1,153,2|8,1:2|2:3,0:0:0:0:
296,152,21000,2,0,L|176:152,1,102,8|2,2:3|0:0,0:0:0:0:
400,152,21461,2,0,L|404:256,1,102,8|8,2:3|2:3,0:0:0:0:
200,252,21923,1,8,2:3:0:0:
144,248,22038,1,8,2:3:0:0:
148,192,22154,1,8,2:3:0:0:
444,196,22384,6,0,P|484:144|396:72,1,204,6|8,1:2|0:0,0:0:0:0:
284,72,23077,1,2,0:0:0:0:
396,72,23307,2,0,P|440:120|392:180,1,153,2|2,1:2|0:0,0:0:0:0:
116,180,24000,6,0,P|56:224|120:308,1,204,2|2,0:0|0:0,0:0:0:0:
232,308,24692,1,10,0:0:0:0:
228,196,24923,1,2,0:0:0:0:
116,196,25154,2,0,P|80:144|132:84,1,153,2|2,1:2|0:0,0:0:0:0:
408,84,25846,6,0,P|472:136|404:208,1,204,2|2,0:0|0:0,0:0:0:0:
292,204,26538,1,10,0:0:0:0:
292,316,26769,1,2,0:0:0:0:
404,316,27000,2,0,P|472:256|404:196,1,204,2|10,1:2|0:0,0:0:0:0:
200,196,27692,6,0,P|144:136|216:64,1,204,2|2,0:0|0:0,0:0:0:0:
328,68,28384,2,0,P|392:128|324:196,1,204,10|2,0:0|1:2,0:0:0:0:
216,192,29077,1,0,0:0:0:0:
420,196,29307,2,0,L|424:304,1,102,2|2,0:0|0:0,0:0:0:0:
128,296,29769,6,0,P|72:236|144:160,1,204,2|8,1:2|0:0,0:0:0:0:
252,160,30461,1,2,0:0:0:0:
140,160,30692,2,0,P|80:144|40:68,1,153,2|2,1:2|0:0,0:0:0:0:
316,52,31384,6,0,P|376:108|300:176,1,204,2|2,0:0|0:0,0:0:0:0:
192,176,32077,1,10,0:0:0:0:
196,288,32307,1,2,0:0:0:0:
308,292,32538,2,0,P|380:280|428:208,1,153,2|2,1:2|0:0,0:0:0:0:
148,212,33231,6,0,P|88:160|160:88,1,204,2|2,0:0|0:0,0:0:0:0:
272,84,33923,1,10,0:0:0:0:
268,196,34154,1,2,0:0:0:0:
156,196,34384,2,0,P|76:204|32:312,1,204,2|10,1:2|0:0,0:0:0:0:
356,300,35307,6,0,L|360:192,1,102,0|2,1:2|0:0,0:0:0:0:
248,200,35769,2,0,P|144:172|96:80,1,204,10|2,0:0|1:2,0:0:0:0:
292,72,36461,1,10,2:3:0:0:
404,72,36692,1,2,1:2:0:0:
432,120,36807,1,8,2:3:0:0:
404,72,36923,1,10,2:3:0:0:
108,72,37154,6,0,P|48:120|116:204,1,204,4|10,1:2|0:0,0:0:0:0:
224,208,37846,1,0,0:0:0:0:
428,208,38077,2,0,P|464:272|416:328,1,153,2|2,1:2|0:0,0:0:0:0:
144,320,38769,6,0,P|84:272|156:200,1,204,2|2,0:0|0:0,0:0:0:0:
268,200,39461,2,0,L|376:196,1,102,10|0,0:0|0:0,0:0:0:0:
164,200,39923,1,2,1:2:0:0:
52,192,40154,1,2,0:0:0:0:
56,80,40384,1,10,0:0:0:0:
168,68,40615,1,2,0:0:0:0:
464,68,40846,6,0,P|484:144|392:208,1,204,2|10,1:2|0:0,0:0:0:0:
280,204,41538,1,0,0:0:0:0:
76,200,41769,2,0,P|44:136|88:72,1,153,2|2,1:2|0:0,0:0:0:0:
360,64,42461,6,0,P|416:120|344:200,1,204,2|2,0:0|0:0,0:0:0:0:
236,196,43154,2,0,L|232:312,1,102,10|0,0:0|0:0,0:0:0:0:
436,300,43615,1,2,1:2:0:0:
488,200,43846,1,2,0:0:0:0:
436,100,44077,1,10,0:0:0:0:
324,96,44307,1,2,0:0:0:0:
28,92,44538,6,0,P|24:164|120:240,1,204,2|10,1:2|0:0,0:0:0:0:
232,236,45231,1,0,0:0:0:0:
436,236,45461,2,0,P|464:176|416:112,1,153,2|2,1:2|0:0,0:0:0:0:
140,116,46154,6,0,P|128:180|228:260,1,204,2|2,0:0|0:0,0:0:0:0:
336,260,46846,2,0,L|228:260,1,102,10|0,0:0|0:0,0:0:0:0:
28,260,47307,1,2,1:2:0:0:
24,148,47538,1,2,0:0:0:0:
84,52,47769,1,10,0:0:0:0:
196,40,48000,1,2,0:0:0:0:
492,40,48231,6,0,P|488:124|388:172,1,204,2|10,1:2|0:0,0:0:0:0:
276,172,48923,1,0,0:0:0:0:
72,172,49154,2,0,P|32:232|88:296,1,153,2|2,1:2|0:0,0:0:0:0:
348,280,49846,6,0,L|460:280,2,102,2|0|2,0:0|1:2|0:0,0:0:0:0:
144,284,50538,2,0,P|76:232|132:148,1,204,2|10,1:2|2:3,0:0:0:0:
244,148,51231,1,8,2:3:0:0:
448,148,51461,1,10,1:3:0:0:
476,100,51577,1,8,1:3:0:0:
448,148,51692,1,8,1:3:0:0:
152,148,51923,5,6,1:2:0:0:
40,168,52154,1,2,0:0:0:0:
152,180,52384,2,0,P|212:228|140:304,1,204,2|2,0:0|1:2,0:0:0:0:
32,300,53077,1,2,0:0:0:0:
40,188,53307,1,8,2:3:0:0:
152,176,53538,1,0,0:0:0:0:
448,180,53769,5,4,1:2:0:0:
452,68,54000,1,2,0:0:0:0:
340,68,54231,2,0,P|260:84|256:200,1,204,2|2,0:0|1:2,0:0:0:0:
360,192,54923,1,2,0:0:0:0:
472,196,55154,1,8,2:3:0:0:
360,192,55384,1,0,0:0:0:0:
64,200,55615,5,4,1:2:0:0:
24,96,55846,1,2,0:0:0:0:
64,200,56077,1,2,0:0:0:0:
172,232,56307,1,2,0:0:0:0:
468,228,56538,1,6,1:2:0:0:
492,116,56769,1,2,0:0:0:0:
448,220,57000,1,2,0:0:0:0:
348,268,57231,1,2,0:0:0:0:
52,268,57461,6,0,L|48:160,1,102,6|0,1:2|1:2,0:0:0:0:
252,164,57923,2,0,L|256:56,1,102,2|0,1:2|1:2,0:0:0:0:
52,64,58384,2,0,L|48:168,1,102,2|2,0:1|0:1,0:0:0:0:
160,172,58846,1,2,0:1:0:0:
104,172,58961,1,2,0:1:0:0:
48,172,59077,1,2,0:1:0:0:
344,172,59307,6,0,L|348:276,1,102,6|0,1:2|0:0,0:0:0:0:
236,268,59769,2,0,L|232:164,1,102,10|0,0:0|0:0,0:0:0:0:
436,164,60231,2,0,P|484:108|448:44,1,153,2|2,1:2|0:0,0:0:0:0:
40,36,60923,6,0,P|24:100|124:176,1,204,2|2,0:0|0:0,0:0:0:0:
232,176,61615,2,0,L|340:176,1,102,10|0,0:0|0:0,0:0:0:0:
128,176,62077,1,2,1:1:0:0:
24,176,62307,2,0,L|20:280,1,102,2|10,2:1|2:1,0:0:0:0:
76,280,62654,1,2,0:0:0:0:
372,284,62884,6,0,P|416:236|360:176,1,153,2|2,0:0|0:0,0:0:0:0:
256,176,63461,2,0,L|144:176,1,102,10|2,0:0|0:0,0:0:0:0:
360,176,63923,2,0,L|364:72,1,102,2|0,1:2|0:0,0:0:0:0:
252,76,64384,2,0,L|248:180,1,102,10|0,0:0|0:0,0:0:0:0:
368,180,64731,6,0,P|432:192|452:276,1,153,2|2,0:0|2:3,0:0:0:0:
344,268,65307,2,0,L|228:268,1,102,8|0,0:0|0:0,0:0:0:0:
360,268,65654,2,0,P|404:220|356:160,1,153,2|2,0:0|0:0,0:0:0:0:
256,160,66231,1,10,0:0:0:0:
360,160,66461,1,2,0:0:0:0:
60,160,66692,6,0,L|56:264,1,102,6|0,1:2|0:0,0:0:0:0:
168,260,67154,2,0,L|272:252,1,102,10|0,0:0|0:0,0:0:0:0:
64,248,67615,2,0,P|24:196|64:128,1,153,2|2,1:2|0:0,0:0:0:0:
472,140,68307,6,0,P|484:216|384:272,1,204,2|2,0:0|0:0,0:0:0:0:
272,268,69000,2,0,L|160:276,1,102,10|0,0:0|0:0,0:0:0:0:
376,276,69461,1,2,1:1:0:0:
480,272,69692,2,0,L|484:168,1,102,2|10,2:1|2:1,0:0:0:0:
428,172,70038,1,2,0:0:0:0:
132,172,70269,6,0,P|88:112|136:68,1,153,2|2,0:0|0:0,0:0:0:0:
244,68,70846,2,0,L|248:172,1,102,10|2,0:0|0:0,0:0:0:0:
44,68,71307,2,0,L|40:176,1,102,2|0,1:2|0:0,0:0:0:0:
152,176,71769,2,0,L|264:176,1,102,10|0,0:0|0:0,0:0:0:0:
132,176,72115,6,0,P|92:232|144:292,1,153,2|2,0:0|2:3,0:0:0:0:
248,296,72692,2,0,L|252:188,1,102,10|0,0:0|0:0,0:0:0:0:
136,192,73038,2,0,P|100:132|152:76,1,153,2|10,0:0|2:3,0:0:0:0:
352,80,73615,1,10,0:2:0:0:
408,72,73731,1,8,2:3:0:0:
352,80,73846,1,10,2:3:0:0:
56,84,74077,6,0,L|52:192,1,102,6|0,1:2|0:0,0:0:0:0:
164,188,74538,2,0,L|288:184,1,102,10|0,0:0|0:0,0:0:0:0:
472,180,75000,2,0,P|504:248|472:316,1,153,2|2,1:2|0:0,0:0:0:0:
64,328,75692,6,0,P|16:252|92:188,1,204,2|2,2:1|0:0,0:0:0:0:
200,188,76384,2,0,L|324:176,1,102,10|0,0:0|0:0,0:0:0:0:
96,188,76846,2,0,L|92:80,1,102,2|2,1:1|2:1,0:0:0:0:
204,84,77307,2,0,L|312:80,1,102,10|2,2:1|0:0,0:0:0:0:
188,84,77654,6,0,P|144:136|196:196,1,153,2|2,0:0|0:0,0:0:0:0:
392,196,78231,2,0,L|396:308,1,102,10|2,0:0|0:0,0:0:0:0:
192,296,78692,2,0,L|88:288,1,102,2|0,1:2|0:0,0:0:0:0:
204,292,79154,2,0,L|308:284,1,102,10|0,0:0|0:0,0:0:0:0:
188,280,79500,6,0,P|144:232|200:172,1,153,2|2,0:0|0:0,0:0:0:0:
304,172,80077,2,0,L|308:68,1,102,10|2,0:0|0:0,0:0:0:0:
192,68,80423,2,0,P|112:88|80:148,1,153,2|2,0:0|0:0,0:0:0:0:
184,144,81000,1,10,0:0:0:0:
80,144,81231,1,2,0:0:0:0:
376,272,81461,6,0,L|484:260,1,102,6|0,1:2|0:0,0:0:0:0:
364,264,81923,2,0,L|252:256,1,102,10|0,0:0|0:0,0:0:0:0:
60,256,82384,2,0,P|24:192|64:132,1,153,2|2,1:2|0:0,0:0:0:0:
476,140,83077,6,0,P|492:220|396:276,1,204,2|2,0:0|0:0,0:0:0:0:
288,276,83769,2,0,L|184:268,1,102,10|0,0:0|0:0,0:0:0:0:
392,264,84231,2,0,L|396:160,1,102,2|2,1:1|2:1,0:0:0:0:
284,164,84692,2,0,L|280:272,1,102,10|2,2:1|0:0,0:0:0:0:
400,268,85038,6,0,P|464:248|484:168,1,153,2|2,0:0|0:0,0:0:0:0:
280,172,85615,2,0,L|160:172,1,102,10|2,0:0|0:0,0:0:0:0:
384,172,86077,2,0,L|388:284,1,102,2|0,1:2|0:0,0:0:0:0:
276,272,86538,2,0,L|164:272,1,102,10|0,0:0|0:0,0:0:0:0:
288,272,86884,1,2,0:0:0:0:
440,268,87231,6,0,L|496:168,2,102,2|2|2,0:0|0:0|0:0,0:0:0:0:
336,268,87923,1,2,0:0:0:0:
440,268,88154,1,2,0:0:0:0:
144,268,88384,6,0,P|80:192|152:156,1,204,6|0,1:2|0:0,0:0:0:0:
