osu file format v14

[General]
AudioFilename: audio.mp3
AudioLeadIn: 0
PreviewTime: 59250
Countdown: 0
SampleSet: Soft
StackLeniency: 0.7
Mode: 2
LetterboxInBreaks: 0
WidescreenStoryboard: 0

[Editor]
DistanceSpacing: 1.7
BeatDivisor: 12
GridSize: 4
TimelineZoom: 1.7

[Metadata]
Title:ALPHA (TV Size)
TitleUnicode:ALPHA (TV Size)
Artist:STEREO DIVE FOUNDATION
ArtistUnicode:STEREO DIVE FOUNDATION
Creator:rew0825
Version:Patriot
Source:憂国のモリアーティ
Tags:Yuukoku no Moriarty the Patriot Patriotism Anime Japanese J-Pop JPop Pop Iida Ryuta 飯田龍太 R·O·N RON Male Vocal ED Ending Sherlock Holmes William James Arthur Conan Doyle
BeatmapID:3145935
BeatmapSetID:1538705

[Difficulty]
HPDrainRate:6
CircleSize:4.2
OverallDifficulty:9
ApproachRate:9
SliderMultiplier:2.5
SliderTickRate:2

[Events]
//Background and Video events
0,0,"BG.jpg",0,0
Video,-305,"VDO.mp4"
//Break Periods
//Storyboard Layer 0 (Background)
//Storyboard Layer 1 (Fail)
//Storyboard Layer 2 (Pass)
//Storyboard Layer 3 (Foreground)
//Storyboard Layer 4 (Overlay)
//Storyboard Sound Samples

[TimingPoints]
231,461.538461538462,4,2,1,60,1,0
5769,-100,4,2,1,45,0,0
7384,-100,4,2,1,55,0,0
7615,-100,4,2,1,60,0,0
22384,-100,4,2,2,55,0,0
37154,-100,4,2,1,60,0,0
50077,-100,4,2,2,60,0,0
51923,-100,4,2,1,55,0,0
52038,-100,4,2,1,45,0,0
52846,-100,4,2,1,55,0,0
52961,-100,4,2,1,45,0,0
53769,-100,4,2,1,55,0,0
53884,-100,4,2,1,45,0,0
54692,-100,4,2,1,55,0,0
54807,-100,4,2,1,45,0,0
55615,-100,4,2,1,55,0,0
55730,-100,4,2,1,45,0,0
56538,-100,4,2,1,55,0,0
56653,-100,4,2,1,45,0,0
57461,-100,4,2,1,55,0,0
59307,-100,4,2,1,65,0,1
73384,-100,4,2,2,60,0,1
73615,-100,4,2,1,60,0,1
73731,-100,4,2,2,60,0,1
73961,-100,4,2,2,60,0,0
74077,-100,4,2,1,65,0,1
87231,-100,4,2,1,45,0,0
88384,-100,4,2,1,55,0,0
88846,-100,4,2,1,25,0,0

[Colours]
Combo1 : 227,204,108
Combo2 : 70,108,208
Combo3 : 201,61,85

[HitObjects]
224,192,231,6,0,L|92:192,1,125,4|2,1:2|0:0,0:0:0:0:
288,192,692,2,0,L|420:192,1,125,2|2,0:0|0:0,0:0:0:0:
224,192,1038,2,0,P|192:156|224:96,1,125,6|0,1:2|0:0,0:0:0:0:
412,96,1384,2,0,L|416:160,1,62.5,6|0,1:2|0:0,0:0:0:0:
312,160,1615,2,0,L|164:160,1,125,2|2,0:0|0:0,0:0:0:0:
396,160,1961,6,0,P|428:196|396:256,1,125,6|0,1:2|0:0,0:0:0:0:
208,256,2307,2,0,L|204:188,1,62.5,6|0,1:2|0:0,0:0:0:0:
308,196,2538,2,0,L|444:196,1,125,2|2,0:0|0:0,0:0:0:0:
244,196,2884,2,0,L|108:196,1,125,6|0,1:2|0:0,0:0:0:0:
308,196,3231,2,0,L|312:132,1,62.5,6|0,1:2|0:0,0:0:0:0:
208,132,3461,1,2,0:0:0:0:
396,136,3577,2,0,P|428:104|396:40,1,125,4|0,1:2|0:0,0:0:0:0:
188,40,3923,6,0,L|52:40,1,125,4|2,1:2|0:0,0:0:0:0:
252,40,4384,2,0,L|404:40,1,125,2|2,0:0|0:0,0:0:0:0:
188,40,4731,2,0,P|156:76|188:136,1,125,6|0,1:2|0:0,0:0:0:0:
376,144,5077,2,0,L|380:212,1,62.5,6|0,1:2|0:0,0:0:0:0:
276,208,5307,2,0,L|152:208,1,125,2|2,0:0|0:0,0:0:0:0:
256,192,5769,12,2,7384,2:3:0:0:
156,80,7615,5,4,1:2:0:0:
344,80,7846,1,2,2:1:0:0:
156,80,8077,2,0,L|152:216,1,125,10|2,2:1|2:1,0:0:0:0:
440,204,8538,2,0,L|444:328,1,125,2|0,1:1|0:0,0:0:0:0:
364,328,8884,1,2,2:1:0:0:
284,328,9000,1,8,0:0:0:0:
472,328,9231,1,2,2:1:0:0:
186,324,9461,6,0,L|54:324,1,125,2|2,1:2|0:0,0:0:0:0:
250,324,9923,1,10,0:0:0:0:
62,324,10154,2,0,L|58:260,1,62.5,2|0,0:0|0:0,0:0:0:0:
244,264,10384,2,0,L|328:264,1,62.5,2|2,1:2|0:0,0:0:0:0:
200,264,10615,2,0,L|132:264,1,62.5,2|2,0:0|0:0,0:0:0:0:
342,264,10846,2,0,L|482:264,1,125,10|0,0:0|0:0,0:0:0:0:
156,264,11307,5,0,1:2:0:0:
344,264,11538,1,2,2:1:0:0:
156,264,11769,2,0,L|152:140,1,125,10|2,2:1|2:1,0:0:0:0:
440,140,12231,2,0,L|444:268,1,125,2|0,1:1|0:0,0:0:0:0:
364,268,12577,1,2,2:1:0:0:
284,268,12692,1,8,0:0:0:0:
472,268,12923,1,2,2:1:0:0:
160,268,13154,5,2,1:3:0:0:
80,268,13269,1,2,2:3:0:0:
160,268,13384,1,2,2:3:0:0:
448,268,13615,1,8,0:0:0:0:
480,228,13731,1,2,2:3:0:0:
440,200,13846,1,2,2:3:0:0:
372,200,13961,1,2,2:3:0:0:
268,200,14077,2,0,L|332:200,1,62.5,2|2,1:3|2:3,0:0:0:0:
432,200,14307,2,0,L|368:200,1,62.5,2|2,2:3|2:3,0:0:0:0:
180,200,14538,2,0,L|36:200,1,125,8|0,0:0|0:0,0:0:0:0:
368,200,15000,5,0,1:2:0:0:
180,200,15231,1,2,2:1:0:0:
368,200,15461,2,0,L|372:72,1,125,8|2,2:1|2:1,0:0:0:0:
84,76,15923,2,0,L|80:200,1,125,2|0,1:1|0:0,0:0:0:0:
160,200,16269,1,2,2:1:0:0:
240,200,16384,1,8,0:0:0:0:
52,200,16615,1,2,2:1:0:0:
364,196,16846,6,0,L|492:196,1,125,2|2,1:2|0:0,0:0:0:0:
300,196,17307,1,10,0:0:0:0:
488,196,17538,2,0,L|412:196,1,62.5,2|0,0:0|0:0,0:0:0:0:
236,196,17769,2,0,L|232:132,1,62.5,2|2,1:2|0:0,0:0:0:0:
312,132,18000,1,2,0:0:0:0:
232,132,18115,1,2,0:0:0:0:
24,132,18231,2,0,L|152:132,1,125,10|0,0:0|0:0,0:0:0:0:
460,132,18692,5,0,1:2:0:0:
272,132,18923,1,2,2:1:0:0:
460,132,19154,2,0,L|464:256,1,125,10|2,2:1|2:1,0:0:0:0:
176,256,19615,2,0,L|172:132,1,125,2|0,1:1|0:0,0:0:0:0:
252,132,19961,1,2,2:1:0:0:
332,132,20077,1,8,0:0:0:0:
144,132,20307,1,2,2:1:0:0:
432,132,20538,5,2,1:2:0:0:
352,132,20654,1,8,2:3:0:0:
178,131,20884,1,8,2:3:0:0:
366,131,21000,1,8,2:3:0:0:
446,131,21115,1,2,0:0:0:0:
450,207,21231,1,2,0:0:0:0:
148,208,21461,1,8,2:3:0:0:
336,208,21692,1,8,2:3:0:0:
48,208,21923,1,8,2:3:0:0:
128,208,22038,1,8,2:3:0:0:
48,208,22154,1,8,2:3:0:0:
384,208,22384,6,0,P|460:152|372:64,1,250,6|8,1:2|0:0,0:0:0:0:
197,63,23077,1,2,0:0:0:0:
372,64,23307,2,0,L|496:64,1,125,2|0,1:2|0:0,0:0:0:0:
420,64,23654,1,2,0:0:0:0:
344,64,23769,1,8,0:0:0:0:
56,64,24000,6,0,L|52:188,1,125,2|0,0:0|1:2,0:0:0:0:
240,188,24461,1,2,0:0:0:0:
52,188,24692,2,0,L|180:188,1,125,10|2,0:0|0:0,0:0:0:0:
376,188,25154,2,0,L|512:188,1,125,2|0,1:2|0:0,0:0:0:0:
424,188,25500,1,2,0:0:0:0:
348,188,25615,1,8,0:0:0:0:
60,188,25846,6,0,L|56:64,1,125,2|0,0:0|1:2,0:0:0:0:
132,64,26192,1,2,0:0:0:0:
208,64,26307,1,2,0:0:0:0:
396,64,26538,2,0,L|400:188,1,125,10|2,0:0|0:0,0:0:0:0:
212,188,27000,2,0,L|208:56,1,125,2|0,1:2|0:0,0:0:0:0:
396,64,27461,1,10,0:0:0:0:
108,188,27692,6,0,L|244:188,2,125,2|0|2,0:0|1:2|0:0,0:0:0:0:
296,188,28384,2,0,L|164:188,1,125,10|2,0:0|0:0,0:0:0:0:
360,188,28846,2,0,L|364:60,1,125,2|0,1:2|0:0,0:0:0:0:
176,64,29307,1,2,0:0:0:0:
256,64,29423,1,2,0:0:0:0:
336,64,29538,1,2,0:0:0:0:
48,68,29769,6,0,P|64:172|188:216,1,250,2|8,1:2|0:0,0:0:0:0:
376,216,30461,1,2,0:0:0:0:
188,216,30692,2,0,L|184:344,1,125,2|0,1:2|0:0,0:0:0:0:
264,344,31038,1,2,0:0:0:0:
344,344,31154,1,8,0:0:0:0:
56,344,31384,6,0,L|52:220,1,125,2|0,0:0|1:2,0:0:0:0:
240,276,31846,2,0,L|244:152,1,125,2|10,0:0|0:0,0:0:0:0:
56,152,32307,1,2,0:0:0:0:
244,152,32538,2,0,L|248:276,1,125,2|0,1:2|0:0,0:0:0:0:
168,276,32884,1,2,0:0:0:0:
88,276,33000,1,8,0:0:0:0:
380,216,33231,6,0,L|384:344,1,125,2|0,0:0|1:2,0:0:0:0:
304,344,33577,1,0,0:0:0:0:
224,344,33692,1,2,0:0:0:0:
412,340,33923,2,0,L|416:212,1,125,10|2,0:0|0:0,0:0:0:0:
228,216,34384,2,0,L|380:216,1,125,2|2,1:2|0:0,0:0:0:0:
177,216,34846,1,10,0:0:0:0:
492,216,35077,1,2,0:0:0:0:
496,152,35192,1,2,0:0:0:0:
396,152,35307,5,0,1:2:0:0:
220,152,35538,2,0,L|216:84,1,62.5,2|2,0:0|0:0,0:0:0:0:
316,88,35769,2,0,L|448:88,1,125,10|2,0:0|0:0,0:0:0:0:
264,88,36231,1,2,1:2:0:0:
88,88,36461,2,0,L|84:152,1,62.5,10|8,2:3|2:3,0:0:0:0:
272,152,36692,2,0,L|344:152,1,62.5,2|8,1:2|2:3,0:0:0:0:
128,152,36923,2,0,L|56:152,1,62.5,10|8,2:3|2:3,0:0:0:0:
324,148,37154,6,0,L|448:148,1,125,4|0,1:2|0:0,0:0:0:0:
260,148,37615,2,0,L|132:148,1,125,10|0,0:0|0:0,0:0:0:0:
424,148,38077,2,0,L|428:280,1,125,2|2,1:2|0:0,0:0:0:0:
348,272,38423,1,2,0:0:0:0:
428,272,38538,1,8,0:0:0:0:
140,272,38769,6,0,L|136:144,1,125,2|0,0:0|1:2,0:0:0:0:
324,144,39231,1,2,0:0:0:0:
136,148,39461,2,0,L|8:149,1,125,10|0,0:0|0:0,0:0:0:0:
300,144,39923,2,0,L|432:144,1,125,2|2,1:2|0:0,0:0:0:0:
236,144,40384,1,10,0:0:0:0:
424,144,40615,1,2,0:0:0:0:
112,144,40846,6,0,L|108:268,1,125,2|0,1:2|0:0,0:0:0:0:
296,272,41307,2,0,L|432:272,1,125,10|0,0:0|0:0,0:0:0:0:
108,272,41769,2,0,L|104:144,1,125,2|2,1:2|0:0,0:0:0:0:
184,148,42115,1,2,0:0:0:0:
104,148,42231,1,8,0:0:0:0:
416,148,42461,6,0,L|420:280,1,125,2|0,0:0|1:2,0:0:0:0:
232,272,42923,1,2,0:0:0:0:
420,272,43154,2,0,L|424:144,1,125,10|0,0:0|0:0,0:0:0:0:
136,148,43615,2,0,L|8:148,1,125,2|2,1:2|0:0,0:0:0:0:
200,148,44077,1,10,0:0:0:0:
120,148,44192,1,0,0:0:0:0:
40,148,44307,1,2,0:0:0:0:
352,148,44538,6,0,L|356:280,1,125,2|0,1:2|0:0,0:0:0:0:
168,272,45000,2,0,L|32:272,1,125,10|0,0:0|0:0,0:0:0:0:
332,272,45461,2,0,L|464:272,1,125,2|2,1:2|0:0,0:0:0:0:
376,272,45807,1,2,0:0:0:0:
456,272,45923,1,8,0:0:0:0:
144,272,46154,6,0,L|140:132,1,125,2|0,0:0|1:2,0:0:0:0:
328,144,46615,1,2,0:0:0:0:
140,144,46846,2,0,L|16:144,1,125,10|0,0:0|0:0,0:0:0:0:
304,144,47307,2,0,L|436:144,1,125,2|2,1:2|0:0,0:0:0:0:
240,144,47769,1,10,0:0:0:0:
428,144,48000,1,2,0:0:0:0:
140,144,48231,6,0,L|136:272,1,125,2|0,1:2|0:0,0:0:0:0:
324,272,48692,2,0,L|452:272,1,125,10|0,0:0|0:0,0:0:0:0:
160,272,49154,2,0,L|36:272,1,125,2|0,1:2|0:0,0:0:0:0:
116,272,49500,1,2,0:0:0:0:
35,272,49615,1,8,0:0:0:0:
348,272,49846,5,2,0:0:0:0:
156,272,50077,2,0,L|152:208,1,62.5,0|8,1:2|2:3,0:0:0:0:
256,228,50307,2,0,L|260:164,1,62.5,2|0,0:0|1:2,0:0:0:0:
180,164,50538,1,2,1:2:0:0:
264,164,50654,2,0,L|412:164,1,125,8|0,2:3|1:2,0:0:0:0:
200,164,51000,1,10,2:3:0:0:
388,164,51231,1,8,2:3:0:0:
100,164,51461,1,10,1:3:0:0:
168,164,51577,1,8,1:3:0:0:
372,164,51692,1,8,1:3:0:0:
440,164,51807,1,8,1:3:0:0:
184,164,51923,6,0,L|60:164,1,125,6|2,1:2|0:0,0:0:0:0:
248,164,52384,2,0,P|304:108|240:44,1,187.5,2|0,0:0|0:0,0:0:0:0:
136,44,52846,2,0,P|108:108|144:156,1,125,2|2,1:2|0:0,0:0:0:0:
216,148,53192,1,8,2:3:0:0:
296,148,53307,2,0,L|148:148,1,125,8|0,2:3|0:0,0:0:0:0:
484,148,53769,6,0,L|488:276,1,125,4|2,1:2|0:0,0:0:0:0:
300,272,54231,2,0,P|244:224|304:152,1,187.5,2|0,0:0|0:0,0:0:0:0:
412,152,54692,2,0,P|436:80|408:40,1,125,2|2,1:2|0:0,0:0:0:0:
332,40,55038,1,8,2:3:0:0:
412,40,55154,1,8,2:3:0:0:
488,40,55269,1,0,0:0:0:0:
412,40,55384,1,0,0:0:0:0:
76,44,55615,6,0,L|72:172,1,125,4|2,1:2|0:0,0:0:0:0:
260,172,56077,1,2,0:0:0:0:
72,172,56307,1,2,0:0:0:0:
408,172,56538,2,0,L|412:300,1,125,6|2,1:2|0:0,0:0:0:0:
224,300,57000,1,2,0:0:0:0:
412,300,57231,1,2,0:0:0:0:
76,300,57461,5,6,1:2:0:0:
264,300,57692,1,0,1:2:0:0:
452,300,57923,1,2,1:2:0:0:
264,300,58154,1,0,1:2:0:0:
64,300,58384,1,2,0:1:0:0:
132,300,58500,1,2,0:1:0:0:
236,300,58615,1,2,0:1:0:0:
424,300,58846,1,2,0:1:0:0:
356,300,58961,1,2,0:1:0:0:
152,300,59077,1,2,0:1:0:0:
84,300,59192,1,0,0:0:0:0:
320,300,59307,6,0,L|448:300,1,125,6|0,1:2|0:0,0:0:0:0:
144,300,59769,2,0,L|16:300,1,125,10|0,0:0|0:0,0:0:0:0:
344,300,60231,2,0,L|348:176,1,125,2|2,1:2|2:1,0:0:0:0:
148,176,60577,1,2,0:0:0:0:
72,176,60692,1,10,2:1:0:0:
148,176,60807,1,2,2:1:0:0:
368,176,60923,6,0,L|504:176,1,125,2|0,0:0|1:2,0:0:0:0:
304,176,61384,1,2,0:0:0:0:
16,176,61615,2,0,L|12:300,1,125,10|0,0:0|0:0,0:0:0:0:
340,308,62077,1,2,1:1:0:0:
152,308,62307,1,2,2:1:0:0:
452,308,62538,1,10,2:1:0:0:
252,308,62654,1,2,0:0:0:0:
184,308,62769,1,0,0:0:0:0:
252,308,62884,1,2,0:0:0:0:
471,181,63000,5,0,1:2:0:0:
284,180,63231,1,2,0:0:0:0:
472,184,63461,1,10,0:0:0:0:
172,180,63692,1,2,0:0:0:0:
472,184,63923,2,0,L|476:320,1,125,2|0,1:2|0:0,0:0:0:0:
176,320,64384,2,0,L|44:320,1,125,10|0,0:0|0:0,0:0:0:0:
272,320,64731,6,0,L|348:320,1,62.5,2|0,0:0|1:2,0:0:0:0:
36,320,65077,2,0,L|32:256,1,62.5,2|0,2:3|0:0,0:0:0:0:
232,256,65307,2,0,L|372:256,1,125,8|0,0:0|0:0,0:0:0:0:
136,256,65654,2,0,L|60:256,1,62.5,2|0,0:0|1:2,0:0:0:0:
260,256,66000,2,0,L|264:192,1,62.5,2|2,0:0|0:0,0:0:0:0:
156,196,66231,2,0,L|24:196,1,125,10|2,0:0|0:0,0:0:0:0:
356,196,66692,6,0,L|480:196,1,125,6|0,1:2|0:0,0:0:0:0:
180,196,67154,2,0,L|56:196,1,125,10|0,0:0|0:0,0:0:0:0:
380,200,67615,2,0,L|384:328,1,125,2|2,1:2|2:1,0:0:0:0:
184,324,67961,1,2,0:0:0:0:
180,256,68077,1,10,2:1:0:0:
256,256,68192,1,2,2:1:0:0:
496,256,68307,6,0,L|500:132,1,125,2|0,0:0|1:2,0:0:0:0:
324,132,68769,1,2,0:0:0:0:
36,244,69000,2,0,L|32:120,1,125,10|0,0:0|0:0,0:0:0:0:
320,120,69461,2,0,L|456:120,1,125,2|2,1:1|2:1,0:0:0:0:
144,120,69923,1,10,2:1:0:0:
344,120,70038,1,2,0:0:0:0:
412,120,70154,1,0,0:0:0:0:
344,120,70269,1,2,0:0:0:0:
112,184,70384,5,0,1:2:0:0:
300,184,70615,1,2,0:0:0:0:
112,184,70846,1,10,0:0:0:0:
412,184,71077,1,2,0:0:0:0:
112,184,71307,2,0,L|108:308,1,125,2|0,1:2|0:0,0:0:0:0:
408,308,71769,2,0,L|412:184,1,125,10|0,0:0|0:0,0:0:0:0:
192,184,72115,6,0,L|116:184,1,62.5,2|0,0:0|1:2,0:0:0:0:
416,180,72461,2,0,L|420:112,1,62.5,2|0,2:3|0:0,0:0:0:0:
200,116,72692,2,0,L|196:240,1,125,10|0,0:0|0:0,0:0:0:0:
396,244,73038,2,0,L|472:244,1,62.5,2|0,0:0|1:2,0:0:0:0:
272,244,73384,1,10,2:3:0:0:
204,244,73500,1,8,2:3:0:0:
404,244,73615,1,10,0:2:0:0:
336,244,73731,1,8,2:3:0:0:
116,244,73846,1,10,2:3:0:0:
48,244,73961,1,8,2:3:0:0:
284,244,74077,6,0,L|444:244,1,125,6|0,1:2|0:0,0:0:0:0:
108,244,74538,2,0,L|104:120,1,125,10|0,0:0|0:0,0:0:0:0:
432,116,75000,2,0,L|436:240,1,125,2|2,1:2|2:1,0:0:0:0:
236,244,75346,1,2,0:0:0:0:
156,244,75461,1,10,2:1:0:0:
160,324,75577,1,2,2:1:0:0:
380,324,75692,6,0,L|248:324,1,125,2|0,2:1|1:2,0:0:0:0:
444,324,76154,1,2,0:0:0:0:
144,324,76384,2,0,L|16:324,1,125,10|0,0:0|0:0,0:0:0:0:
344,324,76846,2,0,L|472:324,1,125,2|2,1:1|2:1,0:0:0:0:
168,324,77307,1,10,2:1:0:0:
88,324,77423,1,2,0:0:0:0:
168,324,77538,1,2,0:0:0:0:
388,324,77654,5,2,0:0:0:0:
468,324,77769,1,0,1:2:0:0:
280,324,78000,1,2,0:0:0:0:
468,324,78231,1,10,0:0:0:0:
168,324,78461,1,2,0:0:0:0:
468,324,78692,2,0,L|472:200,1,125,2|0,1:2|0:0,0:0:0:0:
172,200,79154,2,0,L|48:200,1,125,10|0,0:0|0:0,0:0:0:0:
268,200,79500,6,0,L|340:200,1,62.5,2|0,0:0|1:2,0:0:0:0:
144,200,79846,2,0,L|140:264,1,62.5,2|0,0:0|0:0,0:0:0:0:
340,264,80077,2,0,L|464:264,1,125,10|2,0:0|0:0,0:0:0:0:
244,264,80423,2,0,L|160:264,1,62.5,2|0,0:0|1:2,0:0:0:0:
368,264,80769,1,2,0:0:0:0:
68,264,81000,1,10,0:0:0:0:
256,264,81231,2,0,L|260:200,1,62.5,2|0,0:0|0:0,0:0:0:0:
40,200,81461,6,0,L|36:72,1,125,6|0,1:2|0:0,0:0:0:0:
336,92,81923,2,0,L|472:92,1,125,10|0,0:0|0:0,0:0:0:0:
160,92,82384,2,0,L|36:92,1,125,2|2,1:2|2:1,0:0:0:0:
236,92,82731,1,2,0:0:0:0:
316,92,82846,1,10,2:1:0:0:
312,172,82961,1,2,2:1:0:0:
92,172,83077,6,0,L|220:172,1,125,2|0,0:0|1:2,0:0:0:0:
28,172,83538,1,2,0:0:0:0:
352,172,83769,2,0,L|508:172,1,125,10|0,0:0|0:0,0:0:0:0:
152,172,84231,2,0,L|24:172,1,125,2|2,1:1|2:1,0:0:0:0:
328,172,84692,1,10,2:1:0:0:
404,172,84807,1,2,0:0:0:0:
328,172,84923,1,2,0:0:0:0:
104,172,85038,5,2,0:0:0:0:
32,172,85154,1,0,1:2:0:0:
220,172,85384,1,2,0:0:0:0:
32,172,85615,1,10,0:0:0:0:
332,172,85846,1,2,0:0:0:0:
32,172,86077,2,0,L|164:172,1,125,2|0,1:2|0:0,0:0:0:0:
456,172,86538,2,0,L|332:172,1,125,10|0,0:0|0:0,0:0:0:0:
112,172,86884,2,0,L|192:172,1,62.5,2|0,0:0|1:2,0:0:0:0:
364,172,87231,5,2,0:0:0:0:
488,172,87461,1,2,0:0:0:0:
364,172,87692,1,2,0:0:0:0:
176,172,87923,1,2,0:0:0:0:
364,172,88154,1,2,0:0:0:0:
64,172,88384,6,0,P|52:244|184:328,1,250,6|0,1:2|0:0,0:0:0:0:
