osu file format v14

[General]
AudioFilename: Stereo20mindenmahs.mp3
AudioLeadIn: 0
PreviewTime: 48614
Countdown: 0
SampleSet: None
StackLeniency: 0.7
Mode: 0
LetterboxInBreaks: 0
WidescreenStoryboard: 1

[Editor]
Bookmarks: 4804,20043,35281,50519,65757,80995,96233,111471,126709,141947,157066,157185,172424,187662
DistanceSpacing: 1.3
BeatDivisor: 4
GridSize: 4
TimelineZoom: 1

[Metadata]
Title:Minden Mas
TitleUnicode:Minden Más
Artist:STEREO 2.0
ArtistUnicode:STEREO 2.0
Creator:Alarido
Version:Szeretet
Source:
Tags:alexabm kazuya Kazuya-sama collab collaboration project_railgun hungarian magyar
BeatmapID:521987
BeatmapSetID:223454

[Difficulty]
HPDrainRate:7
CircleSize:4
OverallDifficulty:7
ApproachRate:8
SliderMultiplier:2
SliderTickRate:1

[Events]
//Background and Video events
0,0,"bg.jpg",0,0
//Break Periods
2,65957,77290
//Storyboard Layer 0 (Background)
//Storyboard Layer 1 (Fail)
//Storyboard Layer 2 (Pass)
//Storyboard Layer 3 (Foreground)
Sprite,Foreground,Centre,"alarido.png",320,240 M,0,4700,4800,135,400 S,0,4700,200000,0.7 R,0,4700,200000,0.15 F,0,4804,5004,0,1 F,0,20043,20243,0.9,0 F,0,35181,35381,0,0.9 F,0,50419,50619,0.9,0 F,0,80895,81095,0,0.9 F,0,96133,96333,0.9,0 F,0,111371,111571,0,0.9 F,0,126609,126809,0.9,0 F,0,141847,142047,0,0.9 F,0,156966,157166,0.9,0 F,0,172324,172524,0,0.9 F,0,187562,187762,0.9,0
Sprite,Foreground,Centre,"kazuya.png",320,240 M,0,4700,4800,495,400 S,0,4700,200000,0.7 R,0,4700,200000,-0.15 F,0,19943,20143,0,0.9 F,0,35181,35381,0.9,0 F,0,50419,50619,0,0.9 F,0,65657,65857,0.9,0 F,0,96133,96333,0,0.9 F,0,111371,111571,0.9,0 F,0,156966,157166,0,0.9 F,0,172324,172524,0.9,0
Sprite,Foreground,Centre,"railgun.png",320,240 M,0,4700,4800,155,130 S,0,4700,200000,0.8 R,0,4700,200000,-0.15 F,0,126609,126809,0,0.9 F,0,141847,142047,0.9,0
//Storyboard Sound Samples

[TimingPoints]
4805,476.190476190476,4,3,1,55,1,0
50519,-100,4,3,1,75,0,1
65757,-100,4,3,1,55,0,0
111471,-100,4,3,1,75,0,1
126709,-100,4,3,1,70,0,0
133793,-100,4,3,2,70,0,0
133912,-100,4,3,1,70,0,0
134269,-100,4,2,0,50,0,0
134388,-100,4,3,1,70,0,0
135697,-100,4,3,2,70,0,0
135816,-100,4,3,1,70,0,0
140043,-100,4,3,1,40,0,0
140519,-83.3333333333333,4,3,1,45,0,0
140995,-71.4285714285714,4,3,1,50,0,0
141471,-55.5555555555556,4,3,1,55,0,0
141947,-83.3333333333333,4,3,1,75,0,1
157066,-83.3333333333333,4,3,1,55,0,0
157185,-83.3333333333333,4,3,1,75,0,1
171947,-83.3333333333333,4,3,1,75,0,1
172424,-100,4,3,1,50,0,0

[Colours]
Combo1 : 191,177,128
Combo2 : 0,83,0
Combo3 : 82,154,128
Combo4 : 74,101,149

[HitObjects]
256,192,43,12,0,2900,2:0:0:0:
328,232,4804,6,0,L|356:136,1,100,0|0,0:0|0:0,0:0:0:0:
416,244,5281,2,0,L|388:340,1,100,8|0,0:0|0:0,0:0:0:0:
356,136,5757,2,0,P|324:56|220:48,1,200,0|8,0:0|0:0,0:0:0:0:
96,140,6471,1,0,0:0:0:0:
184,152,6709,2,0,L|156:248,1,100,0|0,0:0|0:0,0:0:0:0:
96,140,7185,2,0,L|124:44,1,100,8|0,0:0|0:0,0:0:0:0:
156,248,7662,2,0,P|188:328|292:336,1,200,0|8,0:0|0:0,0:0:0:0:
416,244,8376,1,0,0:0:0:0:
432,64,8614,6,0,L|332:80,1,100
216,152,9090,2,0,L|316:168,1,100,8|0,0:0|0:0,0:0:0:0:
244,60,9566,2,0,P|152:76|120:168,1,200,0|8,0:0|0:0,0:0:0:0:
80,320,10281,1,0,0:0:0:0:
80,320,10519,2,0,L|180:304,1,100
296,232,10995,2,0,L|196:216,1,100,8|0,0:0|0:0,0:0:0:0:
268,324,11471,2,0,P|360:308|392:216,1,200,0|8,0:0|0:0,0:0:0:0:
440,80,12185,1,0,0:0:0:0:
304,44,12424,5,0,0:0:0:0:
176,136,12662,1,0,0:0:0:0:
216,56,12900,1,8,0:0:0:0:
216,216,13138,1,0,0:0:0:0:
216,56,13376,2,0,P|120:68|92:156,1,200,0|8,0:0|0:0,0:0:0:0:
72,304,14090,1,0,0:0:0:0:
208,340,14329,5,0,0:0:0:0:
336,248,14567,1,0,0:0:0:0:
296,328,14805,1,8,0:0:0:0:
296,168,15043,1,0,0:0:0:0:
296,328,15281,2,0,P|392:316|420:228,1,200,0|8,0:0|0:0,0:0:0:0:
416,84,15995,1,0,0:0:0:0:
284,40,16233,6,0,L|188:76,1,100
202,203,16709,1,8,0:0:0:0:
324,128,16947,1,0,0:0:0:0:
190,75,17185,2,0,P|108:112|72:212,1,200,0|8,0:0|0:0,0:0:0:0:
200,320,17900,1,0,0:0:0:0:
256,192,18138,1,4,0:0:0:0:
256,192,18257,12,0,19566,0:0:0:0:
60,236,20043,6,0,L|172:244,1,100
372,112,20519,2,0,L|260:120,1,100,8|0,0:0|0:0,0:0:0:0:
452,32,20995,2,0,L|436:240,1,200,0|8,0:0|0:0,0:0:0:0:
332,308,21709,2,0,P|296:315|236:292,1,100
208,96,22185,2,0,P|243:88|304:112,1,100,0|8,0:0|0:0,0:0:0:0:
127,208,22662,1,0,0:0:0:0:
127,208,22900,2,0,L|111:8,1,200,0|8,0:0|0:0,0:0:0:0:
276,120,23614,1,0,0:0:0:0:
276,120,23852,6,0,P|232:124|192:88,1,100
389,52,24328,2,0,L|405:164,1,100,8|0,0:0|0:0,0:0:0:0:
296,320,24804,2,0,P|208:328|128:248,1,200,0|8,0:0|0:0,0:0:0:0:
228,80,25519,2,0,L|240:192,1,100
296,320,25995,1,0,0:0:0:0:
404,216,26233,1,0,0:0:0:0:
210,269,26471,1,0,0:0:0:0:
401,329,26709,5,0,0:0:0:0:
112,52,27185,1,8,0:0:0:0:
56,192,27424,1,0,0:0:0:0:
176,352,27662,6,0,P|200:312|200:260,1,100
360,140,28138,2,0,P|359:189|383:232,1,100,8|0,0:0|0:0,0:0:0:0:
424,36,28614,2,0,L|264:44,1,150
252,23,29090,2,0,L|244:80,2,50,8|0|0,0:0|0:0|0:0,0:0:0:0:
80,124,29566,2,0,L|64:224,1,100
211,360,30043,2,0,L|226:261,1,100,8|0,0:0|0:0,0:0:0:0:
259,64,30519,2,0,P|339:52|431:128,1,200,0|8,0:0|0:0,0:0:0:0:
440,149,31114,2,0,L|496:153,1,50
411,336,31471,6,0,P|383:334|323:292,1,100
187,295,31947,2,0,P|149:327|101:336,1,100,8|0,0:0|0:0,0:0:0:0:
132,138,32424,2,0,L|284:154,1,150
308,140,32900,2,0,P|316:100|292:44,1,100,8|0,0:0|0:0,0:0:0:0:
199,222,33376,6,0,P|191:262|215:318,1,100
404,372,33852,2,0,L|412:268,1,100,8|0,0:0|0:0,0:0:0:0:
244,87,34328,2,0,P|148:83|76:155,1,200,0|8,0:0|0:0,0:0:0:0:
440,208,35281,5,4,0:0:0:0:
436,72,35519,1,0,0:0:0:0:
300,40,35757,2,0,B|256:64|256:64|212:40,1,100,8|0,0:0|0:0,0:0:0:0:
76,72,36233,1,0,0:0:0:0:
64,212,36471,1,0,0:0:0:0:
210,296,36709,2,0,P|256:313|302:296,1,100,8|0,0:0|0:0,0:0:0:0:
372,152,37185,1,0,0:0:0:0:
256,56,37423,1,0,0:0:0:0:
140,152,37662,1,8,0:0:0:0:
256,244,37899,1,0,0:0:0:0:
372,152,38138,2,0,B|380:112|380:112|376:84|348:64,1,100
164,64,38614,2,0,B|136:84|132:112|132:112|140:152,1,100,8|0,0:0|0:0,0:0:0:0:
180,296,39090,6,0,P|128:304|80:288,1,100
256,194,39566,1,8,0:0:0:0:
256,194,39804,1,0,0:0:0:0:
428,290,40043,2,0,P|380:304|332:296,1,100
444,152,40519,2,0,L|396:64,1,100,8|0,0:0|0:0,0:0:0:0:
256,44,40995,1,0,0:0:0:0:
256,194,41233,1,0,0:0:0:0:
68,152,41471,2,0,L|116:64,1,100,8|0,0:0|0:0,0:0:0:0:
256,44,41947,2,0,L|256:196,1,150
256,252,42424,1,8,0:0:0:0:
380,336,42662,1,0,0:0:0:0:
476,220,42900,6,0,B|492:172|476:136|456:120,1,100
344,36,43376,1,8,0:0:0:0:
360,184,43614,1,0,0:0:0:0:
248,84,43852,2,0,B|200:68|164:84|148:104,1,100
128,280,44328,1,8,0:0:0:0:
208,152,44566,1,0,0:0:0:0:
40,160,44804,2,0,P|28:208|52:256,1,100
168,348,45280,1,8,0:0:0:0:
104,200,45518,1,0,0:0:0:0:
264,300,45756,2,0,B|312:316|348:300|364:280,1,100
428,152,46232,1,8,0:0:0:0:
304,64,46470,1,0,0:0:0:0:
152,56,46709,6,0,P|108:68|72:108,1,100
56,248,47185,1,8,0:0:0:0:
160,156,47424,1,0,0:0:0:0:
224,280,47662,2,0,P|261:313|312:319,1,100
420,288,48138,1,8,0:0:0:0:
448,152,48376,1,0,0:0:0:0:
304,104,48614,6,0,B|192:88|140:172|156:248|208:284|268:284|312:268|324:232|316:200|296:180|272:176|252:188|248:200,1,400,4|0,0:2|0:0,0:0:0:0:
257,190,50043,1,0,0:0:0:0:
257,190,50519,6,0,L|244:84,1,100,4|2,0:0|0:0,0:0:0:0:
48,56,50995,2,0,L|60:155,1,100,8|2,0:0|0:0,0:0:0:0:
16,299,51471,1,0,0:0:0:0:
148,372,51709,1,2,0:0:0:0:
60,156,51947,1,8,0:0:0:0:
98,301,52185,1,2,0:0:0:0:
176,116,52424,6,0,P|156:72|108:40,1,100,0|2,0:0|0:0,0:0:0:0:
98,301,52900,1,8,0:0:0:0:
98,301,53138,2,0,L|208:324,1,100,2|0,0:0|0:0,0:0:0:0:
348,192,53614,2,0,L|250:171,1,100,2|8,0:0|0:0,0:0:0:0:
428,80,54090,1,2,0:0:0:0:
428,80,54328,6,0,L|444:280,2,200,0|8|0,0:0|0:0|0:0,0:0:0:0:
324,20,55519,2,0,P|293:14|228:44,2,100,2|8|2,0:0|0:0|0:0,0:0:0:0:
428,80,56233,1,0,0:0:0:0:
364,216,56471,1,2,0:0:0:0:
324,20,56709,1,8,0:0:0:0:
451,174,56947,1,2,0:0:0:0:
296,300,57185,2,0,P|259:235|303:125,1,200,0|8,0:0|0:0,0:0:0:0:
302,125,57900,1,0,0:0:0:0:
120,44,58138,6,0,L|12:32,1,100,4|2,0:2|0:0,0:0:0:0:
100,216,58614,2,0,P|140:220|196:192,1,100,8|2,0:0|0:0,0:0:0:0:
356,80,59090,1,0,0:0:0:0:
428,212,59328,1,2,0:0:0:0:
484,20,59566,1,8,0:0:0:0:
307,196,59804,1,2,0:0:0:0:
417,339,60043,6,0,P|465:335|509:299,1,100,0|2,0:0|0:0,0:0:0:0:
455,111,60519,1,8,0:0:0:0:
455,111,60757,2,0,P|407:115|363:151,1,100,2|0,0:0|0:0,0:0:0:0:
172,100,61233,2,0,P|220:96|264:60,1,100,2|8,0:0|0:0,0:0:0:0:
60,68,61709,1,2,0:0:0:0:
60,68,61947,6,0,L|72:180,1,100,0|2,0:0|0:0,0:0:0:0:
244,268,62424,2,0,L|233:168,1,100,0|2,0:0|0:0,0:0:0:0:
352,8,62900,1,0,0:0:0:0:
424,140,63138,1,2,0:0:0:0:
280,100,63376,1,8,0:0:0:0:
422,53,63614,1,2,0:0:0:0:
319,224,63852,5,0,0:0:0:0:
334,25,64090,1,2,0:0:0:0:
424,140,64328,1,8,0:0:0:0:
228,180,64566,1,2,0:0:0:0:
432,36,64804,6,0,L|420:240,1,200,0|8,0:0|0:0,0:0:0:0:
236,316,65519,1,2,0:0:0:0:
420,236,65757,1,4,0:0:0:0:
256,192,79090,5,4,0:2:0:0:
256,192,79209,12,0,80519,0:0:0:0:
208,212,80995,6,0,L|120:260,1,100
328,136,81471,1,8,0:0:0:0:
328,267,81709,2,0,P|344:348|407:294,1,200
328,267,82424,1,8,0:0:0:0:
456,124,82662,1,0,0:0:0:0:
456,124,82900,2,0,P|452:176|428:216,1,100
328,136,83376,2,0,P|332:84|356:44,1,100,8|0,0:0|0:0,0:0:0:0:
228,52,83852,2,0,L|40:120,1,200,0|8,0:0|0:0,0:0:0:0:
184,248,84566,1,0,0:0:0:0:
304,172,84804,6,0,L|392:124,1,100
184,248,85280,1,8,0:0:0:0:
184,117,85518,2,0,P|168:36|105:90,1,200
184,117,86233,1,8,0:0:0:0:
56,260,86471,1,0,0:0:0:0:
56,260,86709,2,0,P|60:208|84:168,1,100
184,248,87185,2,0,P|180:300|156:340,1,100,8|0,0:0|0:0,0:0:0:0:
284,332,87661,2,0,L|472:264,1,200,0|8,0:0|0:0,0:0:0:0:
348,164,88375,1,0,0:0:0:0:
164,164,88614,6,0,B|150:214|150:214|172:228|184:248,1,100
348,164,89090,2,0,B|361:113|361:113|340:100|328:80,1,100,8|0,0:0|0:0,0:0:0:0:
180,52,89566,2,0,P|120:56|88:80,1,100
32,124,89924,1,0,0:0:0:0:
36,196,90043,1,8,0:0:0:0:
164,164,90281,1,0,0:0:0:0:
128,288,90519,2,0,B|116:332|116:332|148:332|164:352,1,100
348,352,90995,2,0,B|364:332|396:332|396:332|384:288,1,100,8|0,0:0|0:0,0:0:0:0:
336,156,91471,2,0,P|348:108|384:76,1,100
432,207,91947,1,8,0:0:0:0:
384,75,92185,1,0,0:0:0:0:
432,207,92424,6,0,P|420:255|384:288,1,100
256,232,92900,1,8,0:0:0:0:
184,112,93138,1,0,0:0:0:0:
80,207,93376,2,0,P|92:255|128:288,1,100
200,280,93733,1,0,0:0:0:0:
256,232,93852,1,8,0:0:0:0:
328,112,94090,1,0,0:0:0:0:
204,32,94328,2,0,B|176:36|152:28|152:28|140:48|116:60,1,100
308,32,94804,2,0,B|336:36|360:28|360:28|372:48|396:60,1,100,8|0,0:0|0:0,0:0:0:0:
392,200,95281,1,0,0:0:0:0:
296,304,95519,1,0,0:0:0:0:
120,200,95757,1,8,0:0:0:0:
216,304,95995,1,0,0:0:0:0:
305,130,96233,6,0,P|236:91|256:168,1,200,6|8,0:0|0:0,0:0:0:0:
452,208,96947,1,0,0:0:0:0:
452,208,97185,2,0,L|464:104,1,100
332,260,97662,1,0,0:0:0:0:
340,288,97781,1,0,0:0:0:0:
348,316,97900,1,0,0:0:0:0:
344,116,98138,6,0,P|300:112|252:144,1,100,0|2,0:0|0:0,0:0:0:0:
184,328,98614,2,0,P|228:332|276:300,1,100,8|2,0:0|0:0,0:0:0:0:
354,105,99090,2,0,P|310:101|262:133,1,100,0|2,0:0|0:0,0:0:0:0:
194,318,99566,2,0,P|238:322|286:290,1,100,8|2,0:0|0:0,0:0:0:0:
354,105,100043,6,0,L|362:1,1,100
168,56,100519,2,0,L|160:155,1,100,8|0,0:0|0:0,0:0:0:0:
260,268,100995,1,0,0:0:0:0:
136,354,101233,1,2,0:0:0:0:
160,156,101471,1,8,0:0:0:0:
221,346,101709,1,2,0:0:0:0:
52,240,101947,5,0,0:0:0:0:
95,45,102185,1,2,0:0:0:0:
160,156,102424,1,8,0:0:0:0:
3,127,102662,1,2,0:0:0:0:
192,62,102900,1,0,0:0:0:0:
388,292,103376,1,8,0:0:0:0:
388,292,103852,6,0,P|464:292|408:232,1,200,6|8,0:0|0:0,0:0:0:0:
261,258,104566,1,0,0:0:0:0:
261,258,104804,2,0,L|273:358,1,100
333,166,105281,2,0,L|345:66,1,100
152,120,105757,6,0,P|183:125|248:96,1,100,0|2,0:0|0:0,0:0:0:0:
45,82,106233,2,0,L|53:190,1,100,8|2,0:0|0:0,0:0:0:0:
144,300,106709,1,0,0:0:0:0:
8,364,106947,1,2,0:0:0:0:
53,182,107185,1,8,0:0:0:0:
53,182,107304,1,0,0:0:0:0:
53,182,107424,1,2,0:0:0:0:
224,286,107662,6,0,P|216:338|180:374,1,100,4|2,0:0|0:0,0:0:0:0:
164,173,108138,1,8,0:0:0:0:
144,24,108376,1,2,0:0:0:0:
264,184,108614,1,0,0:0:0:0:
78,110,108852,1,2,0:0:0:0:
270,55,109090,1,8,0:0:0:0:
270,55,109209,1,0,0:0:0:0:
270,55,109328,1,2,0:0:0:0:
404,204,109566,5,4,0:1:0:0:
404,204,110519,2,0,L|388:304,1,100,2|0,0:0|0:0,0:0:0:0:
123,302,110995,2,0,L|108:204,1,100,2|0,0:0|0:0,0:0:0:0:
256,92,111471,6,0,B|212:184|300:200|256:284,1,200,4|8,0:2|0:0,0:0:0:0:
132,348,112185,1,0,0:0:0:0:
36,248,112424,1,0,0:0:0:0:
132,144,112662,2,0,P|183:135|224:160,1,100,0|8,0:0|0:0,0:0:0:0:
256,192,113019,1,0,0:0:0:0:
284,228,113138,2,0,P|326:251|375:243,1,100
476,136,113614,1,0,0:0:0:0:
380,36,113853,1,0,0:0:0:0:
248,80,114090,2,0,P|212:112|196:168,1,100
300,256,114566,2,0,P|336:224|352:168,1,100
248,80,115043,1,0,0:0:0:0:
112,96,115281,6,0,P|76:132|68:180,1,100,0|0,0:0|0:0,0:0:0:0:
184,272,115757,2,0,P|220:236|228:188,1,100,8|0,0:0|0:0,0:0:0:0:
112,96,116233,1,0,0:0:0:0:
108,248,116471,1,0,0:0:0:0:
228,336,116709,2,0,P|272:344|324:320,1,100,8|0,0:0|0:0,0:0:0:0:
416,200,117185,1,0,0:0:0:0:
400,328,117424,1,0,0:0:0:0:
320,124,117662,1,8,0:0:0:0:
304,252,117901,1,0,0:0:0:0:
388,84,118138,2,0,P|296:48|244:144,1,200,0|8,0:0|0:0,0:0:0:0:
320,124,118852,1,0,0:0:0:0:
148,48,119090,6,0,P|80:52|52:72,1,100,4|0,0:2|0:0,0:0:0:0:
95,238,119566,2,0,P|97:189|124:148,1,100,8|0,0:0|0:0,0:0:0:0:
256,136,120043,1,0,0:0:0:0:
224,264,120281,1,0,0:0:0:0:
340,324,120519,1,8,0:0:0:0:
408,300,120638,1,0,0:0:0:0:
436,236,120757,1,0,0:0:0:0:
404,108,120995,2,0,P|376:72|324:60,1,100
187,59,121471,2,0,P|139:70|108:108,1,100,8|0,0:0|0:0,0:0:0:0:
56,232,121947,1,0,0:0:0:0:
176,324,122185,1,0,0:0:0:0:
336,324,122424,1,8,0:0:0:0:
456,232,122662,1,0,0:0:0:0:
400,104,122900,6,0,P|372:64|324:52,1,100
184,128,123376,1,8,0:0:0:0:
112,248,123614,1,0,0:0:0:0:
212,344,123852,2,0,B|236:352|256:328|256:328|276:352|300:344,1,100
400,248,124328,1,8,0:0:0:0:
328,128,124566,1,0,0:0:0:0:
187,51,124804,2,0,P|140:63|112:104,1,100
112,280,125281,2,0,P|140:320|187:332,1,100,8|0,0:0|0:0,0:0:0:0:
324,252,125757,1,0,0:0:0:0:
188,252,125995,1,0,0:0:0:0:
324,332,126233,2,0,P|371:320|399:280,1,100,8|0,0:0|0:0,0:0:0:0:
408,224,126590,1,0,0:0:0:0:
424,172,126709,6,0,P|451:131|499:119,1,100,4|0,0:1|0:0,0:0:0:0:
348,44,127185,1,8,0:0:0:0:
232,120,127424,1,0,0:0:0:0:
188,176,127543,1,0,0:0:0:0:
148,236,127662,2,0,L|48:242,1,100
364,236,128138,2,0,L|463:242,1,100,8|0,0:0|0:0,0:0:0:0:
348,44,128614,6,0,P|387:75|394:123,1,100
118,122,129090,2,0,P|125:74|164:43,1,100,8|0,0:0|0:0,0:0:0:0:
224,48,129447,1,0,0:0:0:0:
256,100,129566,2,0,B|277:140|225:140|253:194,2,100,0|0|8,0:0|0:0|0:0,0:0:0:0:
348,44,130281,1,0,0:0:0:0:
416,24,130400,1,0,0:0:0:0:
468,72,130519,6,0,P|472:120|446:162,1,100,4|0,0:0|0:0,0:0:0:0:
338,362,130995,2,0,P|333:313|360:272,1,100,8|0,0:0|0:0,0:0:0:0:
152,272,131471,2,0,P|178:313|173:362,1,100
65,162,131947,2,0,P|39:120|44:72,1,100,8|0,0:0|0:0,0:0:0:0:
104,36,132304,1,0,0:0:0:0:
168,68,132424,6,0,L|215:84,1,50,2|0,0:0|0:0,0:0:0:0:
296,84,132662,2,0,L|344:68,1,50,8|0,0:0|0:0,0:0:0:0:
408,36,132900,1,8,0:0:0:0:
428,176,133138,1,0,0:0:0:0:
380,308,133376,2,0,P|331:298|302:259,1,100
240,228,133733,2,0,L|141:244,1,100
72,264,134090,1,0,0:0:0:0:
24,124,134328,6,0,L|48:76,1,50,2|0,0:0|0:0,0:0:0:0:
116,40,134566,2,0,L|138:84,1,50,2|0,0:0|0:0,0:0:0:0:
180,152,134804,1,8,0:0:0:0:
316,64,135043,1,0,0:0:0:0:
427,176,135281,2,0,P|426:225|456:264,1,100
392,312,135638,2,0,P|349:288|303:303,1,100
256,348,135995,1,0,0:0:0:0:
148,296,136233,5,4,0:0:0:0:
92,240,136352,2,0,P|68:232|43:234,2,50,0|0|0,0:0|0:0|0:0,0:0:0:0:
168,220,136709,2,0,L|214:202,1,50,8|0,0:0|0:0,0:0:0:0:
297,202,136947,2,0,L|344:220,1,50
420,239,137185,2,0,P|461:213|483:169,1,100,8|0,0:0|0:0,0:0:0:0:
476,88,137543,2,0,L|456:28,1,50,0|8,0:0|0:0,0:0:0:0:
256,112,137900,1,0,0:0:0:0:
184,316,138138,6,0,P|137:332|87:327,1,100,0|0,0:0|0:0,0:0:0:0:
328,316,138614,2,0,P|374:332|424:327,1,100,8|0,0:0|0:0,0:0:0:0:
472,264,138971,1,0,0:0:0:0:
432,192,139090,2,0,P|394:160|376:113,1,100
320,56,139447,2,0,P|296:72|264:76,1,50,0|8,0:0|0:0,0:0:0:0:
116,96,139804,1,0,0:0:0:0:
16,256,140043,6,0,P|59:314|131:318,1,150,2|0,0:0|0:0,0:0:0:0:
180,256,140519,2,0,P|257:215|334:256,1,179.999994506836,2|0,0:0|0:0,0:0:0:0:
380,318,140995,2,0,P|468:267|498:169,1,209.999993591309,2|0,0:0|0:0,0:0:0:0:
412,60,141471,6,0,P|315:27|375:109,1,269.999991760254,4|0,0:0|0:0,0:0:0:0:
412,172,141947,6,0,B|340:200|288:164|288:164|228:128|181:155,1,239.999992675781,4|8,0:2|0:0,0:0:0:0:
28,268,142662,2,0,P|60:316|128:336,1,119.999996337891
308,336,143138,2,0,P|312:264|284:224,1,119.999996337891
256,192,143495,1,0,0:0:0:0:
225,157,143614,2,0,P|196:106|204:48,1,119.999996337891
395,47,144090,2,0,P|450:67|484:116,1,119.999996337891
368,220,144566,1,0,0:0:0:0:
212,200,144804,1,0,0:0:0:0:
88,100,145043,2,0,P|64:112|44:140,2,59.9999981689454,0|0|8,0:0|0:0|0:0,0:0:0:0:
8,252,145519,2,0,P|36:260|68:256,1,59.9999981689454,0|0,0:0|0:0,0:0:0:0:
136,228,145757,6,0,P|180:189|238:193,1,119.999996337891
420,296,146233,2,0,P|375:334|317:330,1,119.999996337891,8|0,0:0|0:0,0:0:0:0:
238,193,146709,1,0,0:0:0:0:
340,72,146947,1,0,0:0:0:0:
172,72,147185,1,8,0:0:0:0:
273,193,147423,1,0,0:0:0:0:
420,144,147662,2,0,P|400:96|340:72,1,119.999996337891
172,72,148138,2,0,P|116:91|92:144,1,119.999996337891,8|0,0:0|0:0,0:0:0:0:
28,288,148614,2,0,P|136:300|196:264,1,179.999994506836
224,228,149090,1,8,0:0:0:0:
376,300,149328,1,0,0:0:0:0:
468,160,149566,6,0,P|408:68|284:52,1,239.999992675781,4|8,0:2|0:0,0:0:0:0:
120,80,150281,1,0,0:0:0:0:
24,216,150519,1,0,0:0:0:0:
136,344,150757,2,0,L|260:332,1,119.999996337891
280,304,151114,1,0,0:0:0:0:
300,276,151233,2,0,L|424:264,1,119.999996337891
316,148,151709,2,0,P|368:176|432:176,1,119.999996337891
472,40,152185,1,0,0:0:0:0:
320,72,152423,1,0,0:0:0:0:
296,224,152662,1,0,0:0:0:0:
364,352,152900,2,0,P|411:316|433:262,1,119.999996337891,8|0,0:0|0:0,0:0:0:0:
320,72,153376,6,0,P|272:107|250:161,1,119.999996337891
280,328,153852,1,8,0:0:0:0:
434,262,154090,1,0,0:0:0:0:
392,100,154328,1,0,0:0:0:0:
232,52,154566,1,0,0:0:0:0:
80,120,154804,1,8,0:0:0:0:
232,52,155043,1,0,0:0:0:0:
80,120,155281,1,0,0:0:0:0:
112,284,155519,2,0,P|164:316|220:312,2,119.999996337891,0|8|0,0:0|0:0|0:0,0:0:0:0:
224,156,156233,2,0,P|302:74|424:68,1,239.999992675781,0|8,0:0|0:0,0:0:0:0:
376,228,156947,1,0,0:0:0:0:
376,228,157185,6,0,L|364:348,1,119.999996337891,4|2,0:1|0:0,0:0:0:0:
157,224,157662,1,8,0:0:0:0:
157,224,157900,2,0,L|145:104,1,119.999996337891,2|0,0:0|0:0,0:0:0:0:
176,344,158376,2,0,P|134:345|68:308,1,119.999996337891,2|8,0:0|0:0,0:0:0:0:
45,280,158733,1,0,0:0:0:0:
38,245,158852,6,0,L|27:123,1,119.999996337891,2|0,0:0|0:0,0:0:0:0:
248,32,159328,2,0,L|259:154,1,119.999996337891,2|8,0:0|0:0,0:0:0:0:
396,348,159804,2,0,P|428:356|500:312,1,119.999996337891,2|0,0:0|0:0,0:0:0:0:
512,74,160281,2,0,P|480:66|408:110,1,119.999996337891,2|8,0:0|0:0,0:0:0:0:
256,292,160757,1,2,0:0:0:0:
102,107,160995,6,0,P|58:69|0:74,1,119.999996337891,0|2,0:0|0:0,0:0:0:0:
13,314,161471,2,0,P|57:352|116:348,1,119.999996337891,8|2,0:0|0:0,0:0:0:0:
114,98,161947,2,0,P|69:60|11:64,1,119.999996337891,0|2,0:0|0:0,0:0:0:0:
23,304,162424,2,0,P|67:341|125:337,1,119.999996337891,8|2,0:0|0:0,0:0:0:0:
332,216,162900,5,0,0:0:0:0:
372,40,163138,1,2,0:0:0:0:
160,152,163376,1,8,0:0:0:0:
280,360,163614,1,2,0:0:0:0:
420,164,163852,2,0,P|332:120|232:208,1,239.999992675781,0|8,0:0|0:0,0:0:0:0:
233,201,164566,1,0,0:0:0:0:
11,290,164804,6,0,L|-1:158,1,119.999996337891,4|2,0:1|0:0,0:0:0:0:
188,20,165281,1,0,0:0:0:0:
188,20,165519,2,0,L|198:139,1,119.999996337891,2|0,0:0|0:0,0:0:0:0:
324,344,165995,2,0,P|360:356|440:324,1,119.999996337891,2|0,0:0|0:0,0:0:0:0:
460,304,166352,1,0,0:0:0:0:
467,269,166471,6,0,L|475:145,1,119.999996337891,2|0,0:0|0:0,0:0:0:0:
268,28,166947,2,0,L|260:152,1,119.999996337891,2|0,0:0|0:0,0:0:0:0:
114,339,167424,2,0,P|86:347|6:311,1,119.999996337891,2|0,0:0|0:0,0:0:0:0:
59,53,167900,2,0,P|117:47|166:80,1,119.999996337891,2|8,0:0|0:0,0:0:0:0:
338,248,168376,1,2,0:0:0:0:
338,248,168614,6,0,L|464:240,1,119.999996337891,0|2,0:0|0:0,0:0:0:0:
223,191,169090,2,0,P|205:241|219:307,1,119.999996337891,8|2,0:0|0:0,0:0:0:0:
396,144,169566,2,0,P|413:93|400:28,1,119.999996337891,0|2,0:0|0:0,0:0:0:0:
168,92,170043,2,0,L|294:84,1,119.999996337891,0|2,0:0|0:0,0:0:0:0:
56,24,170519,5,0,0:0:0:0:
144,246,170757,1,2,0:0:0:0:
168,92,170995,1,8,0:0:0:0:
9,271,171233,1,2,0:0:0:0:
223,380,171471,6,0,L|255:128,1,239.999992675781,0|8,0:0|0:0,0:0:0:0:
96,64,172185,1,2,0:0:0:0:
96,64,172424,6,0,P|68:76|48:100,1,50,4|0,0:2|0:0,0:0:0:0:
56,168,172662,2,0,P|70:193|95:213,1,50
193,263,172900,2,0,P|181:241|164:224,1,50,8|0,0:0|0:0,0:0:0:0:
216,340,173138,2,0,P|241:325|261:300,1,50
331,210,173376,2,0,P|309:222|292:240,1,50
408,188,173614,2,0,P|430:176|447:158,1,50
432,80,173852,2,0,P|396:52|344:40,1,100,8|0,0:0|0:0,0:0:0:0:
144,84,174328,6,0,L|160:36,1,50,2|0,0:0|0:0,0:0:0:0:
120,172,174566,2,0,L|136:220,1,50,0|0,0:0|0:0,0:0:0:0:
216,256,174804,2,0,P|184:296|132:308,1,100,8|8,0:0|0:0,0:0:0:0:
308,172,175281,2,0,L|352:144,1,50
440,120,175519,2,0,P|448:144|448:176,1,50
376,56,175757,2,0,P|332:32|280:36,1,100,8|8,0:0|0:0,0:0:0:0:
108,104,176233,6,0,P|136:104|160:96,1,50,2|0,0:0|0:0,0:0:0:0:
312,140,176471,2,0,P|284:140|260:148,1,50
120,192,176708,2,0,P|148:192|172:184,1,50,8|0,0:0|0:0,0:0:0:0:
328,232,176947,2,0,P|300:232|276:240,1,50
188,280,177185,2,0,P|140:292|88:284,1,100
320,324,177662,2,0,P|369:331|417:319,1,100,8|0,0:0|0:0,0:0:0:0:
460,184,178138,6,0,L|467:233,1,50,2|0,0:0|0:0,0:0:0:0:
384,116,178376,2,0,L|391:66,1,50
328,232,178614,2,0,P|296:272|248:288,1,100,8|0,0:0|0:0,0:0:0:0:
88,176,179090,2,0,L|80:126,1,50
124,276,179328,2,0,L|116:325,1,50
168,136,179566,2,0,L|160:76,1,50,8|0,0:0|0:0,0:0:0:0:
208,256,179804,1,0,0:0:0:0:
368,192,180043,6,0,P|396:156|404:104,1,100,2|0,0:0|0:0,0:0:0:0:
256,80,180519,2,0,P|220:52|168:44,1,100,8|0,0:0|0:0,0:0:0:0:
144,192,180995,2,0,P|116:228|108:280,1,100
256,304,181471,2,0,P|292:332|344:340,1,100,8|0,0:0|0:0,0:0:0:0:
348,224,181947,6,0,P|390:206|423:165,1,100,2|0,0:0|0:0,0:0:0:0:
328,120,182424,2,0,P|348:76|324:36,1,100,8|0,0:0|0:0,0:0:0:0:
188,35,182900,2,0,P|163:76|184:120,1,100
88,165,183376,2,0,P|118:204|164:224,1,100,8|0,0:0|0:0,0:0:0:0:
328,120,183852,5,2,0:0:0:0:
184,120,184090,1,0,0:0:0:0:
104,276,184328,2,0,P|128:320|176:324,1,100,8|0,0:0|0:0,0:0:0:0:
256,192,184804,1,0,0:0:0:0:
256,192,185043,1,0,0:0:0:0:
408,276,185281,2,0,P|384:320|336:324,1,100,8|0,0:0|0:0,0:0:0:0:
256,192,185757,5,4,0:1:0:0:
256,192,185876,12,0,189924,0:0:0:0:
