osu file format v14

[General]
AudioFilename: Stereo20mindenmahs.mp3
AudioLeadIn: 0
PreviewTime: 48614
Countdown: 0
SampleSet: None
StackLeniency: 0.7
Mode: 0
LetterboxInBreaks: 0
WidescreenStoryboard: 1

[Editor]
Bookmarks: 4804,20043,35281,50519,65757,80995,96233,111471,126709,141947,157185,172424,187662,189924
DistanceSpacing: 1
BeatDivisor: 2
GridSize: 4
TimelineZoom: 1

[Metadata]
Title:Minden Mas
TitleUnicode:Minden Más
Artist:STEREO 2.0
ArtistUnicode:STEREO 2.0
Creator:Alarido
Version:Railgun's Easy
Source:
Tags:alexabm kazuya Kazuya-sama collab collaboration project_railgun hungarian magyar
BeatmapID:527770
BeatmapSetID:223454

[Difficulty]
HPDrainRate:2
CircleSize:2.7
OverallDifficulty:2
ApproachRate:3.4
SliderMultiplier:0.999999999999999
SliderTickRate:1

[Events]
//Background and Video events
0,0,"bg.jpg",0,0
//Break Periods
2,65957,77699
//Storyboard Layer 0 (Background)
//Storyboard Layer 1 (Fail)
//Storyboard Layer 2 (Pass)
//Storyboard Layer 3 (Foreground)
//Storyboard Sound Samples

[TimingPoints]
4805,476.190476190476,4,3,1,55,1,0
18138,-100,4,3,1,35,0,0
20043,-100,4,3,1,55,0,0
50519,-100,4,3,1,75,0,1
65697,-100,4,3,1,55,0,1
65757,-100,4,3,1,55,0,0
65816,-100,4,3,1,75,0,0
79090,-100,4,3,1,35,0,0
80995,-100,4,3,1,55,0,0
111471,-100,4,3,1,75,0,1
126709,-100,4,3,1,55,0,0
141947,-100,4,3,1,75,0,1
157066,-100,4,3,1,55,0,0
157185,-100,4,3,1,75,0,1
172424,-100,4,3,1,50,0,0

[Colours]
Combo1 : 191,177,128
Combo2 : 0,83,0
Combo3 : 82,154,128
Combo4 : 74,101,149

[HitObjects]
256,192,43,12,0,2900,2:0:0:0:
104,272,4804,6,0,P|150:287|196:271,1,99.9999999999999,0|8,0:0|0:0,0:0:0:0:
256,192,5757,2,0,L|256:92,1,99.9999999999999,0|8,0:0|0:0,0:0:0:0:
340,35,6709,2,0,P|388:29|433:51,2,99.9999999999999,0|8|0,0:0|0:0|0:0,0:0:0:0:
256,92,8138,1,8,0:0:0:0:
172,35,8614,6,0,P|123:29|78:51,2,99.9999999999999,0|8|0,0:0|0:0|0:0,0:0:0:0:
256,92,10043,1,8,0:0:0:0:
336,152,10519,2,0,L|435:158,1,99.9999999999999,0|8,0:0|0:0,0:0:0:0:
468,252,11471,2,0,L|368:245,1,99.9999999999999,0|8,0:0|0:0,0:0:0:0:
272,224,12424,6,0,P|186:268|101:223,1,200
36,148,13852,1,8,0:0:0:0:
100,72,14328,2,0,B|156:108|192:108|192:108|234:76|286:94,1,200
380,128,15757,1,8,0:0:0:0:
396,228,16233,6,0,P|360:261|347:309,1,99.9999999999999,0|8,0:0|0:0,0:0:0:0:
256,352,17185,1,0,0:0:0:0:
164,309,17662,1,8,0:0:0:0:
240,235,18138,2,0,P|239:62|71:106,1,400,12|0,0:0|0:0,0:0:0:0:
36,268,20757,6,0,P|101:300|170:277,1,150,0|8,0:0|0:0,0:0:0:0:
204,240,21709,2,0,P|273:216|343:240,1,150,0|8,0:0|0:0,0:0:0:0:
420,308,22900,2,0,L|435:209,2,99.9999999999999,0|8|0,0:0|0:0|0:0,0:0:0:0:
276,344,24566,6,0,B|224:344|224:344|184:328|184:328|129:328,1,150,0|8,0:0|0:0,0:0:0:0:
80,328,25519,2,0,P|48:261|67:190,1,150,0|8,0:0|0:0,0:0:0:0:
144,128,26709,2,0,P|165:83|157:35,2,99.9999999999999,0|8|0,0:0|0:0|0:0,0:0:0:0:
103,271,28376,6,0,P|161:315|230:293,1,150
268,260,29328,1,0,0:0:0:0:
300,220,29566,2,0,L|400:218,1,99.9999999999999,0|8,0:0|0:0,0:0:0:0:
368,120,30519,2,0,L|268:122,2,99.9999999999999,0|8|0,0:0|0:0|0:0,0:0:0:0:
412,96,31709,6,0,P|458:111|488:150,1,99.9999999999999
480,200,32424,1,0,0:0:0:0:
404,268,32900,2,0,P|355:257|307:270,1,99.9999999999999,8|0,0:0|0:0,0:0:0:0:
204,270,33852,2,0,P|156:257|108:268,1,99.9999999999999,8|0,0:0|0:0,0:0:0:0:
12,296,34804,6,0,L|36:196,1,99.9999999999999,8|6,0:0|0:0,0:0:0:0:
80,108,35757,1,8,0:0:0:0:
172,68,36233,2,0,P|219:54|268:64,1,99.9999999999999,0|8,0:0|0:0,0:0:0:0:
352,120,37185,2,0,P|400:129|448:116,2,99.9999999999999,0|8|0,0:0|0:0|0:0,0:0:0:0:
256,152,38614,1,8,0:0:0:0:
192,231,39090,6,0,P|144:244|98:227,1,99.9999999999999,4|8,0:0|0:0,0:0:0:0:
152,140,40043,2,0,L|176:28,2,99.9999999999999,0|8|0,0:0|0:0|0:0,0:0:0:0:
60,176,41471,1,8,0:0:0:0:
28,272,41947,1,0,0:0:0:0:
116,308,42424,6,0,P|164:295|213:304,1,99.9999999999999,8|6,0:0|0:0,0:0:0:0:
304,352,43376,2,0,P|352:360|401:348,2,99.9999999999999,8|0|8,0:0|0:0|0:0,0:0:0:0:
348,264,44804,2,0,L|363:165,1,99.9999999999999,0|8,0:0|0:0,0:0:0:0:
284,108,45757,2,0,L|268:206,1,99.9999999999999,0|8,0:0|0:0,0:0:0:0:
252,252,46471,6,0,B|201:240|153:260|153:260|93:289|60:260,1,200
36,216,47662,2,0,L|31:166,1,50,2|2,0:0|0:0,0:0:0:0:
80,80,48376,6,0,B|132:56|132:56|200:108|264:69,1,200
304,40,49566,1,2,0:0:0:0:
396,80,50043,1,2,0:0:0:0:
376,176,50519,6,0,B|372:224|372:224|344:267,1,99.9999999999999,4|8,0:2|0:0,0:0:0:0:
296,284,51233,2,0,L|196:290,1,99.9999999999999
96,284,52185,2,0,P|43:234|55:163,1,150,0|8,0:0|0:0,0:0:0:0:
96,132,53138,6,0,L|194:113,1,99.9999999999999
332,56,54328,2,0,P|380:43|428:56,2,99.9999999999999,0|8|0,0:0|0:0|0:0,0:0:0:0:
256,124,55757,1,8,0:0:0:0:
332,188,56233,2,0,P|380:200|428:187,2,99.9999999999999,0|8|0,0:0|0:0|0:0,0:0:0:0:
256,124,57662,1,8,0:0:0:0:
180,192,58138,6,0,B|184:240|184:240|212:283,1,99.9999999999999,4|8,0:2|0:0,0:0:0:0:
256,308,58852,2,0,L|388:312,1,99.9999999999999
447,276,59804,2,0,P|487:215|463:146,1,150,0|8,0:0|0:0,0:0:0:0:
416,128,60757,6,0,L|317:112,1,99.9999999999999
180,56,61947,2,0,P|132:43|84:56,2,99.9999999999999,0|8|0,0:0|0:0|0:0,0:0:0:0:
256,124,63376,1,8,0:0:0:0:
180,188,63852,2,0,P|132:200|84:187,2,99.9999999999999,0|8|0,0:0|0:0|0:0,0:0:0:0:
256,124,65281,2,0,L|256:74,2,50,4|0|4,0:0|0:0|0:2,0:0:0:0:
200,276,79090,6,0,P|168:156|340:224,1,400,12|0,0:0|0:0,0:0:0:0:
452,344,81709,6,0,P|420:279|443:210,1,150,0|8,0:0|0:0,0:0:0:0:
440,160,82662,2,0,P|371:136|301:160,1,150,0|8,0:0|0:0,0:0:0:0:
204,188,83852,2,0,B|168:188|168:188|140:180|140:180|105:180,2,99.9999999999999,0|8|0,0:0|0:0|0:0,0:0:0:0:
256,328,85519,6,0,P|328:335|381:285,1,150,0|8,0:0|0:0,0:0:0:0:
404,240,86471,2,0,B|384:184|384:184|416:144|408:100,1,150,0|8,0:0|0:0,0:0:0:0:
304,112,87662,2,0,P|255:101|207:113,2,99.9999999999999,0|8|0,0:0|0:0|0:0,0:0:0:0:
256,256,89328,6,0,B|212:283|176:267|176:267|144:251|113:272,1,150,0|8,0:0|0:0,0:0:0:0:
64,268,90281,1,0,0:0:0:0:
40,224,90519,2,0,P|52:175|47:126,1,99.9999999999999,0|8,0:0|0:0,0:0:0:0:
128,60,91471,2,0,L|236:48,2,99.9999999999999,0|8|0,0:0|0:0|0:0,0:0:0:0:
76,60,92662,6,0,P|24:96|28:160,1,99.9999999999999
28,180,93376,1,0,0:0:0:0:
107,240,93852,2,0,P|156:229|204:242,1,99.9999999999999,8|0,0:0|0:0,0:0:0:0:
307,241,94804,2,0,P|355:228|404:240,1,99.9999999999999,8|0,0:0|0:0,0:0:0:0:
500,268,95757,6,0,L|472:168,1,99.9999999999999,8|6,0:0|0:0,0:0:0:0:
436,80,96709,1,8,0:0:0:0:
336,60,97185,2,0,P|287:69|237:62,1,99.9999999999999,0|8,0:0|0:0,0:0:0:0:
144,96,98138,2,0,P|94:89|45:98,2,99.9999999999999,0|8|0,0:0|0:0|0:0,0:0:0:0:
216,164,99566,1,8,0:0:0:0:
264,76,100043,6,0,L|363:79,1,99.9999999999999,4|8,0:0|0:0,0:0:0:0:
316,168,100995,2,0,L|216:164,2,99.9999999999999,0|8|0,0:0|0:0|0:0,0:0:0:0:
412,200,102424,1,8,0:0:0:0:
368,288,102900,1,0,0:0:0:0:
280,244,103376,6,0,P|230:245|193:277,1,99.9999999999999,8|6,0:0|0:0,0:0:0:0:
132,356,104328,1,8,0:0:0:0:
68,280,104804,2,0,P|47:234|50:185,1,99.9999999999999,0|8,0:0|0:0,0:0:0:0:
124,116,105757,2,0,P|144:161|141:210,1,99.9999999999999,0|8,0:0|0:0,0:0:0:0:
68,280,106709,2,0,P|108:308|157:312,1,99.9999999999999,0|8,0:0|0:0,0:0:0:0:
208,296,107424,6,0,B|264:328|296:284|296:284|342:320|389:272,1,200
408,232,108614,2,0,P|394:210|391:186,1,50,2|2,0:0|0:0,0:0:0:0:
436,92,109328,6,0,B|384:68|332:100|332:100|285:124|244:107,1,200
208,72,110519,1,2,0:0:0:0:
120,128,110995,1,2,0:0:0:0:
172,212,111471,6,0,P|174:261|147:302,1,99.9999999999999,4|8,0:2|0:0,0:0:0:0:
124,344,112185,2,0,L|223:351,1,99.9999999999999
324,348,113138,2,0,B|340:292|288:252|288:252|301:214,1,150,0|8,0:0|0:0,0:0:0:0:
332,176,114090,6,0,P|344:128|329:81,1,99.9999999999999,0|0,0:0|0:0,0:0:0:0:
182,81,115281,2,0,P|167:128|180:176,2,99.9999999999999,0|8|0,0:0|0:0|0:0,0:0:0:0:
256,12,116709,1,8,0:0:0:0:
329,81,117185,2,0,P|344:128|332:176,2,99.9999999999999,0|8|0,0:0|0:0|0:0,0:0:0:0:
256,12,118614,1,8,0:0:0:0:
181,81,119090,6,0,P|133:93|86:80,1,99.9999999999999,4|8,0:2|0:0,0:0:0:0:
44,52,119804,2,0,L|56:176,1,99.9999999999999
36,252,120757,2,0,B|104:272|144:212|144:212|169:212,1,150,0|8,0:0|0:0,0:0:0:0:
208,244,121709,6,0,P|228:288|273:307,1,99.9999999999999
332,175,122900,2,0,P|344:128|329:81,2,99.9999999999999,0|8|0,0:0|0:0|0:0,0:0:0:0:
256,244,124328,1,8,0:0:0:0:
179,175,124804,2,0,P|166:128|181:81,2,99.9999999999999,0|8|0,0:0|0:0|0:0,0:0:0:0:
256,244,126233,1,8,0:0:0:0:
340,296,126709,6,0,L|439:289,1,99.9999999999999,4|8,0:0|0:0,0:0:0:0:
472,196,127662,2,0,L|372:202,1,99.9999999999999,0|8,0:0|0:0,0:0:0:0:
276,176,128614,2,0,P|263:128|271:79,2,99.9999999999999,0|8|0,0:0|0:0|0:0,0:0:0:0:
256,276,130043,1,8,0:0:0:0:
168,228,130519,6,0,B|141:197|141:197|116:208|82:194,1,99.9999999999999,4|8,0:0|0:0,0:0:0:0:
112,100,131471,1,0,0:0:0:0:
184,28,131947,1,8,0:0:0:0:
256,96,132424,2,0,B|284:103|284:103|320:91|351:114,1,99.9999999999999,4|8,0:0|0:0,0:0:0:0:
304,204,133376,2,0,P|284:249|292:298,1,99.9999999999999,0|8,0:0|0:0,0:0:0:0:
388,268,134328,6,0,B|428:244|444:272|485:261,2,99.9999999999999,4|8|0,0:0|0:0|0:0,0:0:0:0:
292,296,135757,1,8,0:0:0:0:
204,344,136233,2,0,L|104:347,1,99.9999999999999,0|8,0:0|0:0,0:0:0:0:
64,256,137185,2,0,L|163:252,1,99.9999999999999,0|8,0:0|0:0,0:0:0:0:
256,212,138138,6,0,B|287:133|215:133|249:68,2,150,4|0|8,0:0|0:0|0:0,0:0:0:0:
164,252,140043,2,0,P|255:323|346:253,1,250,4|0,0:0|0:0,0:0:0:0:
416,120,141947,6,0,B|388:92|388:92|356:104|328:97,1,99.9999999999999,4|8,0:2|0:0,0:0:0:0:
304,52,142662,2,0,P|255:39|207:51,1,99.9999999999999
131,115,143614,2,0,P|155:184|117:246,1,150,0|8,0:0|0:0,0:0:0:0:
80,276,144566,6,0,L|178:294,1,99.9999999999999
333,294,145757,2,0,L|432:276,2,99.9999999999999,0|8|0,0:0|0:0|0:0,0:0:0:0:
256,360,147185,1,8,0:0:0:0:
178,294,147662,2,0,L|80:276,2,99.9999999999999,0|8|0,0:0|0:0|0:0,0:0:0:0:
256,228,149090,1,8,0:0:0:0:
332,164,149566,6,0,P|379:150|426:164,1,99.9999999999999,4|8,0:2|0:0,0:0:0:0:
464,196,150281,2,0,L|470:96,1,99.9999999999999
392,36,151233,2,0,B|352:24|312:48|312:48|280:64|247:48,1,150,0|8,0:0|0:0,0:0:0:0:
200,44,152185,6,0,P|186:91|132:128,1,99.9999999999999
68,248,153376,2,0,P|113:267|163:266,1,99.9999999999999,0|8,0:0|0:0,0:0:0:0:
256,228,154328,1,0,0:0:0:0:
340,284,154804,1,8,0:0:0:0:
388,196,155281,2,0,L|406:97,2,99.9999999999999,0|8|0,0:0|0:0|0:0,0:0:0:0:
340,284,156709,2,0,P|304:292|284:304,1,50,8|0,0:0|0:0,0:0:0:0:
256,332,157185,6,0,B|240:288|272:264|259:233,1,99.9999999999999,4|8,0:2|0:0,0:0:0:0:
220,204,157900,2,0,P|172:192|139:154,1,99.9999999999999
188,68,158852,2,0,B|224:80|256:48|256:48|288:80|324:68,1,150,0|8,0:0|0:0,0:0:0:0:
372,52,159804,6,0,P|418:36|467:45,1,99.9999999999999
436,192,160995,2,0,L|448:291,2,99.9999999999999,0|8|0,0:0|0:0|0:0,0:0:0:0:
352,136,162424,1,8,0:0:0:0:
256,104,162900,2,0,P|208:90|163:107,1,99.9999999999999,0|8,0:0|0:0,0:0:0:0:
116,196,163852,2,0,P|163:209|208:192,1,99.9999999999999,0|8,0:0|0:0,0:0:0:0:
303,192,164804,6,0,P|348:209|396:196,1,99.9999999999999,4|8,0:2|0:0,0:0:0:0:
436,164,165519,2,0,L|425:263,1,99.9999999999999
328,296,166471,2,0,B|292:312|256:296|256:296|228:284|182:304,1,150,0|8,0:0|0:0,0:0:0:0:
140,332,167424,6,0,P|94:348|45:339,1,99.9999999999999
76,192,168614,2,0,L|63:92,2,99.9999999999999,0|8|0,0:0|0:0|0:0,0:0:0:0:
164,240,170043,1,8,0:0:0:0:
256,280,170519,2,0,L|355:290,1,99.9999999999999,0|8,0:0|0:0,0:0:0:0:
408,204,171471,2,0,L|308:193,1,99.9999999999999,0|8,0:0|0:0,0:0:0:0:
216,156,172424,6,0,P|203:107|216:60,2,99.9999999999999,4|8|0,0:0|0:0|0:0,0:0:0:0:
256,248,173852,1,8,0:0:0:0:
172,304,174328,2,0,P|123:316|76:303,2,99.9999999999999,4|8|0,0:0|0:0|0:0,0:0:0:0:
256,248,175757,1,8,0:0:0:0:
324,176,176233,6,0,L|340:77,1,99.9999999999999,4|8,0:0|0:0,0:0:0:0:
440,64,177185,2,0,L|423:162,1,99.9999999999999,0|8,0:0|0:0,0:0:0:0:
396,260,178138,2,0,P|443:273|487:251,2,99.9999999999999,4|8|0,0:0|0:0|0:0,0:0:0:0:
308,212,179566,1,8,0:0:0:0:
256,296,180043,6,0,P|165:329|81:279,1,200,4|0,0:0|0:0,0:0:0:0:
36,192,181471,1,8,0:0:0:0:
64,96,181947,2,0,B|114:60|156:88|156:88|186:44|245:55,1,200,4|0,0:0|0:0,0:0:0:0:
336,96,183376,1,8,0:0:0:0:
400,172,183852,6,0,L|414:270,2,99.9999999999999,4|8|0,0:0|0:0|0:0,0:0:0:0:
336,96,185281,1,8,0:0:0:0:
256,192,185757,12,0,189924,0:0:0:0:
