osu file format v14

[General]
AudioFilename: Stereo20mindenmahs.mp3
AudioLeadIn: 0
PreviewTime: 48614
Countdown: 0
SampleSet: None
StackLeniency: 0.7
Mode: 0
LetterboxInBreaks: 0
WidescreenStoryboard: 1

[Editor]
Bookmarks: 4804,20043,35281,50519,65757,80995,96233,111471,126709,141947,157066,157185,172424,187662
DistanceSpacing: 1.1
BeatDivisor: 4
GridSize: 4
TimelineZoom: 1

[Metadata]
Title:Minden Mas
TitleUnicode:Minden Más
Artist:STEREO 2.0
ArtistUnicode:STEREO 2.0
Creator:Alarido
Version:Hard
Source:
Tags:alexabm kazuya Kazuya-sama collab collaboration project_railgun hungarian magyar
BeatmapID:522980
BeatmapSetID:223454

[Difficulty]
HPDrainRate:6
CircleSize:4
OverallDifficulty:6
ApproachRate:7
SliderMultiplier:1.7
SliderTickRate:1

[Events]
//Background and Video events
0,0,"bg.jpg",0,0
//Break Periods
2,65957,78115
//Storyboard Layer 0 (Background)
//Storyboard Layer 1 (Fail)
//Storyboard Layer 2 (Pass)
//Storyboard Layer 3 (Foreground)
//Storyboard Sound Samples

[TimingPoints]
4805,476.190476190476,4,3,1,55,1,0
50519,-83.3333333333333,4,3,1,75,0,1
65757,-100,4,3,1,55,0,0
111471,-83.3333333333333,4,3,1,75,0,1
126709,-100,4,3,1,55,0,0
141947,-83.3333333333333,4,3,1,75,0,1
157066,-100,4,3,1,55,0,0
157185,-83.3333333333333,4,3,1,75,0,1
172424,-100,4,3,1,50,0,0

[Colours]
Combo1 : 191,177,128
Combo2 : 0,83,0
Combo3 : 82,154,128
Combo4 : 74,101,149

[HitObjects]
256,192,43,12,0,2900,2:0:0:0:
168,68,4804,6,0,P|132:40|92:36,1,85
100,128,5281,2,0,P|57:136|28:164,1,85,8|0,0:0|0:0,0:0:0:0:
104,220,5757,2,0,P|92:268|164:352,1,170,0|8,0:0|0:0,0:0:0:0:
256,352,6471,1,0,0:0:0:0:
344,316,6709,2,0,P|380:344|420:348,1,85
412,256,7186,2,0,P|454:247|483:219,1,85,8|0,0:0|0:0,0:0:0:0:
408,164,7662,2,0,P|420:116|348:32,1,170,0|8,0:0|0:0,0:0:0:0:
256,32,8376,1,0,0:0:0:0:
176,84,8614,6,0,L|164:168,1,85,0|0,0:0|0:0,0:0:0:0:
252,204,9090,2,0,L|264:120,1,85,8|0,0:0|0:0,0:0:0:0:
352,156,9566,2,0,L|331:326,1,170,0|8,0:0|0:0,0:0:0:0:
331,324,10281,1,0,0:0:0:0:
240,288,10519,2,0,L|252:204,1,85,0|0,0:0|0:0,0:0:0:0:
164,168,10995,2,0,L|152:252,1,85,8|0,0:0|0:0,0:0:0:0:
64,216,11471,2,0,L|85:46,1,170,0|8,0:0|0:0,0:0:0:0:
84,47,12186,1,0,0:0:0:0:
184,32,12424,5,0,0:0:0:0:
248,112,12662,1,0,0:0:0:0:
332,52,12900,1,8,0:0:0:0:
392,136,13138,1,0,0:0:0:0:
476,76,13376,2,0,L|452:244,1,170,0|8,0:0|0:0,0:0:0:0:
451,244,14090,1,0,0:0:0:0:
384,324,14328,5,0,0:0:0:0:
312,252,14566,1,0,0:0:0:0:
252,332,14804,1,8,0:0:0:0:
180,260,15042,1,0,0:0:0:0:
88,312,15281,2,0,L|112:144,1,170,0|8,0:0|0:0,0:0:0:0:
80,56,15995,1,0,0:0:0:0:
112,144,16233,6,0,P|152:156|196:144,1,85
272,95,16709,2,0,P|312:85|352:96,1,85,8|0,0:0|0:0,0:0:0:0:
403,175,17185,2,0,P|374:252|296:276,1,170,0|8,0:0|0:0,0:0:0:0:
204,228,17900,1,0,0:0:0:0:
256,192,18138,12,0,20043,0:0:0:0:
136,60,20757,6,0,B|220:44|216:80|304:60,1,170,2|0,0:0|0:0,0:0:0:0:
304,60,21471,1,8,0:0:0:0:
388,96,21709,1,0,0:0:0:0:
408,188,21947,2,0,P|400:228|368:260,1,85
280,280,22424,2,0,P|240:272|208:240,1,85,8|0,0:0|0:0,0:0:0:0:
216,148,22900,2,0,L|132:172,1,85
156,72,23376,2,0,L|240:48,1,85,8|0,0:0|0:0,0:0:0:0:
328,76,23852,5,0,0:0:0:0:
320,168,24090,1,0,0:0:0:0:
388,232,24328,1,8,0:0:0:0:
376,324,24566,2,0,B|288:344|296:304|208:324,1,170,2|0,0:0|0:0,0:0:0:0:
208,324,25280,1,8,0:0:0:0:
124,288,25518,1,0,0:0:0:0:
104,196,25756,2,0,P|112:156|144:124,1,85
232,104,26233,2,0,P|272:112|304:144,1,85,8|0,0:0|0:0,0:0:0:0:
296,236,26709,2,0,L|380:212,1,85
356,312,27185,2,0,L|272:336,1,85,8|0,0:0|0:0,0:0:0:0:
180,340,27662,6,0,P|108:304|92:220,1,170,0|8,0:0|0:0,0:0:0:0:
128,136,28376,1,0,0:0:0:0:
208,88,28614,2,0,P|180:56|140:44,1,85,2|0,0:0|0:0,0:0:0:0:
208,88,28971,2,0,P|226:126|301:154,1,127.5,2|0,0:0|0:0,0:0:0:0:
391,123,29566,2,0,L|475:95,2,85,0|0|8,0:0|0:0|0:0,0:0:0:0:
303,155,30281,2,0,P|250:211|266:296,1,170
420,228,30995,2,0,L|336:240,1,85,8|0,0:0|0:0,0:0:0:0:
452,316,31471,6,0,P|504:259|491:169,1,170,0|8,0:0|0:0,0:0:0:0:
432,104,32185,1,0,0:0:0:0:
340,84,32424,2,0,P|340:132|372:176,1,85
340,84,32781,2,0,P|288:84|232:140,1,127.5,2|0,0:0|0:0,0:0:0:0:
204,220,33376,2,0,L|180:302,1,85
92,328,33852,2,0,L|68:245,1,85
48,156,34328,2,0,P|68:88|152:40,1,170,0|8,0:0|0:0,0:0:0:0:
336,48,35281,6,0,L|418:73,1,85
348,136,35757,2,0,L|249:104,1,85,8|0,0:0|0:0,0:0:0:0:
180,76,36233,2,0,P|88:76|32:132,1,170
8,216,36947,2,0,P|40:280|132:284,1,170
200,224,37662,1,8,0:0:0:0:
292,204,37900,1,0,0:0:0:0:
380,236,38138,2,0,P|380:300|292:344,1,170,0|8,0:0|0:0,0:0:0:0:
109,262,39090,6,0,L|146:185,1,85
188,84,39566,2,0,P|220:104|244:144,1,85,8|0,0:0|0:0,0:0:0:0:
258,251,40042,1,0,0:0:0:0:
389,212,40280,1,0,0:0:0:0:
342,294,40518,1,8,0:0:0:0:
473,251,40756,2,0,P|474:171|406:119,1,170
308,124,41471,1,8,0:0:0:0:
224,160,41709,1,0,0:0:0:0:
132,148,41947,2,0,P|132:84|220:40,1,170,0|8,0:0|0:0,0:0:0:0:
380,236,42900,6,0,P|380:300|292:344,1,170,0|8,0:0|0:0,0:0:0:0:
192,344,43614,1,0,0:0:0:0:
212,244,43852,1,0,0:0:0:0:
112,236,44090,1,0,0:0:0:0:
136,136,44328,1,8,0:0:0:0:
236,148,44566,2,0,P|224:76|140:36,1,170
63,168,45281,2,0,P|105:164|136:136,1,85,8|0,0:0|0:0,0:0:0:0:
68,256,45757,2,0,P|104:308|204:316,1,170,0|8,0:0|0:0,0:0:0:0:
284,264,46471,6,0,P|366:261|420:323,1,170,0|0,0:0|0:0,0:0:0:0:
468,244,47185,1,8,0:0:0:0:
448,152,47424,1,0,0:0:0:0:
376,92,47662,2,0,P|339:80|296:96,1,85
224,152,48138,2,0,P|184:166|144:155,1,85,8|0,0:0|0:0,0:0:0:0:
256,192,48614,12,0,50043,0:0:0:0:
228,52,50519,6,0,P|200:92|196:148,1,101.999996887207,4|0,0:2|0:0,0:0:0:0:
116,220,50995,2,0,P|156:248|212:252,1,101.999996887207,8|0,0:0|0:0,0:0:0:0:
284,332,51471,2,0,P|312:292|316:236,1,101.999996887207
396,164,51947,2,0,P|356:136|300:132,1,101.999996887207,8|0,0:0|0:0,0:0:0:0:
207,252,52424,2,0,P|157:248|116:220,1,101.999996887207
195,143,52900,2,0,P|199:93|228:52,1,101.999996887207,8|0,0:0|0:0,0:0:0:0:
304,131,53376,2,0,P|354:135|396:164,1,101.999996887207
316,240,53852,2,0,P|312:290|284:332,1,101.999996887207,8|0,0:0|0:0,0:0:0:0:
195,143,54328,6,0,P|228:56|328:24,1,203.999993774414,0|8,0:0|0:0,0:0:0:0:
428,56,55043,1,0,0:0:0:0:
472,148,55281,2,0,P|472:200|448:244,1,101.999996887207
356,288,55757,2,0,P|308:280|272:244,1,101.999996887207,8|0,0:0|0:0,0:0:0:0:
240,140,56233,2,0,P|205:104|156:96,1,101.999996887207
63,140,56709,2,0,P|40:184|48:236,1,101.999996887207,8|0,0:0|0:0,0:0:0:0:
136,304,57185,2,0,B|224:336|248:276|336:308,1,203.999993774414,0|8,0:0|0:0,0:0:0:0:
336,308,57900,1,0,0:0:0:0:
392,208,58138,6,0,P|388:116|296:72,1,203.999993774414,4|8,0:2|0:0,0:0:0:0:
196,96,58852,1,0,0:0:0:0:
120,176,59090,2,0,P|84:180|28:148,1,101.999996887207
104,68,59566,2,0,P|152:68|196:96,1,101.999996887207,8|0,0:0|0:0,0:0:0:0:
120,176,60043,2,0,P|124:268|216:312,1,203.999993774414,0|8,0:0|0:0,0:0:0:0:
316,288,60757,1,0,0:0:0:0:
392,208,60995,2,0,P|428:204|484:236,1,101.999996887207
408,316,61471,2,0,P|360:316|316:288,1,101.999996887207,8|0,0:0|0:0,0:0:0:0:
392,208,61947,6,0,P|420:168|416:116,1,101.999996887207
344,44,62424,1,8,0:0:0:0:
256,96,62662,1,0,0:0:0:0:
168,44,62900,1,0,0:0:0:0:
95,116,63138,2,0,P|91:166|120:208,1,101.999996887207,0|8,0:0|0:0,0:0:0:0:
168,44,63614,1,0,0:0:0:0:
256,96,63852,5,0,0:0:0:0:
344,44,64090,1,0,0:0:0:0:
256,96,64328,2,0,L|256:200,1,101.999996887207,8|0,0:0|0:0,0:0:0:0:
172,252,64804,2,0,P|256:301|340:252,1,203.999993774414,0|8,0:0|0:0,0:0:0:0:
256,198,65519,1,0,0:0:0:0:
172,252,65757,5,4,0:2:0:0:
256,192,79090,12,0,80995,0:0:0:0:
96,52,81709,6,0,B|68:128|140:128|92:216,1,170,2|0,0:0|0:0,0:0:0:0:
32,284,82424,1,8,0:0:0:0:
112,328,82662,1,0,0:0:0:0:
192,280,82900,2,0,P|230:264|272:271,1,85,0|0,0:0|0:0,0:0:0:0:
360,304,83376,2,0,P|401:311|440:295,1,85,8|0,0:0|0:0,0:0:0:0:
480,212,83852,2,0,P|456:132|376:112,1,170,0|8,0:0|0:0,0:0:0:0:
288,132,84566,1,0,0:0:0:0:
240,212,84804,2,0,B|224:252|224:252|248:288,1,85
320,348,85281,1,8,0:0:0:0:
416,332,85519,6,0,B|444:256|372:256|420:168,1,170,2|0,0:0|0:0,0:0:0:0:
480,100,86234,1,8,0:0:0:0:
400,56,86472,1,0,0:0:0:0:
320,104,86710,2,0,P|281:119|239:112,1,85,0|0,0:0|0:0,0:0:0:0:
152,80,87186,2,0,P|110:72|71:88,1,85,8|0,0:0|0:0,0:0:0:0:
32,172,87662,2,0,P|56:252|136:272,1,170,0|8,0:0|0:0,0:0:0:0:
212,224,88376,1,0,0:0:0:0:
244,312,88614,6,0,P|278:337|318:341,1,85
312,248,89090,2,0,P|352:237|382:209,1,85,8|0,0:0|0:0,0:0:0:0:
412,120,89566,2,0,P|436:76|508:64,2,127.5,2|0|2,0:0|0:0|0:0,0:0:0:0:
336,64,90519,2,0,P|304:64|256:92,1,85
204,164,90995,1,8,0:0:0:0:
216,256,91233,2,0,P|163:321|84:318,1,170
106,152,91947,2,0,L|125:234,1,85,8|0,0:0|0:0,0:0:0:0:
15,131,92424,6,0,P|67:65|146:68,1,170,0|8,0:0|0:0,0:0:0:0:
106,152,93138,1,0,0:0:0:0:
200,152,93376,2,0,P|228:128|244:80,1,85
200,152,93733,2,0,P|248:183|256:248,1,127.5,2|0,0:0|0:0,0:0:0:0:
303,324,94328,2,0,B|308:332|308:332|348:340|376:308,1,85
210,324,94804,2,0,B|204:332|204:332|164:340|136:308,1,85,8|0,0:0|0:0,0:0:0:0:
256,249,95281,2,0,L|256:77,1,170,0|8,0:0|0:0,0:0:0:0:
44,88,96233,6,0,P|36:136|52:176,1,85
132,216,96709,1,8,0:0:0:0:
128,124,96947,1,0,0:0:0:0:
76,288,97185,2,0,P|120:308|163:303,1,85
236,256,97662,1,8,0:0:0:0:
296,184,97900,2,0,P|380:166|440:217,1,170
355,259,98614,2,0,L|332:340,1,85,8|0,0:0|0:0,0:0:0:0:
296,184,99090,2,0,L|318:102,1,85
236,256,99566,1,8,0:0:0:0:
468,296,100043,6,0,P|476:248|460:208,1,85
380,168,100519,1,8,0:0:0:0:
384,260,100757,1,0,0:0:0:0:
436,96,100995,2,0,P|391:75|348:80,1,85
276,128,101472,1,8,0:0:0:0:
216,200,101710,2,0,P|131:217|71:166,1,170
157,125,102424,2,0,L|179:43,1,85,8|0,0:0|0:0,0:0:0:0:
216,200,102900,2,0,L|193:281,1,85
276,128,103376,2,0,L|298:46,1,85,8|0,0:0|0:0,0:0:0:0:
336,204,103852,5,0,0:0:0:0:
424,172,104090,1,0,0:0:0:0:
404,264,104328,1,8,0:0:0:0:
492,232,104566,1,0,0:0:0:0:
472,96,104804,2,0,P|432:80|388:88,2,85,0|0|8,0:0|0:0|0:0,0:0:0:0:
404,264,105519,2,0,P|332:308|256:284,1,170
216,208,106233,2,0,L|296:176,1,85,8|0,0:0|0:0,0:0:0:0:
256,100,106709,2,0,P|177:76|108:120,1,170,0|8,0:0|0:0,0:0:0:0:
76,208,107424,6,0,B|76:300|128:332|168:328,1,170
260,316,108138,1,8,0:0:0:0:
336,264,108376,1,0,0:0:0:0:
348,172,108614,2,0,P|336:136|300:108,1,85
208,128,109090,2,0,P|220:164|256:192,1,85,8|0,0:0|0:0,0:0:0:0:
256,192,109566,12,0,110995,0:0:0:0:
196,180,111471,6,0,P|146:190|112:228,1,101.999996887207,4|0,0:1|0:0,0:0:0:0:
244,252,111947,2,0,P|254:301|292:335,1,101.999996887207,8|0,0:0|0:0,0:0:0:0:
316,204,112424,2,0,P|365:193|399:156,1,101.999996887207
268,132,112900,2,0,P|257:82|220:48,1,101.999996887207,8|0,0:0|0:0,0:0:0:0:
140,156,113376,2,0,P|100:184|78:231,1,101.999996887207
182,327,113852,2,0,P|222:297|244:252,1,101.999996887207,8|0,0:0|0:0,0:0:0:0:
268,132,114328,2,0,P|289:86|329:56,1,101.999996887207
433,152,114804,2,0,P|412:198|372:228,1,101.999996887207,8|0,0:0|0:0,0:0:0:0:
244,252,115281,6,0,P|203:281|182:327,2,101.999996887207,0|0|8,0:0|0:0|0:0,0:0:0:0:
371,228,115995,1,0,0:0:0:0:
352,96,116233,2,0,P|305:72|256:76,1,101.999996887207
136,124,116709,2,0,P|85:127|40:104,2,101.999996887207,8|0|0,0:0|0:0|0:0,0:0:0:0:
257,75,117424,2,0,P|307:72|352:96,2,101.999996887207,0|8|0,0:0|0:0|0:0,0:0:0:0:
232,204,118138,2,0,P|288:292|380:304,1,203.999993774414,0|8,0:0|0:0,0:0:0:0:
380,303,118852,1,0,0:0:0:0:
468,220,119090,6,0,P|466:121|389:59,1,203.999993774414,4|8,0:2|0:0,0:0:0:0:
264,28,119804,1,0,0:0:0:0:
136,60,120043,2,0,P|98:99|88:143,1,101.999996887207
197,217,120519,2,0,P|233:181|244:133,1,101.999996887207,8|0,0:0|0:0,0:0:0:0:
89,144,120995,2,0,P|67:245|121:322,1,203.999993774414,0|8,0:0|0:0,0:0:0:0:
248,356,121709,1,0,0:0:0:0:
376,324,121947,2,0,P|413:284|423:240,1,101.999996887207
315,167,122423,2,0,P|278:202|267:250,1,101.999996887207,8|0,0:0|0:0,0:0:0:0:
423,240,122899,6,0,P|444:200|444:144,1,101.999996887207
344,56,123376,1,8,0:0:0:0:
256,156,123614,1,0,0:0:0:0:
168,56,123852,1,0,0:0:0:0:
67,144,124090,2,0,P|66:194|89:240,1,101.999996887207,0|8,0:0|0:0,0:0:0:0:
192,324,124566,1,0,0:0:0:0:
320,324,124804,1,0,0:0:0:0:
423,239,125043,2,0,P|445:194|444:144,2,101.999996887207,0|8|0,0:0|0:0|0:0,0:0:0:0:
348,144,125757,2,0,P|256:105|164:144,1,203.999993774414,0|8,0:0|0:0,0:0:0:0:
100,176,126352,6,0,L|48:184,2,50.9999984436036,0|0|0,0:0|0:0|0:0,0:0:0:0:
160,216,126709,2,0,P|160:264|184:296,1,85,4|0,0:2|0:0,0:0:0:0:
272,336,127185,1,8,0:0:0:0:
372,316,127424,1,0,0:0:0:0:
428,228,127662,2,0,L|476:220,2,42.5,2|0|0,0:0|0:0|0:0,0:0:0:0:
368,188,128019,2,0,P|368:128|324:80,1,127.5,2|0,0:0|0:0,0:0:0:0:
228,52,128614,6,0,L|184:56,2,42.5,2|0|0,0:0|0:0|0:0,0:0:0:0:
188,144,129090,2,0,P|148:139|112:108,1,85,8|0,0:0|0:0,0:0:0:0:
28,152,129566,2,0,P|40:192|28:232,1,85
114,272,130043,2,0,P|146:245|188:240,1,85,8|0,0:0|0:0,0:0:0:0:
288,264,130519,6,0,P|329:258|361:231,1,85
396,136,130995,1,8,0:0:0:0:
328,60,131233,2,0,L|284:52,1,42.5,2|0,0:0|0:0,0:0:0:0:
220,84,131471,2,0,P|196:120|196:160,1,85,2|0,0:0|0:0,0:0:0:0:
212,232,131828,2,0,P|200:292|148:328,1,127.5,2|0,0:0|0:0,0:0:0:0:
248,348,132424,6,0,L|336:336,1,85
396,256,132900,2,0,L|312:244,1,85,8|0,0:0|0:0,0:0:0:0:
368,156,133376,2,0,L|452:144,1,85,2|0,0:0|0:0,0:0:0:0:
368,156,133733,2,0,P|312:140|276:80,1,127.5,2|0,0:0|0:0,0:0:0:0:
188,32,134328,6,0,P|144:40|112:64,1,85,2|0,0:0|0:0,0:0:0:0:
44,140,134804,1,8,0:0:0:0:
68,240,135043,2,0,P|68:260|60:284,1,42.5
120,324,135281,2,0,P|160:331|200:316,1,85,2|0,0:0|0:0,0:0:0:0:
255,268,135638,2,0,P|300:248|376:264,1,127.5,2|0,0:0|0:0,0:0:0:0:
456,336,136233,1,0,0:0:0:0:
480,268,136352,6,0,P|483:248|476:218,3,42.5,0|0|0|8,0:0|0:0|0:0|0:0,0:0:0:0:
452,128,136947,2,0,P|432:128|408:120,1,42.5
340,100,137185,2,0,P|300:100|260:120,1,85,2|0,0:0|0:0,0:0:0:0:
204,168,137542,2,0,P|164:188|84:176,1,127.5,2|0,0:0|0:0,0:0:0:0:
20,72,138138,6,0,P|52:56|104:56,1,85,0|0,0:0|0:0,0:0:0:0:
204,92,138614,2,0,P|252:92|284:76,1,85,8|0,0:0|0:0,0:0:0:0:
356,56,138971,2,0,P|388:40|440:40,2,85,2|0|2,0:0|0:0|0:0,0:0:0:0:
274,193,139804,2,0,P|272:216|280:236,1,42.5
256,192,140043,12,0,141471,0:0:0:0:
140,152,141947,6,0,P|168:204|208:224,1,101.999996887207,4|0,0:1|0:0,0:0:0:0:
372,232,142424,2,0,P|344:180|304:160,1,101.999996887207,8|0,0:0|0:0,0:0:0:0:
216,308,142900,2,0,P|268:280|288:240,1,101.999996887207
296,76,143376,2,0,P|244:104|224:144,1,101.999996887207,8|0,0:0|0:0,0:0:0:0:
216,308,143852,2,0,P|266:339|310:336,1,101.999996887207
463,261,144328,2,0,P|422:232|372:232,1,101.999996887207,8|0,0:0|0:0,0:0:0:0:
200,204,144804,2,0,P|250:235|294:232,1,101.999996887207
447,161,145280,2,0,P|405:132|355:131,1,101.999996887207,8|0,0:0|0:0,0:0:0:0:
184,100,145757,6,0,P|234:131|278:128,1,101.999996887207
432,60,146233,1,8,0:0:0:0:
316,24,146471,1,0,0:0:0:0:
192,28,146709,2,0,P|141:40|112:88,1,101.999996887207
116,200,147185,2,0,L|136:300,1,101.999996887207,8|0,0:0|0:0,0:0:0:0:
224,204,147662,2,0,L|212:100,1,101.999996887207
316,24,148138,2,0,L|320:128,1,101.999996887207,8|0,0:0|0:0,0:0:0:0:
336,248,148614,2,0,P|404:324|480:280,1,203.999993774414,0|8,0:0|0:0,0:0:0:0:
412,248,149328,1,0,0:0:0:0:
320,126,149566,6,0,P|240:80|132:104,1,203.999993774414,4|8,0:2|0:0,0:0:0:0:
44,184,150281,1,0,0:0:0:0:
112,284,150519,2,0,P|160:307|210:302,1,101.999996887207
275,202,150995,2,0,P|226:178|176:183,1,101.999996887207,8|0,0:0|0:0,0:0:0:0:
206,303,151471,2,0,P|328:332|392:292,1,203.999993774414,0|8,0:0|0:0,0:0:0:0:
468,200,152185,1,0,0:0:0:0:
400,100,152423,2,0,P|351:76|301:81,1,101.999996887207
237,182,152899,2,0,P|285:205|335:200,1,101.999996887207,8|0,0:0|0:0,0:0:0:0:
305,80,153376,6,0,P|256:56|208:60,1,101.999996887207
92,92,153852,1,8,0:0:0:0:
24,192,154090,1,0,0:0:0:0:
92,292,154328,1,0,0:0:0:0:
208,332,154566,2,0,P|256:346|304:332,1,101.999996887207,0|8,0:0|0:0,0:0:0:0:
360,224,155043,1,0,0:0:0:0:
256,160,155281,1,0,0:0:0:0:
152,224,155519,1,0,0:0:0:0:
256,262,155757,2,0,L|256:160,1,101.999996887207,8|0,0:0|0:0,0:0:0:0:
216,44,156233,2,0,P|256:118|296:44,1,203.999993774414,0|8,0:0|0:0,0:0:0:0:
296,45,156947,1,0,0:0:0:0:
144,132,157185,6,0,P|124:164|124:228,1,101.999996887207,4|0,0:1|0:0,0:0:0:0:
208,300,157662,2,0,P|256:315|304:300,1,101.999996887207,8|0,0:0|0:0,0:0:0:0:
388,226,158138,2,0,P|391:176|368:132,1,101.999996887207
256,96,158614,2,0,L|256:152,2,50.9999984436036,8|0|0,0:0|0:0|0:0,0:0:0:0:
136,64,159090,2,0,B|92:84|92:84|76:136,1,101.999996887207,0|0,3:0|0:0,0:0:0:0:
108,252,159566,2,0,B|148:288|148:288|196:288,1,101.999996887207,8|0,0:0|0:0,0:0:0:0:
316,288,160043,2,0,B|368:288|368:288|404:252,1,101.999996887207
436,136,160519,2,0,B|420:84|420:84|376:64,1,101.999996887207,8|0,3:0|0:0,0:0:0:0:
256,100,160995,6,0,L|256:204,2,101.999996887207,0|0|8,0:0|0:0|0:0,0:0:0:0:
148,64,161709,1,0,0:0:0:0:
60,136,161947,1,0,0:0:0:0:
76,248,162185,2,0,P|108:276|164:268,1,101.999996887207,0|8,0:0|0:0,0:0:0:0:
256,202,162662,1,0,0:0:0:0:
348,268,162900,2,0,P|396:278|436:248,1,101.999996887207
452,136,163376,1,8,0:0:0:0:
364,64,163614,1,0,0:0:0:0:
256,88,163852,2,0,P|168:128|144:228,1,203.999993774414,0|8,0:0|0:0,0:0:0:0:
256,202,164566,1,0,0:0:0:0:
368,178,164804,6,0,P|345:274|256:316,1,203.999993774414,4|8,0:2|0:0,0:0:0:0:
144,304,165519,1,0,0:0:0:0:
40,260,165757,2,0,L|24:160,1,101.999996887207
92,68,166233,2,0,P|128:56|192:68,1,101.999996887207,8|0,0:0|0:0,0:0:0:0:
143,178,166709,2,0,P|166:274|255:316,1,203.999993774414,0|8,0:0|0:0,0:0:0:0:
368,304,167424,1,0,0:0:0:0:
472,260,167662,2,0,L|488:160,1,101.999996887207
420,68,168138,2,0,P|384:56|320:68,1,101.999996887207,8|0,0:0|0:0,0:0:0:0:
232,136,168614,6,0,P|182:147|134:134,1,101.999996887207
36,84,169090,1,8,0:0:0:0:
32,196,169328,1,0,0:0:0:0:
104,284,169566,1,0,0:0:0:0:
206,330,169804,2,0,P|256:342|306:330,1,101.999996887207,0|8,0:0|0:0,0:0:0:0:
408,284,170281,1,0,0:0:0:0:
480,196,170519,1,0,0:0:0:0:
476,84,170757,1,0,0:0:0:0:
376,32,170995,2,0,P|323:32|284:60,1,101.999996887207,8|0,0:0|0:0,0:0:0:0:
184,108,171471,2,0,P|258:168|356:144,1,203.999993774414,0|8,0:0|0:0,0:0:0:0:
284,60,172185,1,0,0:0:0:0:
164,40,172424,6,0,P|142:46|124:68,2,42.5,4|0|0,0:1|0:0|0:0,0:0:0:0:
284,60,172900,2,0,L|372:52,1,85,8|0,0:0|0:0,0:0:0:0:
408,144,173376,2,0,L|320:152,1,85,0|0,0:0|0:0,0:0:0:0:
362,243,173852,2,0,L|446:235,1,85,8|0,0:0|0:0,0:0:0:0:
344,340,174328,2,0,P|304:324|276:292,1,85
188,256,174804,2,0,L|100:264,1,85,8|0,0:0|0:0,0:0:0:0:
124,168,175280,2,0,L|212:160,1,85,0|0,0:0|0:0,0:0:0:0:
228,64,175756,2,0,L|143:71,1,85,8|0,0:0|0:0,0:0:0:0:
36,104,176233,6,0,P|32:80|36:52,2,42.5
60,212,176709,2,0,P|90:238|134:245,1,85,8|0,0:0|0:0,0:0:0:0:
272,176,177185,2,0,P|242:150|198:143,1,85,0|0,0:0|0:0,0:0:0:0:
244,292,177662,2,0,P|274:318|318:325,1,85,8|0,0:0|0:0,0:0:0:0:
424,288,178138,6,0,P|432:312|428:336,2,42.5
364,204,178614,2,0,L|384:116,1,85,8|0,0:0|0:0,0:0:0:0:
298,56,179090,2,0,L|214:56,1,85
129,121,179566,2,0,L|148:204,1,85,8|0,0:0|0:0,0:0:0:0:
214,292,180043,6,0,P|256:296|298:292,1,85
404,252,180519,2,0,P|448:184|432:96,1,170
214,192,181471,2,0,L|298:192,1,85
298,92,181947,6,0,P|256:88|214:92,1,85
108,132,182423,2,0,P|64:200|80:288,1,170
299,192,183376,2,0,L|215:192,1,85
180,288,183852,6,0,P|256:321|332:288,1,170
332,96,184804,2,0,P|256:63|180:96,1,170
256,192,185757,12,0,189924,0:0:0:0:
