osu file format v14

[General]
AudioFilename: Stereo20mindenmahs.mp3
AudioLeadIn: 0
PreviewTime: 48614
Countdown: 0
SampleSet: None
StackLeniency: 0.7
Mode: 0
LetterboxInBreaks: 0
WidescreenStoryboard: 1

[Editor]
Bookmarks: 4804,20043,35281,50519,65757,80995,96233,111471,126709,141947,157066,157185,172424,187662
DistanceSpacing: 1.3
BeatDivisor: 4
GridSize: 4
TimelineZoom: 1

[Metadata]
Title:Minden Mas
TitleUnicode:Minden Más
Artist:STEREO 2.0
ArtistUnicode:STEREO 2.0
Creator:Alarido
Version:BM's Normal
Source:
Tags:alexabm kazuya Kazuya-sama collab collaboration project_railgun hungarian magyar
BeatmapID:538196
BeatmapSetID:223454

[Difficulty]
HPDrainRate:4
CircleSize:3.5
OverallDifficulty:4
ApproachRate:5
SliderMultiplier:1.3
SliderTickRate:1

[Events]
//Background and Video events
0,0,"bg.jpg",0,0
//Break Periods
2,65957,77890
//Storyboard Layer 0 (Background)
//Storyboard Layer 1 (Fail)
//Storyboard Layer 2 (Pass)
//Storyboard Layer 3 (Foreground)
//Storyboard Sound Samples

[TimingPoints]
4805,476.190476190476,4,3,1,55,1,0
50519,-90.9090909090909,4,3,1,75,0,1
65757,-100,4,3,1,55,0,0
111471,-100,4,3,1,75,0,1
126709,-100,4,3,1,55,0,0
141947,-100,4,3,1,75,0,1
157066,-100,4,3,1,55,0,0
157185,-100,4,3,1,75,0,1
172424,-100,4,3,1,50,0,0

[Colours]
Combo1 : 191,177,128
Combo2 : 0,83,0
Combo3 : 82,154,128
Combo4 : 74,101,149

[HitObjects]
256,192,43,12,0,2900,2:0:0:0:
96,180,4804,6,0,P|60:184|12:172,2,65,0|0|0,0:0|0:0|0:0,0:0:0:0:
164,132,5519,1,0,0:0:0:0:
232,80,5757,2,0,P|288:56|364:88,1,130,0|8,0:0|0:0,0:0:0:0:
444,216,6709,6,0,L|436:308,1,65,0|0,0:0|0:0,0:0:0:0:
380,340,7185,1,8,0:0:0:0:
380,340,7424,1,0,0:0:0:0:
336,268,7662,2,0,L|348:116,1,130,0|8,0:0|0:0,0:0:0:0:
308,64,8376,1,0,0:0:0:0:
228,36,8614,6,0,P|172:32|136:44,1,65,0|0,0:0|0:0,0:0:0:0:
101,91,9090,2,0,P|96:122|99:155,1,65,8|0,0:0|0:0,0:0:0:0:
175,192,9566,2,0,P|122:237|57:229,1,130,0|8,0:0|0:0,0:0:0:0:
180,109,10519,6,0,P|207:95|259:102,1,65,0|0,0:0|0:0,0:0:0:0:
317,134,10995,1,8,0:0:0:0:
393,98,11233,1,0,0:0:0:0:
441,170,11471,2,0,L|405:295,1,130,0|8,0:0|0:0,0:0:0:0:
349,358,12185,1,0,0:0:0:0:
280,308,12424,6,0,P|242:302|206:313,1,65,0|0,0:0|0:0,0:0:0:0:
143,265,12900,2,0,P|111:271|79:264,1,65,8|0,0:0|0:0,0:0:0:0:
22,202,13376,2,0,P|16:159|64:89,1,130,0|8,0:0|0:0,0:0:0:0:
141,60,14090,1,0,0:0:0:0:
212,108,14328,6,0,L|223:184,2,65,0|0|8,0:0|0:0|0:0,0:0:0:0:
269,45,15043,1,0,0:0:0:0:
325,109,15281,2,0,L|345:247,1,130,0|8,0:0|0:0,0:0:0:0:
216,348,16233,6,0,P|180:356|133:342,1,65,0|0,0:0|0:0,0:0:0:0:
88,296,16709,1,8,0:0:0:0:
88,296,16947,1,0,0:0:0:0:
128,221,17185,2,0,P|208:202|254:235,1,130,0|8,0:0|0:0,0:0:0:0:
256,192,18138,12,0,20043,0:0:0:0:
140,188,20995,6,0,B|161:212|148:248|148:248|138:294|172:335,1,130,0|8,0:0|0:0,0:0:0:0:
229,270,21709,1,0,0:0:0:0:
303,229,21947,2,0,P|307:303|267:346,1,130,0|8,0:0|0:0,0:0:0:0:
226,179,22900,2,0,P|263:146|352:150,1,130,0|8,0:0|0:0,0:0:0:0:
387,214,23614,1,0,0:0:0:0:
303,229,23852,6,0,L|262:102,1,130,0|8,0:0|0:0,0:0:0:0:
200,48,24566,2,0,P|166:98|86:104,1,130,2|0,0:0|0:0,0:0:0:0:
25,147,25281,2,0,L|33:228,1,65,8|0,0:0|0:0,0:0:0:0:
53,293,25757,5,0,0:0:0:0:
129,257,25995,1,0,0:0:0:0:
195,309,26233,2,0,P|254:311|280:296,1,65,8|0,0:0|0:0,0:0:0:0:
321,252,26709,2,0,P|352:245|384:252,1,65
446,309,27185,1,8,0:0:0:0:
496,147,27662,6,0,L|494:72,1,65
434,21,28138,1,8,0:0:0:0:
272,72,28614,2,0,P|232:96|212:143,2,97.5,2|2|0,0:0|0:0|0:0,0:0:0:0:
294,151,29566,6,0,P|250:216|198:223,1,130,0|8,0:0|0:0,0:0:0:0:
48,164,30519,2,0,P|28:220|48:292,1,130,0|8,0:0|0:0,0:0:0:0:
108,344,31233,1,0,0:0:0:0:
184,308,31471,6,0,L|324:272,1,130,0|8,0:0|0:0,0:0:0:0:
372,220,32185,1,0,0:0:0:0:
456,224,32424,2,0,P|468:272|512:300,2,97.5
445,140,33376,6,0,P|417:83|346:65,1,130,0|8,0:0|0:0,0:0:0:0:
287,111,34090,2,0,L|134:117,1,130,0|0,0:0|0:0,0:0:0:0:
80,80,34804,1,8,0:0:0:0:
46,245,35281,5,0,0:0:0:0:
187,336,35757,1,8,0:0:0:0:
263,300,35995,1,0,0:0:0:0:
335,343,36233,2,0,P|375:349|405:341,1,65,0|0,0:0|0:0,0:0:0:0:
455,281,36709,1,8,0:0:0:0:
441,197,36947,6,0,P|423:142|372:71,2,130,0|2|0,0:0|0:0|0:0,0:0:0:0:
352,341,38376,1,0,0:0:0:0:
277,300,38614,2,0,B|248:285|213:302|213:302|175:323|129:294,1,130,8|0,0:0|0:0,0:0:0:0:
74,271,39328,6,0,L|56:346,2,65,0|8|0,0:0|0:0|0:0,0:0:0:0:
28,199,40043,1,0,0:0:0:0:
45,116,40281,2,0,P|72:86|96:77,1,65,0|0,0:0|0:0,0:0:0:0:
175,80,40757,1,0,0:0:0:0:
243,130,40995,6,0,L|377:119,1,130,0|8,0:0|0:0,0:0:0:0:
477,251,41947,2,0,L|343:262,1,130,0|8,0:0|0:0,0:0:0:0:
199,343,42900,5,0,0:0:0:0:
129,294,43138,2,0,L|52:306,2,65,0|8|0,0:0|0:0|0:0,0:0:0:0:
205,258,43852,2,0,P|224:207|217:132,1,130,0|8,0:0|0:0,0:0:0:0:
162,68,44566,6,0,P|227:91|297:63,1,130,0|2,0:0|0:0,0:0:0:0:
352,25,45281,1,8,0:0:0:0:
456,157,45757,1,0,0:0:0:0:
494,232,45995,2,0,P|496:279|488:302,1,65,0|8,0:0|0:0,0:0:0:0:
425,349,46471,6,0,L|284:351,1,130,0|0,0:0|0:0,0:0:0:0:
223,306,47185,1,8,0:0:0:0:
150,349,47424,2,0,P|104:350|79:344,2,65,0|0|0,0:0|0:0|0:0,0:0:0:0:
271,231,48376,6,0,P|309:203|407:226,1,130,0|0,0:0|0:0,0:0:0:0:
450,266,49090,1,0,0:0:0:0:
502,199,49328,2,0,L|510:133,1,65,0|0,0:0|0:0,0:0:0:0:
368,41,50043,1,0,0:0:0:0:
199,118,50519,6,0,P|125:143|65:109,1,143.000004364014,4|8,0:1|0:0,0:0:0:0:
20,36,51233,2,0,L|12:184,1,143.000004364014,0|0,0:0|0:0,0:0:0:0:
20,271,51947,1,8,0:0:0:0:
108,299,52185,1,0,0:0:0:0:
180,357,52424,6,0,L|328:361,1,143.000004364014,0|8,0:0|0:0,0:0:0:0:
401,310,53138,2,0,P|408:240|394:148,1,143.000004364014,0|0,0:0|0:0,0:0:0:0:
342,94,53852,1,8,0:0:0:0:
156,111,54328,6,0,P|87:94|52:30,2,143.000004364014,0|8|0,0:0|0:0|0:0,0:0:0:0:
239,69,55519,1,0,0:0:0:0:
296,141,55757,2,0,L|309:237,1,71.5000021820069,8|0,0:0|0:0,0:0:0:0:
367,281,56233,6,0,P|412:276|441:258,2,71.5000021820069,0|0|8,0:0|0:0|0:0,0:0:0:0:
275,296,56947,1,0,0:0:0:0:
199,349,57185,2,0,L|41:344,1,143.000004364014,0|8,0:0|0:0,0:0:0:0:
5,266,57900,1,0,0:0:0:0:
58,190,58138,6,0,B|126:173|126:173|197:185,1,143.000004364014,4|8,0:2|0:0,0:0:0:0:
273,239,58852,2,0,P|290:181|240:103,2,143.000004364014,0|0|0,0:0|0:0|0:0,0:0:0:0:
247,328,60043,6,0,L|413:317,1,143.000004364014,0|8,0:0|0:0,0:0:0:0:
454,251,60757,1,0,0:0:0:0:
376,82,61233,2,0,L|383:7,2,71.5000021820069,0|8|0,0:0|0:0|0:0,0:0:0:0:
303,140,61947,6,0,P|239:152|147:130,2,143.000004364014,0|8|0,0:0|0:0|0:0,0:0:0:0:
376,82,63138,2,0,P|425:74|459:84,2,71.5000021820069,0|8|0,0:0|0:0|0:0,0:0:0:0:
303,140,63852,5,0,0:0:0:0:
269,226,64090,2,0,L|274:306,2,71.5000021820069,0|8|0,0:0|0:0|0:0,0:0:0:0:
194,170,64804,2,0,P|124:169|58:211,1,143.000004364014,0|8,0:0|0:0,0:0:0:0:
34,294,65519,2,0,P|45:332|66:360,1,71.5000021820069,0|4,0:0|0:2,0:0:0:0:
256,192,79090,12,0,80994,0:0:0:0:
304,172,81947,6,0,P|355:192|433:177,1,130,0|8,0:0|0:0,0:0:0:0:
460,100,82662,1,0,0:0:0:0:
392,48,82900,2,0,P|341:28|263:43,1,130,0|8,0:0|0:0,0:0:0:0:
205,97,83614,1,0,0:0:0:0:
146,158,83852,2,0,P|121:86|148:33,1,130,0|8,0:0|0:0,0:0:0:0:
222,17,84566,2,0,L|296:22,1,65,0|0,0:0|0:0,0:0:0:0:
400,146,85281,5,8,0:0:0:0:
470,99,85519,2,0,B|493:139|478:177|478:177|450:236|479:293,1,195,0|8,0:0|0:0,0:0:0:0:
495,369,86471,6,0,L|356:359,1,130,0|0,0:0|0:0,0:0:0:0:
282,375,87185,1,8,0:0:0:0:
213,325,87424,1,0,0:0:0:0:
134,357,87662,2,0,P|71:360|48:352,1,65
34,283,88138,2,0,P|97:280|120:288,1,65,8|0,0:0|0:0,0:0:0:0:
174,245,88614,6,0,P|186:155|157:106,1,130,0|8,0:0|0:0,0:0:0:0:
112,60,89328,1,0,0:0:0:0:
186,19,89566,2,0,L|292:15,2,97.5,2|0|2,0:0|0:0|0:0,0:0:0:0:
112,60,90519,6,0,B|75:75|44:62|44:62|6:68|-7:95,1,130,0|8,0:0|0:0,0:0:0:0:
35,165,91233,2,0,P|46:227|32:308,1,130
3,370,91947,1,8,0:0:0:0:
168,319,92424,6,0,B|196:304|231:314|231:314|266:326|308:304,1,130,0|8,0:0|0:0,0:0:0:0:
372,278,93138,1,0,0:0:0:0:
448,242,93376,2,0,P|422:210|349:196,2,97.5
441,326,94328,6,0,P|398:359|310:336,1,130,0|8,0:0|0:0,0:0:0:0:
256,301,95043,1,0,0:0:0:0:
186,348,95281,2,0,P|123:359|71:324,1,130,0|8,0:0|0:0,0:0:0:0:
144,172,96233,5,0,0:0:0:0:
92,105,96471,2,0,L|27:122,2,65,0|8|0,0:0|0:0|0:0,0:0:0:0:
168,71,97185,2,0,B|231:76|231:76|290:114,1,130,0|8,0:0|0:0,0:0:0:0:
364,76,97900,6,0,B|412:36|412:36|496:36,2,130,0|2|0,0:0|0:0|0:0,0:0:0:0:
432,124,99090,1,0,0:0:0:0:
451,206,99328,1,0,0:0:0:0:
400,273,99566,2,0,P|363:282|319:267,1,65,8|0,0:0|0:0,0:0:0:0:
278,215,100043,6,0,P|263:253|160:271,1,130,0|8,0:0|0:0,0:0:0:0:
106,248,100757,1,0,0:0:0:0:
37,297,100995,2,0,L|34:374,2,65,0|0|8,0:0|0:0|0:0,0:0:0:0:
29,212,101709,1,0,0:0:0:0:
97,163,101947,5,0,0:0:0:0:
248,87,102424,2,0,P|310:76|380:91,2,130,8|0|8,0:0|0:0|0:0,0:0:0:0:
144,220,103852,5,0,0:0:0:0:
280,320,104328,2,0,P|320:324|356:316,1,65,8|0,0:0|0:0,0:0:0:0:
409,265,104804,2,0,L|413:124,1,130,0|8,0:0|0:0,0:0:0:0:
368,62,105519,6,0,P|334:107|239:100,1,130,0|2,0:0|0:0,0:0:0:0:
191,71,106233,1,8,0:0:0:0:
35,136,106709,1,0,0:0:0:0:
73,211,106947,2,0,P|73:244|60:283,1,65,0|8,0:0|0:0,0:0:0:0:
12,341,107424,6,0,P|53:317|154:341,1,130,0|0,0:0|0:0,0:0:0:0:
201,373,108138,1,8,0:0:0:0:
258,310,108376,2,0,L|262:236,2,65,0|0|0,0:0|0:0|0:0,0:0:0:0:
415,370,109328,6,0,L|424:223,1,130,0|0,0:0|0:0,0:0:0:0:
381,166,110043,1,0,0:0:0:0:
309,211,110281,1,0,0:0:0:0:
244,155,110519,2,0,P|183:139|101:164,1,130,0|0,0:0|0:0,0:0:0:0:
120,322,111471,6,0,P|182:336|245:320,1,130,4|8,0:1|0:0,0:0:0:0:
318,277,112185,2,0,P|380:260|443:275,2,130,0|0|0,0:0|0:0|0:0,0:0:0:0:
264,342,113376,6,0,P|234:288|253:222,1,130,0|8,0:0|0:0,0:0:0:0:
317,174,114090,2,0,P|228:205|143:163,1,195,0|8,0:0|0:0,0:0:0:0:
240,24,115281,5,0,0:0:0:0:
402,69,115757,1,8,0:0:0:0:
430,235,116233,1,0,0:0:0:0:
376,300,116471,2,0,L|386:372,2,65,0|8|0,0:0|0:0|0:0,0:0:0:0:
304,254,117185,6,0,L|294:182,2,65,0|0|8,0:0|0:0|0:0,0:0:0:0:
254,323,117900,1,0,0:0:0:0:
185,274,118138,2,0,P|119:248|52:291,1,130,0|8,0:0|0:0,0:0:0:0:
44,351,118852,1,0,0:0:0:0:
125,329,119090,6,0,L|125:171,1,130,4|8,0:2|0:0,0:0:0:0:
153,119,119804,2,0,P|195:91|297:110,1,130,0|0,0:0|0:0,0:0:0:0:
340,144,120519,2,0,L|404:138,1,65,8|0,0:0|0:0,0:0:0:0:
456,71,120995,6,0,P|486:122|465:198,1,130,0|8,0:0|0:0,0:0:0:0:
404,238,121709,1,0,0:0:0:0:
262,329,122185,2,0,P|225:337|176:319,2,65,0|8|0,0:0|0:0|0:0,0:0:0:0:
227,251,122900,6,0,L|216:113,2,130,0|8|0,0:0|0:0|0:0,0:0:0:0:
177,319,124090,1,0,0:0:0:0:
93,330,124328,2,0,P|53:317|32:291,1,65,8|0,0:0|0:0,0:0:0:0:
17,218,124804,6,0,L|18:134,1,65,0|0,0:0|0:0,0:0:0:0:
60,79,125281,1,8,0:0:0:0:
137,112,125519,1,0,0:0:0:0:
205,62,125757,2,0,B|244:48|271:61|271:61|298:77|339:69,1,130,0|8,0:0|0:0,0:0:0:0:
408,35,126471,1,0,0:0:0:0:
465,96,126709,6,0,L|471:244,1,130,4|8,0:2|0:0,0:0:0:0:
421,294,127424,1,0,0:0:0:0:
351,246,127662,2,0,L|347:141,2,97.5,2|2|0,0:0|0:0|0:0,0:0:0:0:
296,310,128614,6,0,P|239:323|156:305,1,130,2|8,0:0|0:0,0:0:0:0:
107,253,129328,1,0,0:0:0:0:
42,307,129566,2,0,L|40:391,2,65,0|0|8,0:0|0:0|0:0,0:0:0:0:
1,232,130281,1,0,0:0:0:0:
42,158,130519,6,0,P|73:142|177:162,1,130,0|8,0:0|0:0,0:0:0:0:
229,206,131233,1,2,0:0:0:0:
295,257,131471,2,0,P|348:266|406:245,2,97.5,2|2|0,0:0|0:0|0:0,0:0:0:0:
229,206,132424,6,0,P|176:197|142:206,2,65
295,257,133138,1,0,0:0:0:0:
356,198,133376,2,0,P|365:130|343:70,1,130,2|0,0:0|0:0,0:0:0:0:
263,95,134090,1,0,0:0:0:0:
206,32,134328,6,0,B|182:58|180:90|180:90|146:74|111:85,1,130,2|8,0:0|0:0,0:0:0:0:
43,236,135281,2,0,P|43:277|60:305,1,65,2|0,0:0|0:0,0:0:0:0:
127,339,135757,2,0,L|208:335,1,65,0|0,0:0|0:0,0:0:0:0:
264,292,136233,5,0,0:0:0:0:
322,230,136471,2,0,L|314:157,2,65,0|8|0,0:0|0:0|0:0,0:0:0:0:
380,292,137185,2,0,P|447:288|481:215,1,130,2|0,0:0|0:0,0:0:0:0:
464,156,137900,1,0,0:0:0:0:
399,101,138138,6,0,P|356:89|314:102,1,65,0|0,0:0|0:0,0:0:0:0:
265,136,138614,2,0,L|126:133,1,130,8|0,0:0|0:0,0:0:0:0:
66,83,139328,1,0,0:0:0:0:
6,143,139566,2,0,P|0:177|7:207,1,65,0|0,0:0|0:0,0:0:0:0:
64,268,140043,6,0,P|119:291|184:268,2,130,0|0|0,0:0|0:0|0:0,0:0:0:0:
8,108,141471,1,0,0:0:0:0:
159,33,141947,6,0,P|231:18|301:43,1,130,4|8,0:1|0:0,0:0:0:0:
334,101,142662,2,0,L|342:242,1,130,0|0,0:0|0:0,0:0:0:0:
388,301,143376,2,0,P|429:305|459:296,1,65,8|0,0:0|0:0,0:0:0:0:
489,223,143852,6,0,L|481:93,1,130,0|8,0:0|0:0,0:0:0:0:
412,44,144566,1,0,0:0:0:0:
244,70,145043,2,0,P|214:39|205:13,2,65,0|0|0,0:0|0:0|0:0,0:0:0:0:
312,119,145757,6,0,P|329:194|311:251,1,130,0|8,0:0|0:0,0:0:0:0:
165,322,146709,1,0,0:0:0:0:
115,253,146947,2,0,L|123:186,2,65,0|8|0,0:0|0:0|0:0,0:0:0:0:
47,304,147662,6,0,L|54:368,2,65,0|0|8,0:0|0:0|0:0,0:0:0:0:
0,233,148376,1,0,0:0:0:0:
12,149,148614,2,0,P|41:96|130:90,1,130,0|8,0:0|0:0,0:0:0:0:
186,103,149328,1,0,0:0:0:0:
263,137,149566,6,0,L|396:144,1,130,4|8,0:2|0:0,0:0:0:0:
461,193,150281,2,0,P|471:270|426:316,2,130,0|0|0,0:0|0:0|0:0,0:0:0:0:
390,240,151471,6,0,P|380:163|425:117,1,130,0|8,0:0|0:0,0:0:0:0:
337,82,152185,2,0,L|192:74,1,130,0|0,0:0|0:0,0:0:0:0:
135,119,152900,2,0,P|120:160|120:187,1,65,8|0,0:0|0:0,0:0:0:0:
167,250,153376,6,0,B|228:272|228:272|309:260,1,130,0|8,0:0|0:0,0:0:0:0:
445,191,154328,1,0,0:0:0:0:
445,191,154566,2,0,L|454:267,2,65,0|8|0,0:0|0:0|0:0,0:0:0:0:
369,151,155281,6,0,L|378:75,2,65,0|0|8,0:0|0:0|0:0,0:0:0:0:
298,197,155995,1,0,0:0:0:0:
233,142,156233,2,0,P|184:121|112:152,2,130,0|8|4,0:0|0:0|0:1,0:0:0:0:
464,244,157900,6,0,L|472:99,1,130,0|0,0:0|0:0,0:0:0:0:
410,55,158614,2,0,P|372:70|342:66,1,65,8|0,0:0|0:0,0:0:0:0:
275,24,159090,6,0,L|128:28,1,130,0|8,3:0|0:0,0:0:0:0:
73,72,159804,2,0,P|53:139|65:206,1,130,0|0,0:0|0:0,0:0:0:0:
118,260,160519,1,8,3:0:0:0:
272,328,160995,6,0,B|306:335|334:320|334:320|365:303|412:315,2,130,0|8|0,0:0|0:0|0:0,0:0:0:0:
202,280,162185,1,0,0:0:0:0:
191,194,162424,2,0,P|193:162|208:134,1,65,8|0,0:0|0:0,0:0:0:0:
274,81,162900,6,0,P|288:52|290:20,2,65,0|0|8,0:0|0:0|0:0,0:0:0:0:
209,134,163614,1,0,0:0:0:0:
141,83,163852,2,0,P|89:78|27:131,1,130,0|8,0:0|0:0,0:0:0:0:
3,203,164566,1,0,0:0:0:0:
58,266,164804,6,0,L|194:280,1,130,4|8,0:2|0:0,0:0:0:0:
252,333,165519,2,0,P|324:342|395:317,2,130,0|0|0,0:0|0:0|0:0,0:0:0:0:
187,279,166709,6,0,P|172:220|180:139,1,130,0|8,0:0|0:0,0:0:0:0:
234,89,167424,2,0,P|175:124|49:72,1,195,0|8,0:0|0:0,0:0:0:0:
45,256,168614,5,0,0:0:0:0:
191,339,169090,1,8,0:0:0:0:
339,259,169566,1,0,0:0:0:0:
407,308,169804,2,0,L|400:375,2,65,0|8|0,0:0|0:0|0:0,0:0:0:0:
480,265,170519,6,0,L|473:198,1,65,0|0,0:0|0:0,0:0:0:0:
410,144,170995,2,0,P|407:113|417:77,1,65,8|0,0:0|0:0,0:0:0:0:
331,93,171471,2,0,P|262:103|202:78,1,130,0|8,0:0|0:0,0:0:0:0:
134,37,172185,1,0,0:0:0:0:
69,92,172424,6,0,L|59:230,1,130,4|8,0:1|0:0,0:0:0:0:
187,331,173376,2,0,L|196:201,1,130,0|8,0:0|0:0,0:0:0:0:
245,132,174090,1,0,0:0:0:0:
318,91,174328,6,0,P|364:84|464:94,1,130,0|8,0:0|0:0,0:0:0:0:
449,259,175281,2,0,P|403:266|303:256,1,130,0|0,0:0|0:0,0:0:0:0:
240,230,175995,1,0,0:0:0:0:
198,156,176233,6,0,P|155:224|169:277,2,130,0|8|0,0:0|0:0|0:0,0:0:0:0:
366,136,177662,2,0,P|403:104|410:87,1,65,8|0,0:0|0:0,0:0:0:0:
444,13,178138,6,0,L|474:148,2,130,0|8|0,0:0|0:0|0:0,0:0:0:0:
294,91,179566,1,8,0:0:0:0:
218,53,179804,1,0,0:0:0:0:
146,98,180043,6,0,P|86:106|22:66,1,130,0|0,0:0|0:0,0:0:0:0:
35,241,180995,2,0,L|53:377,1,130,0|8,0:0|0:0,0:0:0:0:
134,350,181709,1,0,0:0:0:0:
212,317,181947,6,0,P|271:302|343:311,1,130,0|0,0:0|0:0,0:0:0:0:
492,381,182900,2,0,P|503:314|484:232,1,130,0|8,0:0|0:0,0:0:0:0:
435,191,183614,1,0,0:0:0:0:
367,140,183852,6,0,B|323:123|323:123|238:139,1,130,0|0,0:0|0:0,0:0:0:0:
149,280,184804,2,0,B|193:297|193:297|278:281,1,130,0|8,0:0|0:0,0:0:0:0:
256,192,185757,12,0,189924,0:0:0:0:
