osu file format v14

[General]
AudioFilename: audio.mp3
AudioLeadIn: 0
PreviewTime: 157230
Countdown: 0
SampleSet: Soft
StackLeniency: 0.5
Mode: 0
LetterboxInBreaks: 0
WidescreenStoryboard: 1

[Editor]
Bookmarks: 13311,26284,39257,52230,65203,71690,79798,92771,105744,118717,125203,131690,144663,157636,170609,185203
DistanceSpacing: 1.8
BeatDivisor: 2
GridSize: 32
TimelineZoom: 1.000005

[Metadata]
Title:STEREOTYPE
TitleUnicode:색안경
Artist:STAYC
ArtistUnicode:스테이씨
Creator:iYiyo
Version:Hari's Normal
Source:
Tags:sani_ hannody hari marianna dora- doraemonelf kpop k-pop korea korean pop SUMIN 수민 SIEUN 시은 ISA 아이사 SEEUN 세은 YOON 윤 J 재이 high up highup swith
BeatmapID:3273326
BeatmapSetID:1577308

[Difficulty]
HPDrainRate:3
CircleSize:3
OverallDifficulty:4
ApproachRate:5
SliderMultiplier:1.2
SliderTickRate:1

[Events]
//Background and Video events
0,0,"isa.jpg",0,0
Video,0,"stayc.m4v"
//Break Periods
2,39445,44110
2,92959,97624
2,131878,133299
2,157636,162489
//Storyboard Layer 0 (Background)
//Storyboard Layer 1 (Fail)
//Storyboard Layer 2 (Pass)
//Storyboard Layer 3 (Foreground)
//Storyboard Layer 4 (Overlay)
//Storyboard Sound Samples

[TimingPoints]
327,405.405405405405,4,2,1,50,1,0
732,-100,4,2,2,50,0,0
935,-100,4,2,1,50,0,0
2354,-100,4,2,2,50,0,0
2556,-100,4,2,1,50,0,0
4786,-100,4,2,2,50,0,0
5191,-100,4,2,1,50,0,0
5799,-100,4,2,2,50,0,0
6813,-100,4,2,1,60,0,0
7218,-100,4,2,2,60,0,0
7421,-100,4,2,1,60,0,0
8840,-100,4,2,2,60,0,0
9043,-100,4,2,1,60,0,0
10462,-100,4,2,2,60,0,0
11881,-100,4,2,1,60,0,0
12489,-100,4,2,3,60,0,0
12894,-100,4,2,1,65,0,0
13299,-100,4,2,2,65,0,0
13502,-100,4,2,1,65,0,0
13705,-100,4,2,2,65,0,0
13908,-100,4,2,1,65,0,0
15326,-100,4,2,2,65,0,0
15529,-100,4,2,1,65,0,0
16543,-100,4,2,2,65,0,0
17151,-100,4,2,1,65,0,0
17354,-100,4,2,2,65,0,0
17759,-100,4,2,1,65,0,0
18570,-100,4,2,2,65,0,0
18772,-100,4,2,1,65,0,0
19381,-100,4,2,2,65,0,0
19583,-100,4,2,1,65,0,0
19786,-100,4,2,2,65,0,0
19989,-100,4,2,1,65,0,0
20191,-100,4,2,2,65,0,0
20394,-100,4,2,1,65,0,0
20597,-100,4,2,4,65,0,0
20901,-100,4,2,1,65,0,0
21408,-100,4,2,2,65,0,0
21610,-100,4,2,1,65,0,0
21813,-100,4,2,2,65,0,0
22218,-100,4,2,1,65,0,0
22624,-100,4,2,2,65,0,0
23637,-100,4,2,1,65,0,0
24854,-100,4,2,3,65,0,0
25867,-100,4,2,1,65,0,0
26272,-100,4,2,1,70,0,0
26678,-100,4,2,2,70,0,0
26881,-100,4,2,1,70,0,0
27083,-100,4,2,4,70,0,0
27387,-100,4,2,1,70,0,0
27489,-100,4,2,2,70,0,0
27691,-100,4,2,1,70,0,0
28299,-100,4,2,2,70,0,0
28502,-100,4,2,1,70,0,0
28705,-100,4,2,2,70,0,0
28756,-100,4,2,4,70,0,0
29820,-100,4,2,1,70,0,0
29921,-100,4,2,2,70,0,0
30124,-100,4,2,1,70,0,0
30326,-100,4,2,4,70,0,0
30631,-100,4,2,1,70,0,0
30732,-100,4,2,2,70,0,0
30935,-100,4,2,1,70,0,0
31137,-100,4,2,4,70,0,0
31543,-100,4,2,2,70,0,0
31745,-100,4,2,4,70,0,0
31948,-100,4,2,2,70,0,0
31999,-100,4,2,1,70,0,0
32354,-100,4,2,5,70,0,0
32759,-100,4,2,1,70,0,0
33164,-100,4,2,2,70,0,0
33367,-100,4,2,1,70,0,0
33570,-100,4,2,4,70,0,0
33772,-100,4,2,1,70,0,0
33975,-100,4,2,2,70,0,0
34178,-100,4,2,4,70,0,0
34583,-100,4,2,1,70,0,0
34786,-100,4,2,6,70,0,0
34989,-100,4,2,4,70,0,0
35191,-100,4,2,2,70,0,0
35242,-100,4,2,4,70,0,0
35495,-100,4,2,1,70,0,0
35597,-100,4,2,4,70,0,0
36306,-100,4,2,1,70,0,0
36408,-100,4,2,2,70,0,0
36610,-100,4,2,4,70,0,0
36914,-100,4,2,1,70,0,0
37218,-100,4,2,2,70,0,0
37421,-100,4,2,4,70,0,0
37826,-100,4,2,1,70,0,0
38029,-100,4,2,2,70,0,0
38435,-100,4,2,1,70,0,0
38840,-100,4,2,2,70,0,0
39245,-100,4,2,2,60,0,0
40867,-100,4,2,3,60,0,0
41475,-100,4,2,2,60,0,0
41678,-100,4,2,3,60,0,0
41881,-100,4,2,2,60,0,0
42489,-100,4,2,3,60,0,0
42691,-100,4,2,2,60,0,0
44110,-100,4,2,3,60,0,0
44313,-100,4,2,2,60,0,0
44516,-100,4,2,1,70,0,0
44921,-100,4,2,2,70,0,0
45326,-100,4,2,3,70,0,0
45732,-100,4,2,3,75,0,0
46137,-100,4,2,7,75,0,0
47962,-100,4,2,2,75,0,0
48164,-100,4,2,7,75,0,0
48367,-100,4,2,2,75,0,0
48570,-100,4,2,7,75,0,0
48975,-100,4,2,8,80,0,0
49178,-100,4,2,7,80,0,0
49685,-100,4,2,3,80,0,0
49786,-100,4,2,7,80,0,0
50597,-100,4,2,1,80,0,0
50799,-100,4,2,3,80,0,0
51813,-100,4,2,5,80,0,0
52218,-100,4,2,9,85,0,1
65191,-100,4,2,4,75,0,0
66408,-100,4,2,10,75,0,0
66610,-100,4,2,4,75,0,0
68029,-100,4,2,10,75,0,0
68080,-100,4,2,4,75,0,0
69651,-100,4,2,10,75,0,0
69854,-100,4,2,4,75,0,0
70056,-100,4,2,7,75,0,0
70867,-100,4,2,9,75,0,0
71678,-100,4,2,9,85,0,1
75225,-100,4,2,11,85,0,1
75326,-100,4,2,9,85,0,1
75833,-100,4,2,11,85,0,1
75935,-100,4,2,9,85,0,1
78164,-100,4,2,3,60,0,0
79786,-100,4,2,1,70,0,0
80191,-100,4,2,2,70,0,0
80394,-100,4,2,1,70,0,0
80597,-100,4,2,2,70,0,0
80799,-100,4,2,1,70,0,0
81002,-100,4,2,2,70,0,0
81205,-100,4,2,1,70,0,0
81813,-100,4,2,2,70,0,0
82016,-100,4,2,1,70,0,0
82421,-100,4,2,2,70,0,0
83029,-100,4,2,1,70,0,0
83435,-100,4,2,2,70,0,0
83637,-100,4,2,1,70,0,0
83840,-100,4,2,4,70,0,0
84144,-100,4,2,1,70,0,0
84245,-100,4,2,2,70,0,0
84448,-100,4,2,1,70,0,0
84651,-100,4,2,4,70,0,0
85056,-100,4,2,2,70,0,0
85462,-100,4,2,2,45,0,0
86272,-100,4,2,1,70,0,0
86678,-100,4,2,2,70,0,0
86881,-100,4,2,1,70,0,0
87083,-100,4,2,2,70,0,0
87286,-100,4,2,1,70,0,0
87489,-100,4,2,2,70,0,0
87691,-100,4,2,4,70,0,0
88198,-100,4,2,1,70,0,0
88299,-100,4,2,2,70,0,0
88502,-100,4,2,4,70,0,0
88705,-100,4,2,1,70,0,0
88908,-100,4,2,2,70,0,0
89009,-100,4,2,1,70,0,0
89110,-100,4,2,4,70,0,0
89820,-100,4,2,1,70,0,0
89921,-100,4,2,2,70,0,0
90124,-100,4,2,4,70,0,0
90428,-100,4,2,1,70,0,0
90529,-100,4,2,4,70,0,0
90732,-100,4,2,2,70,0,0
90935,-100,4,2,4,70,0,0
91340,-100,4,2,1,70,0,0
91441,-100,4,2,2,70,0,0
91948,-100,4,2,1,70,0,0
92759,-100,4,2,2,60,0,0
94381,-100,4,2,3,60,0,0
94989,-100,4,2,2,60,0,0
95191,-100,4,2,3,60,0,0
95394,-100,4,2,2,60,0,0
96002,-100,4,2,3,60,0,0
96205,-100,4,2,2,60,0,0
97624,-100,4,2,3,60,0,0
97826,-100,4,2,2,60,0,0
98029,-100,4,2,1,70,0,0
98435,-100,4,2,2,70,0,0
98840,-100,4,2,3,70,0,0
99245,-100,4,2,3,75,0,0
99651,-100,4,2,7,75,0,0
101475,-100,4,2,2,75,0,0
101678,-100,4,2,7,75,0,0
101881,-100,4,2,2,75,0,0
102083,-100,4,2,7,75,0,0
102489,-100,4,2,8,75,0,0
102691,-100,4,2,7,75,0,0
103198,-100,4,2,3,75,0,0
103299,-100,4,2,7,75,0,0
104110,-100,4,2,1,75,0,0
104313,-100,4,2,3,75,0,0
105326,-100,4,2,5,75,0,0
105732,-100,4,2,9,85,0,1
118705,-100,4,2,4,75,0,0
119921,-100,4,2,10,75,0,0
120124,-100,4,2,4,75,0,0
121543,-100,4,2,10,75,0,0
121593,-100,4,2,4,75,0,0
123164,-100,4,2,10,75,0,0
123367,-100,4,2,4,75,0,0
123570,-100,4,2,7,75,0,0
124381,-100,4,2,9,75,0,0
125191,-100,4,2,9,85,0,1
128739,-100,4,2,11,85,0,1
128840,-100,4,2,9,85,0,1
129347,-100,4,2,11,85,0,1
129448,-100,4,2,9,85,0,1
131272,-100,4,2,9,55,0,1
131678,-100,4,2,9,55,0,0
132083,-100,4,2,1,55,0,0
132894,-100,4,2,2,55,0,0
133705,-100,4,2,1,55,0,0
134516,-125,4,2,2,55,0,0
137759,-125,4,2,1,55,0,0
138570,-125,4,2,2,55,0,0
139381,-125,4,2,1,55,0,0
140191,-125,4,2,2,55,0,0
141002,-125,4,2,1,55,0,0
142016,-125,4,2,2,55,0,0
144651,-100,4,2,12,70,0,0
144854,-100,4,2,1,70,0,0
145056,-100,4,2,12,70,0,0
145259,-100,4,2,1,70,0,0
145462,-100,4,2,12,70,0,0
145664,-100,4,2,1,70,0,0
145867,-100,4,2,12,70,0,0
146070,-100,4,2,4,70,0,0
146272,-100,4,2,12,70,0,0
146475,-100,4,2,4,70,0,0
146678,-100,4,2,12,70,0,0
146881,-100,4,2,4,70,0,0
147083,-100,4,2,12,70,0,0
147286,-100,4,2,1,70,0,0
147489,-100,4,2,12,70,0,0
147691,-100,4,2,1,70,0,0
147894,-100,4,2,12,70,0,0
148097,-100,4,2,1,70,0,0
148299,-100,4,2,12,70,0,0
148502,-100,4,2,1,70,0,0
148705,-100,4,2,12,70,0,0
148908,-100,4,2,1,70,0,0
149110,-100,4,2,12,70,0,0
149313,-100,4,2,4,70,0,0
149516,-100,4,2,12,70,0,0
149718,-100,4,2,4,70,0,0
149921,-100,4,2,12,70,0,0
150124,-100,4,2,4,70,0,0
150326,-100,4,2,12,70,0,0
150529,-100,4,2,1,70,0,0
150732,-100,4,2,12,70,0,0
150935,-100,4,2,1,70,0,0
151137,-100,4,2,12,80,0,0
151340,-100,4,2,4,80,0,0
151543,-100,4,2,12,80,0,0
151745,-100,4,2,4,80,0,0
151948,-100,4,2,12,80,0,0
152151,-100,4,2,4,80,0,0
152354,-100,4,2,12,80,0,0
152556,-100,4,2,4,80,0,0
152759,-100,4,2,12,80,0,0
152962,-100,4,2,4,80,0,0
153164,-100,4,2,12,80,0,0
153367,-100,4,2,4,80,0,0
153570,-100,4,2,13,80,0,0
153772,-100,4,2,1,80,0,0
153975,-100,4,2,12,80,0,0
154178,-100,4,2,1,80,0,0
154381,-100,4,2,12,85,0,0
154583,-100,4,2,7,85,0,0
155495,-100,4,2,2,85,0,0
155597,-100,4,2,7,85,0,0
155799,-100,4,2,7,90,0,0
155901,-100,4,2,3,90,0,0
156610,-100,4,2,5,100,0,0
157624,-100,4,2,5,100,0,0
164110,-125,4,2,5,40,0,0
164414,-125,4,2,1,40,0,0
164921,-125,4,2,2,40,0,0
165225,-125,4,2,1,40,0,0
165732,-125,4,2,2,40,0,0
166036,-125,4,2,1,40,0,0
166543,-125,4,2,2,40,0,0
166847,-125,4,2,1,40,0,0
167151,-125,4,2,2,40,0,0
168164,-125,4,2,3,40,0,0
168367,-125,4,2,1,40,0,0
168975,-125,4,2,3,40,0,0
169178,-125,4,2,1,40,0,0
169482,-125,4,2,3,40,0,0
169583,-125,4,2,1,40,0,0
169989,-125,4,2,3,40,0,0
170597,-100,4,2,9,85,0,1
180631,-100,4,2,11,85,0,1
180732,-100,4,2,9,85,0,1
181239,-100,4,2,11,85,0,1
181340,-100,4,2,9,85,0,1
183570,-100,4,2,3,60,0,0
185191,-100,4,2,8,60,0,0

[Colours]
Combo1 : 255,159,207
Combo2 : 128,128,255
Combo3 : 255,147,255
Combo4 : 0,102,204

[HitObjects]
21,79,12894,6,0,P|79:45|105:58,1,60,2|2,2:2|2:2,0:0:0:0:
139,88,13299,2,0,P|166:184|179:277,1,180,6|2,2:2|2:2,0:0:0:0:
233,326,14110,2,0,P|312:349|363:321,1,120,6|0,1:2|0:0,0:0:0:0:
420,298,14718,1,2,2:2:0:0:
420,298,14921,2,0,P|399:226|390:152,1,120,2|2,2:2|2:2,0:0:0:0:
463,29,15732,1,8,2:1:0:0:
128,23,16543,6,0,B|71:18|34:70|33:139|80:185,1,180,2|2,2:2|2:2,0:0:0:0:
111,218,17354,2,0,B|202:221|185:146|271:148,1,180,2|2,1:2|2:2,0:0:0:0:
353,143,18164,1,2,2:2:0:0:
484,247,18570,1,2,2:2:0:0:
172,371,19381,6,0,P|146:283|139:262,1,60,2|2,2:2|2:2,0:0:0:0:
74,289,19786,2,0,P|29:218|95:168,1,180,2|2,2:2|2:2,0:0:0:0:
141,235,20597,1,6,1:2:0:0:
134,67,21002,2,0,L|192:81,1,60,0|2,0:0|2:2,0:0:0:0:
275,66,21408,2,0,B|325:21|325:21|407:37,2,120,2|2|10,2:2|2:2|2:1,0:0:0:0:
263,233,22624,2,0,L|290:337,1,60,2|2,2:2|2:2,0:0:0:0:
352,330,23029,6,0,L|397:192,1,120,2|2,2:2|2:2,0:0:0:0:
435,54,23840,2,0,P|378:34|316:68,1,120,2|2,2:2|2:2,0:0:0:0:
242,69,24448,2,0,B|210:63|210:63|169:23|169:23|137:16,1,120,2|2,2:2|2:2,0:0:0:0:
126,99,25056,2,0,L|154:190,1,60,2|2,2:2|2:2,0:0:0:0:
172,235,25462,1,2,2:2:0:0:
25,316,25867,1,2,2:2:0:0:
185,366,26272,6,0,L|321:332,1,120,2|10,3:2|3:2,0:0:0:0:
382,360,26881,1,10,2:2:0:0:
433,294,27083,2,0,B|390:244|390:244|405:169,1,120,6|8,1:2|2:2,0:0:0:0:
436,26,27894,2,0,P|369:47|329:53,1,60,2|10,2:2|2:2,0:0:0:0:
300,14,28299,2,0,P|238:39|230:124,1,120,10|10,3:2|2:1,0:0:0:0:
433,360,29516,6,0,P|376:340|322:313,1,120,2|8,3:2|3:2,0:0:0:0:
238,331,30124,1,10,2:2:0:0:
156,310,30326,2,0,P|95:330|24:297,1,120,2|8,1:2|2:2,0:0:0:0:
23,236,30935,1,10,2:2:0:0:
23,236,31138,2,0,P|31:207|41:178,1,60,10|10,2:2|2:2,0:0:0:0:
75,102,31543,2,0,B|160:120|160:120|215:87,1,120,10|10,3:2|2:1,0:0:0:0:
509,202,32759,6,0,B|491:114|491:114|529:59,2,120,2|10|6,3:2|3:2|1:2,0:0:0:0:
452,360,33975,1,10,2:2:0:0:
365,217,34381,2,0,P|295:266|175:269,1,180,2|10,2:2|2:2,0:0:0:0:
124,245,35191,2,0,P|146:169|154:146,1,60,8|10,2:1|2:2,0:0:0:0:
64,149,35597,2,0,P|86:73|94:50,1,60,10|10,2:2|2:2,0:0:0:0:
153,50,36002,6,0,P|236:9|318:61,1,180,2|10,3:2|2:2,0:0:0:0:
366,106,36813,1,0,1:1:0:0:
434,259,37218,2,0,P|407:337|400:359,1,60,10|10,2:2|2:2,0:0:0:0:
332,337,37624,2,0,P|266:368|199:352,2,120,10|10|10,2:2|3:2|2:1,0:0:0:0:
481,35,39245,1,4,2:2:0:0:
185,129,45732,5,8,3:2:0:0:
144,291,46137,1,10,3:2:0:0:
17,179,46543,2,0,P|164:202|194:205,1,120,10|10,3:2|3:2,0:0:0:0:
289,265,47354,2,0,P|377:263|449:211,1,180,10|2,3:2|2:2,0:0:0:0:
415,134,48164,2,0,P|393:39|380:-32,1,120,10|10,3:2|3:2,0:0:0:0:
225,61,48975,6,0,B|144:43|144:43|66:75,2,120,10|10|10,3:2|3:2|3:2,0:0:0:0:
332,190,50191,2,0,L|278:341,1,120,10|6,3:2|2:3,0:0:0:0:
127,340,51002,2,0,P|58:373|-15:351,2,120,10|8|4,2:3|2:3|2:2,0:0:0:0:
172,178,52218,1,14,3:2:0:0:
35,79,52624,6,0,P|143:46|237:102,1,180,10|8,1:2|3:2,0:0:0:0:
253,134,53435,2,0,P|342:104|413:83,1,120,10|10,1:2|3:2,0:0:0:0:
448,75,54043,1,10,2:2:0:0:
504,233,54448,2,0,P|485:312|475:374,1,120,10|10,2:2|3:2,0:0:0:0:
394,355,55056,2,0,P|317:353|300:327,1,60,10|10,1:2|2:2,0:0:0:0:
272,310,55462,5,10,3:2:0:0:
111,357,55867,2,0,P|25:343|0:242,1,180,10|8,1:2|3:2,0:0:0:0:
7,180,56678,2,0,P|90:204|118:206,1,60,10|10,1:2|2:2,0:0:0:0:
125,265,57083,1,10,3:2:0:0:
125,265,57286,2,0,P|203:195|264:193,1,120,10|10,2:2|2:2,0:0:0:0:
367,262,58097,1,10,3:2:0:0:
445,233,58299,2,0,P|404:163|396:129,1,60,10|10,1:2|2:2,0:0:0:0:
473,124,58705,6,0,P|457:40|391:46,1,120,10|8,3:2|1:2,0:0:0:0:
387,103,59313,1,10,2:2:0:0:
387,103,59516,2,0,B|319:104|338:51|257:50,1,120,10|8,2:2|1:2,0:0:0:0:
121,2,60326,2,0,P|149:147|150:163,1,120,10|8,3:2|1:2,0:0:0:0:
63,136,60935,1,10,2:2:0:0:
63,136,61137,2,0,P|35:281|34:297,1,120,10|8,2:2|1:2,0:0:0:0:
150,377,61948,5,10,3:2:0:0:
509,159,62962,2,0,P|481:169|452:177,1,60,10|10,3:2|1:2,0:0:0:0:
403,245,63367,2,0,P|311:204|206:204,1,180,10|8,2:2|1:2,0:0:0:0:
174,260,64178,1,10,2:2:0:0:
16,200,64583,1,10,3:2:0:0:
76,141,64786,2,0,P|165:113|180:102,1,60,8|8,1:2|2:2,0:0:0:0:
186,63,65191,5,10,3:2:0:0:
310,18,65597,1,10,2:2:0:0:
434,64,66002,2,0,P|414:137|406:159,1,60,10|10,2:2|3:2,0:0:0:0:
440,203,66408,2,0,P|420:276|412:298,1,60,10|10,1:2|2:2,0:0:0:0:
386,340,66813,2,0,P|264:292|193:314,1,180,10|10,3:2|2:2,0:0:0:0:
153,352,67624,2,0,L|54:330,1,60,10|10,2:2|3:2,0:0:0:0:
11,353,68029,1,10,1:2:0:0:
30,221,68435,5,2,3:2:0:0:
169,218,68840,1,10,2:2:0:0:
96,101,69245,2,0,P|83:22|81:7,1,60,10|10,2:2|3:2,0:0:0:0:
168,22,69651,2,0,P|172:51|178:81,1,60,10|10,1:2|2:2,0:0:0:0:
230,150,70056,1,6,3:2:0:0:
429,375,71678,6,0,P|443:286|465:219,1,120,10|8,3:2|1:2,0:0:0:0:
502,191,72286,1,10,2:2:0:0:
502,191,72489,2,0,P|461:124|383:114,1,120,10|8,2:2|1:2,0:0:0:0:
275,34,73299,2,0,P|173:54|106:60,1,120,10|8,3:2|1:2,0:0:0:0:
88,16,73908,1,10,2:2:0:0:
88,16,74110,1,10,2:2:0:0:
11,165,74516,1,8,1:2:0:0:
83,316,74921,6,0,P|238:334|303:346,1,180,10|10,3:2|2:2,0:0:0:0:
433,354,75935,1,8,3:2:0:0:
433,354,76137,2,0,P|387:252|365:100,2,240,10|10|0,1:2|1:2|1:1,0:0:0:0:
3,16,79786,6,0,P|27:79|32:89,1,60,2|10,3:2|2:2,0:0:0:0:
105,93,80191,2,0,P|81:156|76:166,1,60,10|10,3:2|2:2,0:0:0:0:
445,364,81408,2,0,P|421:295|416:280,1,60,2|10,2:2|2:2,0:0:0:0:
482,245,81813,2,0,P|412:221|349:257,1,120,10|8,3:2|2:1,0:0:0:0:
35,246,83029,5,2,3:2:0:0:
51,78,83435,2,0,P|179:104|219:109,1,120,10|2,3:2|1:2,0:0:0:0:
305,6,84245,1,10,2:2:0:0:
469,41,84651,2,0,P|444:102|443:126,1,60,10|10,2:2|2:2,0:0:0:0:
423,177,85056,2,0,P|330:193|260:213,1,120,10|2,3:2|2:2,0:0:0:0:
14,367,86272,5,2,3:2:0:0:
175,320,86678,2,0,P|258:306|277:304,1,60,10|10,3:2|2:2,0:0:0:0:
297,364,87083,2,0,P|326:369|355:374,2,60,2|10|10,1:2|2:2|2:2,0:0:0:0:
324,197,87894,2,0,P|342:122|346:103,1,60,2|10,2:2|2:2,0:0:0:0:
412,99,88299,1,10,3:2:0:0:
412,99,88502,2,0,P|367:48|283:61,1,120,10|2,2:2|2:2,0:0:0:0:
260,104,89110,2,0,P|184:76|154:62,1,60,2|10,2:2|2:2,0:0:0:0:
146,21,89516,6,0,P|116:86|155:155,2,120,2|10|0,3:2|3:2|1:1,0:0:0:0:
202,179,90732,1,8,2:2:0:0:
87,302,91137,2,0,P|221:267|239:263,1,120,8|8,2:2|3:2,0:0:0:0:
279,121,91948,2,0,P|356:141|366:143,2,60,8|4|4,2:1|2:3|2:3,0:0:0:0:
349,273,92759,1,4,2:2:0:0:
512,384,99245,5,8,3:2:0:0:
480,218,99651,1,10,3:2:0:0:
351,325,100056,2,0,P|374:223|389:164,1,120,10|10,3:2|3:2,0:0:0:0:
363,40,100867,2,0,P|276:15|186:35,1,180,10|2,3:2|2:2,0:0:0:0:
105,25,101678,2,0,P|73:115|120:156,1,120,10|10,3:2|3:2,0:0:0:0:
130,288,102489,6,0,B|85:358|85:358|7:390,2,120,10|10|10,3:2|3:2|3:2,0:0:0:0:
163,123,103705,2,0,P|270:125|331:140,1,120,10|6,3:2|2:3,0:0:0:0:
448,155,104516,2,0,P|470:78|498:7,2,120,10|8|4,2:3|2:3|2:2,0:0:0:0:
408,318,105732,1,14,3:2:0:0:
248,372,106137,6,0,B|169:371|174:300|88:302,1,180,10|8,1:2|3:2,0:0:0:0:
26,245,106948,2,0,P|-4:171|50:114,1,120,10|10,1:2|3:2,0:0:0:0:
82,183,107556,1,10,2:2:0:0:
83,14,107962,2,0,P|227:56|242:56,1,120,10|10,2:2|3:2,0:0:0:0:
243,122,108570,2,0,P|329:92|340:89,1,60,10|10,1:2|2:2,0:0:0:0:
352,36,108975,5,10,3:2:0:0:
491,129,109381,2,0,P|473:264|459:335,1,180,10|8,1:2|3:2,0:0:0:0:
390,345,110191,2,0,P|326:369|299:359,1,60,10|10,1:2|2:2,0:0:0:0:
263,341,110597,1,10,3:2:0:0:
263,341,110799,2,0,P|292:252|300:200,1,120,10|10,2:2|2:2,0:0:0:0:
278,58,111610,1,10,3:2:0:0:
195,39,111813,2,0,P|121:71|101:72,1,60,10|10,1:2|2:2,0:0:0:0:
73,18,112218,6,0,P|54:85|128:141,1,120,10|8,3:2|1:2,0:0:0:0:
163,153,112826,1,10,2:2:0:0:
163,153,113029,2,0,L|125:288,1,120,10|8,2:2|1:2,0:0:0:0:
257,378,113840,2,0,P|386:358|424:349,1,120,10|8,3:2|1:2,0:0:0:0:
463,365,114448,1,10,2:2:0:0:
463,365,114651,2,0,P|496:294|470:230,1,120,10|8,2:2|1:2,0:0:0:0:
428,98,115462,5,10,3:2:0:0:
19,195,116475,2,0,P|53:108|58:97,1,60,10|10,3:2|1:2,0:0:0:0:
76,62,116881,2,0,P|155:25|240:83,1,180,10|8,2:2|1:2,0:0:0:0:
301,22,117691,1,10,2:2:0:0:
354,181,118097,1,10,3:2:0:0:
435,160,118299,2,0,P|468:243|469:255,1,60,8|8,1:2|2:2,0:0:0:0:
505,285,118705,5,10,3:2:0:0:
377,317,119110,1,10,2:2:0:0:
250,356,119516,2,0,P|179:338|149:332,1,60,10|10,2:2|3:2,0:0:0:0:
150,267,119921,2,0,P|79:249|49:243,1,60,10|10,1:2|2:2,0:0:0:0:
31,190,120326,2,0,P|19:89|122:77,1,180,10|10,3:2|2:2,0:0:0:0:
148,106,121137,2,0,L|255:88,1,60,10|10,2:2|3:2,0:0:0:0:
274,42,121543,1,10,1:2:0:0:
410,17,121948,5,2,3:2:0:0:
369,148,122354,1,10,2:2:0:0:
483,229,122759,2,0,P|468:290|462:313,1,60,10|10,2:2|3:2,0:0:0:0:
393,325,123164,2,0,P|332:310|309:304,1,60,10|10,1:2|2:2,0:0:0:0:
258,280,123570,1,6,3:2:0:0:
9,16,125191,6,0,P|38:162|42:181,1,120,10|8,3:2|1:2,0:0:0:0:
59,218,125799,1,10,2:2:0:0:
59,218,126002,2,0,P|150:227|200:184,1,120,10|8,2:2|1:2,0:0:0:0:
285,90,126813,2,0,P|400:118|442:125,1,120,10|8,3:2|1:2,0:0:0:0:
467,179,127421,1,10,2:2:0:0:
467,179,127624,2,0,P|494:243|460:309,1,120,10|8,2:2|1:2,0:0:0:0:
314,322,128435,6,0,B|252:340|252:340|193:320|193:320|115:346,2,180,10|10|10,3:2|2:2|1:2,0:0:0:0:
256,192,129854,12,2,131678,2:2:0:0:
256,192,134921,6,0,P|144:171|78:175,2,144,2|2|2,2:2|2:2|2:2,0:0:0:0:
371,321,136543,2,0,P|415:320|431:294,1,48,2|2,2:2|2:2,0:0:0:0:
484,266,136948,2,0,P|498:183|438:135,1,144,2|0,2:2|0:0,0:0:0:0:
394,88,137759,1,2,2:2:0:0:
235,19,138164,2,0,P|162:43|111:55,1,96,2|2,2:2|2:2,0:0:0:0:
22,171,138975,1,2,1:2:0:0:
191,205,139381,1,2,2:2:0:0:
95,348,139786,6,0,P|152:331|208:310,1,96,2|2,2:2|2:2,0:0:0:0:
320,209,140597,1,2,1:2:0:0:
461,307,141002,2,0,P|483:253|489:236,1,48,2|2,2:2|2:2,0:0:0:0:
454,179,141408,2,0,P|442:83|389:66,2,144,2|2|2,2:2|2:2|2:2,0:0:0:0:
298,253,143029,6,0,P|251:236|235:233,1,48,2|2,2:2|2:2,0:0:0:0:
198,169,143435,2,0,P|133:145|111:141,1,48,2|2,2:2|2:2,0:0:0:0:
101,81,143840,1,2,2:2:0:0:
11,221,144245,1,2,2:2:0:0:
100,371,144651,6,0,P|245:343|291:329,1,180,8|8,3:2|2:2,0:0:0:0:
359,345,145462,1,8,3:2:0:0:
490,240,145867,2,0,P|421:220|400:246,1,60,10|10,2:2|2:2,0:0:0:0:
369,258,146272,2,0,P|276:227|268:224,1,60,10|10,3:2|2:2,0:0:0:0:
272,164,146678,2,0,P|243:173|214:182,1,60,10|10,2:2|2:2,0:0:0:0:
153,239,147083,1,10,3:2:0:0:
9,150,147489,1,10,2:2:0:0:
120,24,147894,6,0,P|192:62|323:33,1,180,8|8,3:2|2:2,0:0:0:0:
362,15,148705,1,8,3:2:0:0:
492,120,149110,2,0,P|463:182|479:216,1,60,10|10,2:2|2:2,0:0:0:0:
487,250,149516,2,0,P|409:282|399:284,1,60,10|10,3:2|2:2,0:0:0:0:
389,347,149921,2,0,P|311:315|301:313,1,60,10|10,2:2|2:2,0:0:0:0:
260,281,150326,1,10,3:2:0:0:
116,368,150732,1,10,2:2:0:0:
23,228,151137,6,0,P|15:105|10:67,1,120,10|8,3:2|3:2,0:0:0:0:
70,45,151745,1,10,2:2:0:0:
70,45,151948,2,0,P|175:22|220:47,1,120,10|8,3:2|3:2,0:0:0:0:
263,63,152556,1,10,2:2:0:0:
263,63,152759,2,0,P|395:19|408:18,2,120,10|8|10,3:2|3:2|3:2,0:0:0:0:
173,205,153975,1,8,3:2:0:0:
256,192,154381,12,6,156610,2:2:0:0:
330,223,164110,6,0,P|348:143|367:69,1,144,2|2,2:2|2:2,0:0:0:0:
433,31,164921,1,2,2:2:0:0:
512,157,165732,2,0,P|488:262|471:335,1,144,2|2,2:2|2:2,0:0:0:0:
484,384,166543,1,2,2:2:0:0:
391,277,167354,2,0,B|292:290|312:197|197:211,2,192,2|2|2,2:2|2:2|2:2,0:0:0:0:
9,378,170597,6,0,P|151:331|168:326,1,120,14|10,3:2|1:2,0:0:0:0:
274,267,171408,2,0,P|348:293|369:294,1,60,10|10,2:2|3:2,0:0:0:0:
377,358,171813,2,0,P|448:342|454:326,1,60,10|10,1:2|2:2,0:0:0:0:
507,316,172218,2,0,P|491:211|472:108,1,180,10|10,3:2|2:2,0:0:0:0:
457,56,173029,2,0,P|390:41|373:40,1,60,10|10,2:2|3:2,0:0:0:0:
314,34,173435,1,10,1:2:0:0:
146,30,173840,6,0,P|51:21|0:75,1,120,10|10,3:2|1:2,0:0:0:0:
7,197,174651,2,0,P|85:177|103:175,1,60,10|10,2:2|3:2,0:0:0:0:
140,144,175056,2,0,P|204:130|220:150,1,60,10|10,1:2|2:2,0:0:0:0:
242,56,175462,2,0,P|272:153|231:199,1,120,10|8,3:2|1:2,0:0:0:0:
202,215,176070,1,10,2:2:0:0:
202,215,176272,2,0,P|231:318|232:323,1,60,10|10,2:2|3:2,0:0:0:0:
262,345,176678,1,10,1:2:0:0:
94,357,177083,6,0,P|18:340|8:278,1,120,10|8,3:2|1:2,0:0:0:0:
11,227,177691,1,10,2:2:0:0:
11,227,177894,2,0,P|33:134|38:92,1,120,10|8,2:2|1:2,0:0:0:0:
190,42,178705,2,0,P|272:69|333:19,1,120,10|8,3:2|1:2,0:0:0:0:
375,21,179313,1,10,2:2:0:0:
375,21,179516,2,0,P|472:33|525:34,1,120,10|8,2:2|1:2,0:0:0:0:
480,201,180326,6,0,B|470:232|436:246|436:246|482:366,1,180,10|10,3:2|2:2,0:0:0:0:
255,231,181543,2,0,P|105:201|-9:189,2,240,10|10|8,1:2|1:2|1:2,0:0:0:0:
256,192,183570,12,4,185191,2:2:0:0:
