osu file format v14

[General]
AudioFilename: audio.mp3
AudioLeadIn: 0
PreviewTime: 157230
Countdown: 0
SampleSet: Soft
StackLeniency: 0.5
Mode: 0
LetterboxInBreaks: 0
WidescreenStoryboard: 1

[Editor]
Bookmarks: 13311,26284,39257,52230,65203,71690,79798,92771,105744,118717,125203,131690,144663,157636,170609,177095,185203
DistanceSpacing: 1
BeatDivisor: 2
GridSize: 32
TimelineZoom: 0.6000049

[Metadata]
Title:STEREOTYPE
TitleUnicode:색안경
Artist:STAYC
ArtistUnicode:스테이씨
Creator:iYiyo
Version:Easy
Source:
Tags:sani_ hannody hari marianna dora- doraemonelf kpop k-pop korea korean pop SUMIN 수민 SIEUN 시은 ISA 아이사 SEEUN 세은 YOON 윤 J 재이 high up highup swith
BeatmapID:3233990
BeatmapSetID:1577308

[Difficulty]
HPDrainRate:2
CircleSize:2.5
OverallDifficulty:3
ApproachRate:3
SliderMultiplier:0.9
SliderTickRate:1

[Events]
//Background and Video events
0,0,"isa.jpg",0,0
Video,0,"stayc.m4v"
//Break Periods
2,39445,44292
2,92959,97805
2,157636,162670
//Storyboard Layer 0 (Background)
//Storyboard Layer 1 (Fail)
//Storyboard Layer 2 (Pass)
//Storyboard Layer 3 (Foreground)
//Storyboard Layer 4 (Overlay)
//Storyboard Sound Samples

[TimingPoints]
327,405.405405405405,4,2,1,50,1,0
732,-100,4,2,2,50,0,0
935,-100,4,2,1,50,0,0
2354,-100,4,2,2,50,0,0
2556,-100,4,2,1,50,0,0
4786,-100,4,2,2,50,0,0
5191,-100,4,2,1,50,0,0
5799,-100,4,2,2,50,0,0
6813,-100,4,2,1,60,0,0
7218,-100,4,2,2,60,0,0
7421,-100,4,2,1,60,0,0
8840,-100,4,2,2,60,0,0
9043,-100,4,2,1,60,0,0
10462,-100,4,2,2,60,0,0
11881,-100,4,2,1,60,0,0
12489,-100,4,2,3,60,0,0
12894,-100,4,2,1,65,0,0
13299,-100,4,2,2,65,0,0
13502,-100,4,2,1,65,0,0
13705,-100,4,2,2,65,0,0
13908,-100,4,2,1,65,0,0
15326,-100,4,2,2,65,0,0
15529,-100,4,2,1,65,0,0
16543,-100,4,2,2,65,0,0
17151,-100,4,2,1,65,0,0
17354,-100,4,2,2,65,0,0
17759,-100,4,2,1,65,0,0
18570,-100,4,2,2,65,0,0
18772,-100,4,2,1,65,0,0
19381,-100,4,2,2,65,0,0
19583,-100,4,2,1,65,0,0
19786,-100,4,2,2,65,0,0
19989,-100,4,2,1,65,0,0
20191,-100,4,2,2,65,0,0
20394,-100,4,2,1,65,0,0
20597,-100,4,2,4,65,0,0
20901,-100,4,2,1,65,0,0
21408,-100,4,2,2,65,0,0
21610,-100,4,2,1,65,0,0
21813,-100,4,2,2,65,0,0
22218,-100,4,2,1,65,0,0
22624,-100,4,2,2,65,0,0
23637,-100,4,2,1,65,0,0
24854,-100,4,2,3,65,0,0
25867,-100,4,2,1,65,0,0
26272,-100,4,2,1,70,0,0
26678,-100,4,2,2,70,0,0
26881,-100,4,2,1,70,0,0
27083,-100,4,2,4,70,0,0
27387,-100,4,2,1,70,0,0
27489,-100,4,2,2,70,0,0
27691,-100,4,2,1,70,0,0
28299,-100,4,2,2,70,0,0
28502,-100,4,2,1,70,0,0
28705,-100,4,2,2,70,0,0
28756,-100,4,2,4,70,0,0
29820,-100,4,2,1,70,0,0
29921,-100,4,2,2,70,0,0
30124,-100,4,2,1,70,0,0
30326,-100,4,2,4,70,0,0
30631,-100,4,2,1,70,0,0
30732,-100,4,2,2,70,0,0
30935,-100,4,2,1,70,0,0
31137,-100,4,2,4,70,0,0
31543,-100,4,2,2,70,0,0
31745,-100,4,2,4,70,0,0
31948,-100,4,2,2,70,0,0
31999,-100,4,2,1,70,0,0
32354,-100,4,2,5,70,0,0
32759,-100,4,2,1,70,0,0
33164,-100,4,2,2,70,0,0
33367,-100,4,2,1,70,0,0
33570,-100,4,2,4,70,0,0
33772,-100,4,2,1,70,0,0
33975,-100,4,2,2,70,0,0
34178,-100,4,2,4,70,0,0
34583,-100,4,2,1,70,0,0
34786,-100,4,2,6,70,0,0
34989,-100,4,2,4,70,0,0
35191,-100,4,2,2,70,0,0
35242,-100,4,2,4,70,0,0
35495,-100,4,2,1,70,0,0
35597,-100,4,2,4,70,0,0
36306,-100,4,2,1,70,0,0
36408,-100,4,2,2,70,0,0
36610,-100,4,2,4,70,0,0
36914,-100,4,2,1,70,0,0
37218,-100,4,2,2,70,0,0
37421,-100,4,2,4,70,0,0
37826,-100,4,2,1,70,0,0
38029,-100,4,2,2,70,0,0
38435,-100,4,2,1,70,0,0
38840,-100,4,2,2,70,0,0
39245,-100,4,2,2,60,0,0
40867,-100,4,2,3,60,0,0
41475,-100,4,2,2,60,0,0
41678,-100,4,2,3,60,0,0
41881,-100,4,2,2,60,0,0
42489,-100,4,2,3,60,0,0
42691,-100,4,2,2,60,0,0
44110,-100,4,2,3,60,0,0
44313,-100,4,2,2,60,0,0
44516,-100,4,2,1,70,0,0
44921,-100,4,2,2,70,0,0
45326,-100,4,2,3,70,0,0
45732,-100,4,2,3,75,0,0
46137,-100,4,2,7,75,0,0
47962,-100,4,2,2,75,0,0
48164,-100,4,2,7,75,0,0
48367,-100,4,2,2,75,0,0
48570,-100,4,2,7,75,0,0
48975,-100,4,2,8,80,0,0
49178,-100,4,2,7,80,0,0
49685,-100,4,2,3,80,0,0
49786,-100,4,2,7,80,0,0
50597,-100,4,2,1,80,0,0
50799,-100,4,2,3,80,0,0
51813,-100,4,2,5,80,0,0
52218,-100,4,2,9,85,0,1
65191,-100,4,2,4,75,0,0
66408,-100,4,2,10,75,0,0
66610,-100,4,2,4,75,0,0
68029,-100,4,2,10,75,0,0
68080,-100,4,2,4,75,0,0
69651,-100,4,2,10,75,0,0
69854,-100,4,2,4,75,0,0
70056,-100,4,2,7,75,0,0
70867,-100,4,2,9,75,0,0
71678,-100,4,2,9,85,0,1
75225,-100,4,2,11,85,0,1
75326,-100,4,2,9,85,0,1
75833,-100,4,2,11,85,0,1
75935,-100,4,2,9,85,0,1
78164,-100,4,2,3,60,0,0
79786,-100,4,2,1,70,0,0
80191,-100,4,2,2,70,0,0
80394,-100,4,2,1,70,0,0
80597,-100,4,2,2,70,0,0
80799,-100,4,2,1,70,0,0
81002,-100,4,2,2,70,0,0
81205,-100,4,2,1,70,0,0
81813,-100,4,2,2,70,0,0
82016,-100,4,2,1,70,0,0
82421,-100,4,2,2,70,0,0
83029,-100,4,2,1,70,0,0
83435,-100,4,2,2,70,0,0
83637,-100,4,2,1,70,0,0
83840,-100,4,2,4,70,0,0
84144,-100,4,2,1,70,0,0
84245,-100,4,2,2,70,0,0
84448,-100,4,2,1,70,0,0
84651,-100,4,2,4,70,0,0
85056,-100,4,2,2,70,0,0
85462,-100,4,2,2,45,0,0
86272,-100,4,2,1,70,0,0
86678,-100,4,2,2,70,0,0
86881,-100,4,2,1,70,0,0
87083,-100,4,2,2,70,0,0
87286,-100,4,2,1,70,0,0
87489,-100,4,2,2,70,0,0
87691,-100,4,2,4,70,0,0
88198,-100,4,2,1,70,0,0
88299,-100,4,2,2,70,0,0
88502,-100,4,2,4,70,0,0
88705,-100,4,2,1,70,0,0
88908,-100,4,2,2,70,0,0
89009,-100,4,2,1,70,0,0
89110,-100,4,2,4,70,0,0
89820,-100,4,2,1,70,0,0
89921,-100,4,2,2,70,0,0
90124,-100,4,2,4,70,0,0
90428,-100,4,2,1,70,0,0
90529,-100,4,2,4,70,0,0
90732,-100,4,2,2,70,0,0
90935,-100,4,2,4,70,0,0
91340,-100,4,2,1,70,0,0
91441,-100,4,2,2,70,0,0
91948,-100,4,2,1,70,0,0
92759,-100,4,2,2,60,0,0
94381,-100,4,2,3,60,0,0
94989,-100,4,2,2,60,0,0
95191,-100,4,2,3,60,0,0
95394,-100,4,2,2,60,0,0
96002,-100,4,2,3,60,0,0
96205,-100,4,2,2,60,0,0
97624,-100,4,2,3,60,0,0
97826,-100,4,2,2,60,0,0
98029,-100,4,2,1,70,0,0
98435,-100,4,2,2,70,0,0
98840,-100,4,2,3,70,0,0
99245,-100,4,2,3,75,0,0
99651,-100,4,2,7,75,0,0
101475,-100,4,2,2,75,0,0
101678,-100,4,2,7,75,0,0
101881,-100,4,2,2,75,0,0
102083,-100,4,2,7,75,0,0
102489,-100,4,2,8,75,0,0
102691,-100,4,2,7,75,0,0
103198,-100,4,2,3,75,0,0
103299,-100,4,2,7,75,0,0
104110,-100,4,2,1,75,0,0
104313,-100,4,2,3,75,0,0
105326,-100,4,2,5,75,0,0
105732,-100,4,2,9,85,0,1
118705,-100,4,2,4,75,0,0
119921,-100,4,2,10,75,0,0
120124,-100,4,2,4,75,0,0
121543,-100,4,2,10,75,0,0
121593,-100,4,2,4,75,0,0
123164,-100,4,2,10,75,0,0
123367,-100,4,2,4,75,0,0
123570,-100,4,2,7,75,0,0
124381,-100,4,2,9,75,0,0
125191,-100,4,2,9,85,0,1
128739,-100,4,2,11,85,0,1
128840,-100,4,2,9,85,0,1
129347,-100,4,2,11,85,0,1
129448,-100,4,2,9,85,0,1
131272,-100,4,2,9,55,0,1
131678,-100,4,2,9,55,0,0
132083,-100,4,2,1,55,0,0
132894,-100,4,2,2,55,0,0
133705,-100,4,2,1,55,0,0
134516,-100,4,2,2,55,0,0
137759,-100,4,2,1,55,0,0
138570,-100,4,2,2,55,0,0
139381,-100,4,2,1,55,0,0
140191,-100,4,2,2,55,0,0
141002,-100,4,2,1,55,0,0
142016,-100,4,2,2,55,0,0
144651,-100,4,2,12,70,0,0
144854,-100,4,2,1,70,0,0
145056,-100,4,2,12,70,0,0
145259,-100,4,2,1,70,0,0
145462,-100,4,2,12,70,0,0
145664,-100,4,2,1,70,0,0
145867,-100,4,2,12,70,0,0
146070,-100,4,2,4,70,0,0
146272,-100,4,2,12,70,0,0
146475,-100,4,2,4,70,0,0
146678,-100,4,2,12,70,0,0
146881,-100,4,2,4,70,0,0
147083,-100,4,2,12,70,0,0
147286,-100,4,2,1,70,0,0
147489,-100,4,2,12,70,0,0
147691,-100,4,2,1,70,0,0
147894,-100,4,2,12,70,0,0
148097,-100,4,2,1,70,0,0
148299,-100,4,2,12,70,0,0
148502,-100,4,2,1,70,0,0
148705,-100,4,2,12,70,0,0
148908,-100,4,2,1,70,0,0
149110,-100,4,2,12,70,0,0
149313,-100,4,2,4,70,0,0
149516,-100,4,2,12,70,0,0
149718,-100,4,2,4,70,0,0
149921,-100,4,2,12,70,0,0
150124,-100,4,2,4,70,0,0
150326,-100,4,2,12,70,0,0
150529,-100,4,2,1,70,0,0
150732,-100,4,2,12,70,0,0
150935,-100,4,2,1,70,0,0
151137,-100,4,2,12,80,0,0
151340,-100,4,2,4,80,0,0
151543,-100,4,2,12,80,0,0
151745,-100,4,2,4,80,0,0
151948,-100,4,2,12,80,0,0
152151,-100,4,2,4,80,0,0
152354,-100,4,2,12,80,0,0
152556,-100,4,2,4,80,0,0
152759,-100,4,2,12,80,0,0
152962,-100,4,2,4,80,0,0
153164,-100,4,2,12,80,0,0
153367,-100,4,2,4,80,0,0
153570,-100,4,2,13,80,0,0
153772,-100,4,2,1,80,0,0
153975,-100,4,2,12,80,0,0
154178,-100,4,2,1,80,0,0
154381,-100,4,2,12,85,0,0
154583,-100,4,2,7,85,0,0
155495,-100,4,2,2,85,0,0
155597,-100,4,2,7,85,0,0
155799,-100,4,2,7,90,0,0
155901,-100,4,2,3,90,0,0
156610,-100,4,2,5,100,0,0
157624,-100,4,2,5,100,0,0
164110,-100,4,2,5,40,0,0
164414,-100,4,2,1,40,0,0
164921,-100,4,2,2,40,0,0
165225,-100,4,2,1,40,0,0
165732,-100,4,2,2,40,0,0
166036,-100,4,2,1,40,0,0
166543,-100,4,2,2,40,0,0
166847,-100,4,2,1,40,0,0
167151,-100,4,2,2,40,0,0
168164,-100,4,2,3,40,0,0
168367,-100,4,2,1,40,0,0
168975,-100,4,2,3,40,0,0
169178,-100,4,2,1,40,0,0
169482,-100,4,2,3,40,0,0
169583,-100,4,2,1,40,0,0
169989,-100,4,2,3,40,0,0
170597,-100,4,2,9,85,0,1
180631,-100,4,2,11,85,0,1
180732,-100,4,2,9,85,0,1
181239,-100,4,2,11,85,0,1
181340,-100,4,2,9,85,0,1
183570,-100,4,2,3,60,0,0
185191,-100,4,2,8,60,0,0

[Colours]
Combo1 : 255,159,207
Combo2 : 128,128,255
Combo3 : 255,147,255
Combo4 : 0,102,204

[HitObjects]
55,105,327,6,0,B|142:127|142:127|186:108,1,135,2|2,2:2|2:2,0:0:0:0:
457,105,1948,2,0,B|370:83|370:83|326:102,1,135,2|2,2:2|2:2,0:0:0:0:
55,105,3570,6,0,P|27:215|136:189,1,270,2|2,2:2|2:2,0:0:0:0:
457,279,6813,6,0,B|370:257|370:257|326:276,1,135,2|2,2:2|2:2,0:0:0:0:
55,279,8434,2,0,B|142:301|142:301|186:282,1,135,2|2,2:2|2:2,0:0:0:0:
256,192,10056,12,0,11678,0:0:0:0:
398,318,13299,6,0,P|423:281|423:237,1,90,6|2,2:2|2:2,0:0:0:0:
352,182,14110,2,0,P|357:133|363:81,1,90,6|0,1:2|0:0,0:0:0:0:
285,43,14921,1,2,2:2:0:0:
194,51,15326,2,0,P|108:55|59:127,1,180,2|2,2:2|2:2,0:0:0:0:
106,203,16543,6,0,P|85:243|86:288,1,90,2|0,2:2|0:0,0:0:0:0:
159,341,17354,2,0,P|203:341|243:321,1,90,2|2,1:2|2:2,0:0:0:0:
322,280,18164,2,0,P|366:279|406:299,1,90,2|2,2:2|2:2,0:0:0:0:
469,130,19381,1,2,2:2:0:0:
403,68,19786,6,0,B|323:109|323:109|241:71,1,180,2|6,2:2|1:2,0:0:0:0:
151,72,21002,1,0,0:0:0:0:
191,152,21408,2,0,B|272:189|272:189|293:277,1,180,2|10,2:2|2:1,0:0:0:0:
237,348,22624,1,2,2:2:0:0:
147,346,23029,6,0,L|134:256,1,90,2|2,2:2|2:2,0:0:0:0:
58,208,23840,2,0,L|82:68,1,135,2|2,2:2|2:2,0:0:0:0:
80,74,26272,6,0,P|123:84|166:72,1,90,2|10,3:2|3:2,0:0:0:0:
252,98,27083,2,0,P|295:86|338:96,1,90,6|8,1:2|2:2,0:0:0:0:
427,83,27894,2,0,L|435:172,2,90,2|10|10,2:2|3:2|2:1,0:0:0:0:
338,96,29110,1,10,2:2:0:0:
257,55,29516,6,0,P|246:98|258:141,1,90,2|8,3:2|3:2,0:0:0:0:
309,215,30326,2,0,P|266:203|224:219,1,90,2|8,1:2|2:2,0:0:0:0:
164,286,31137,2,0,L|70:272,2,90,10|10|10,2:2|3:2|2:1,0:0:0:0:
252,303,32354,1,10,2:2:0:0:
339,283,32759,6,0,L|329:193,1,90,2|10,3:2|3:2,0:0:0:0:
405,144,33570,2,0,L|395:54,1,90,6|10,1:2|2:2,0:0:0:0:
314,14,34381,2,0,P|229:18|199:97,1,180,2|8,2:2|2:1,0:0:0:0:
197,187,35597,1,10,2:2:0:0:
278,224,36002,6,0,P|363:220|393:141,1,180,2|0,3:2|1:1,0:0:0:0:
395,52,37218,1,10,2:2:0:0:
306,67,37624,2,0,P|262:58|216:54,2,90,10|10|10,2:2|3:2|2:1,0:0:0:0:
395,52,38840,1,6,2:3:0:0:
466,106,39245,1,4,2:2:0:0:
256,192,45732,12,6,50597,2:3:0:0:
93,178,52218,6,0,P|125:147|168:135,1,90,14|10,3:2|1:2,0:0:0:0:
257,147,53029,2,0,L|238:234,1,90,8|10,2:2|1:2,0:0:0:0:
317,278,53840,2,0,P|360:266|392:235,1,90,10|8,3:2|1:2,0:0:0:0:
423,151,54651,1,8,2:2:0:0:
384,69,55056,1,10,1:2:0:0:
302,108,55462,6,0,L|213:94,1,90,10|10,3:2|1:2,0:0:0:0:
190,181,56272,2,0,L|278:194,1,90,8|10,2:2|1:2,0:0:0:0:
368,207,57083,2,0,B|346:294|346:294|257:280,1,180,10|8,3:2|2:2,0:0:0:0:
167,292,58299,1,10,1:2:0:0:
102,358,58705,6,0,B|70:322|69:270|96:233|96:233|96:233|96:233|125:194|121:142|91:109,1,270,10|8,3:2|1:2,0:0:0:0:
1,118,60326,2,0,P|73:18|177:82,1,270,10|8,3:2|1:2,0:0:0:0:
267,70,61948,6,0,L|356:79,1,90,10|8,3:2|1:2,0:0:0:0:
341,348,63570,2,0,L|188:331,1,135,8|10,3:2|2:2,0:0:0:0:
124,297,64583,1,10,3:2:0:0:
47,186,65191,6,0,P|39:142|58:102,1,90,10|10,3:2|2:2,0:0:0:0:
130,48,66002,2,0,P|173:40|213:59,1,90,10|10,2:2|1:2,0:0:0:0:
280,119,66813,2,0,P|364:138|430:81,1,180,10|10,3:2|2:2,0:0:0:0:
511,122,68029,1,10,1:2:0:0:
467,201,68435,6,0,L|475:301,1,90,2|10,3:2|2:2,0:0:0:0:
385,302,69245,2,0,L|377:212,1,90,10|10,2:2|1:2,0:0:0:0:
287,223,70056,2,0,L|272:43,1,180,6|2,3:2|2:2,0:0:0:0:
92,47,71678,6,0,P|72:86|80:130,1,90,10|8,3:2|1:2,0:0:0:0:
143,194,72489,2,0,L|127:302,1,90,10|8,2:2|1:2,0:0:0:0:
193,346,73299,2,0,P|236:353|276:334,1,90,10|8,3:2|1:2,0:0:0:0:
310,251,74110,2,0,P|349:231|393:239,1,90,10|8,2:2|1:2,0:0:0:0:
256,192,74921,12,2,78164,2:2:0:0:
441,307,79786,6,0,L|351:296,1,90,2|10,3:2|3:2,0:0:0:0:
270,335,80597,1,2,2:2:0:0:
92,304,81408,2,0,L|70:125,1,180,2|8,2:2|2:1,0:0:0:0:
214,27,83029,6,0,P|258:20|299:35,2,90,2|10|2,3:2|3:2|1:2,0:0:0:0:
130,58,84245,1,10,2:2:0:0:
195,119,84651,2,0,B|228:148|280:153|319:124|319:124|319:124|319:124|356:97|408:98|444:130,1,270,10|2,2:2|2:2,0:0:0:0:
463,218,86272,6,0,L|473:307,1,90,2|10,3:2|3:2,0:0:0:0:
384,321,87083,2,0,L|373:231,1,90,2|10,1:2|2:2,0:0:0:0:
283,232,87894,2,0,P|215:178|133:208,1,180,2|8,2:2|2:1,0:0:0:0:
201,269,89110,1,2,2:2:0:0:
271,324,89516,6,0,L|379:314,1,90,2|10,3:2|3:2,0:0:0:0:
414,243,90326,2,0,L|405:153,1,90,0|8,1:1|2:2,0:0:0:0:
359,75,91137,2,0,P|276:55|228:126,1,180,8|8,2:2|2:1,0:0:0:0:
162,187,92354,1,4,2:3:0:0:
82,144,92759,1,4,2:2:0:0:
256,192,99245,12,6,104110,2:3:0:0:
468,288,105732,6,0,L|449:201,1,90,14|10,3:2|1:2,0:0:0:0:
358,198,106543,2,0,P|315:209|283:240,1,90,8|10,2:2|1:2,0:0:0:0:
198,271,107354,2,0,L|179:184,1,90,10|8,3:2|1:2,0:0:0:0:
155,95,108165,1,8,2:2:0:0:
196,15,108570,1,10,1:2:0:0:
275,57,108975,6,0,P|318:64|361:50,1,90,10|10,3:2|1:2,0:0:0:0:
414,123,109786,2,0,P|385:157|376:200,1,90,8|10,2:2|1:2,0:0:0:0:
287,210,110597,2,0,P|238:138|152:142,1,180,10|8,3:2|2:2,0:0:0:0:
198,219,111813,1,10,1:2:0:0:
108,223,112218,6,0,B|18:224|18:224|29:312|29:312|120:312,1,270,10|8,3:2|1:2,0:0:0:0:
204,345,113840,2,0,B|383:345|383:345|394:253,1,270,10|8,3:2|1:2,0:0:0:0:
470,207,115462,6,0,L|480:118,1,90,10|8,3:2|1:2,0:0:0:0:
219,45,117083,2,0,L|203:179,1,135,8|10,3:2|2:2,0:0:0:0:
193,268,118097,1,10,3:2:0:0:
316,321,118705,6,0,P|334:280|326:237,1,90,10|10,3:2|2:2,0:0:0:0:
400,185,119516,2,0,P|391:141|410:101,1,90,10|10,2:2|1:2,0:0:0:0:
340,44,120327,2,0,P|256:25|190:82,1,180,10|10,3:2|2:2,0:0:0:0:
99,87,121543,1,10,1:2:0:0:
27,141,121949,6,0,L|34:230,1,90,2|10,3:2|2:2,0:0:0:0:
84,305,122759,2,0,L|173:297,1,90,10|10,2:2|1:2,0:0:0:0:
262,313,123570,2,0,L|247:133,1,180,6|2,3:2|2:2,0:0:0:0:
404,45,125192,6,0,P|412:88|391:127,1,90,10|8,3:2|1:2,0:0:0:0:
301,140,126002,2,0,P|256:141|223:169,1,90,10|8,2:2|1:2,0:0:0:0:
183,250,126813,2,0,L|94:265,1,90,10|8,3:2|1:2,0:0:0:0:
110,353,127624,2,0,L|199:338,1,90,10|8,2:2|1:2,0:0:0:0:
256,192,128435,12,2,131678,2:2:0:0:
376,207,134921,6,0,B|364:296|364:296|397:326,2,135,2|2|2,2:2|2:2|2:2,0:0:0:0:
332,128,136543,2,0,L|242:115,1,90,2|2,2:2|2:2,0:0:0:0:
64,92,137759,1,2,2:2:0:0:
15,168,138164,6,0,L|34:255,1,90,2|2,2:2|2:2,0:0:0:0:
120,230,138975,2,0,L|139:317,1,90,2|2,1:2|2:2,0:0:0:0:
227,299,139786,2,0,L|208:210,1,90,2|2,2:2|2:2,0:0:0:0:
296,198,140597,2,0,L|277:109,1,90,2|2,1:2|2:2,0:0:0:0:
250,22,141408,6,0,P|316:27|361:75,2,135,2|2|2,2:2|2:2|2:2,0:0:0:0:
170,62,143029,2,0,L|188:150,1,90,2|2,2:2|2:2,0:0:0:0:
146,228,143840,2,0,P|102:230|64:255,1,90,2|2,2:2|2:2,0:0:0:0:
129,317,144651,6,0,P|211:348|296:321,1,180,8|8,3:2|3:2,0:0:0:0:
355,254,145867,1,10,2:2:0:0:
268,225,146272,2,0,P|270:181|294:144,1,90,10|10,3:2|2:2,0:0:0:0:
360,82,147083,2,0,P|322:58|278:56,1,90,10|10,3:2|2:2,0:0:0:0:
190,34,147894,6,0,L|163:212,1,180,8|8,3:2|3:2,0:0:0:0:
149,300,149110,1,10,2:2:0:0:
234,326,149516,2,0,P|274:307|318:310,1,90,10|10,3:2|2:2,0:0:0:0:
402,278,150326,2,0,P|446:274|486:294,1,90,10|10,3:2|2:2,0:0:0:0:
256,192,151137,12,6,156610,2:2:0:0:
448,97,164110,6,0,P|371:54|286:77,1,180,2|2,2:2|2:2,0:0:0:0:
264,256,165732,2,0,P|340:298|425:275,1,180,2|2,2:2|2:2,0:0:0:0:
448,97,167354,2,0,P|371:54|286:77,2,180,2|2|2,2:2|2:2|2:2,0:0:0:0:
263,255,170597,6,0,P|223:237|179:241,1,90,14|10,3:2|1:2,0:0:0:0:
89,236,171408,2,0,L|102:147,1,90,10|10,2:2|1:2,0:0:0:0:
159,77,172218,2,0,P|247:68|328:106,1,180,10|10,3:2|2:2,0:0:0:0:
416,88,173435,1,10,1:2:0:0:
489,139,173840,6,0,L|479:228,1,90,10|10,3:2|1:2,0:0:0:0:
394,199,174651,2,0,L|384:288,1,90,10|10,2:2|1:2,0:0:0:0:
294,289,175462,2,0,P|205:280|124:318,1,180,10|10,3:2|2:2,0:0:0:0:
39,290,176678,1,10,1:2:0:0:
5,206,177083,6,0,P|0:161|19:121,1,90,10|8,3:2|1:2,0:0:0:0:
86,60,177894,2,0,P|130:55|170:74,1,90,10|8,2:2|1:2,0:0:0:0:
224,146,178705,2,0,L|312:129,1,90,10|8,3:2|1:2,0:0:0:0:
360,52,179516,2,0,L|448:68,1,90,10|8,2:2|1:2,0:0:0:0:
256,192,180326,12,2,183570,2:2:0:0:
