osu file format v14

[General]
AudioFilename: audio.mp3
AudioLeadIn: 0
PreviewTime: 104550
Countdown: 0
SampleSet: Soft
StackLeniency: 0.7
Mode: 3
LetterboxInBreaks: 0
SpecialStyle: 0
WidescreenStoryboard: 1

[Editor]
DistanceSpacing: 0.2
BeatDivisor: 6
GridSize: 32
TimelineZoom: 1.7

[Metadata]
Title:Bubble
TitleUnicode:Bubble
Artist:STAYC
ArtistUnicode:스테이씨
Creator:Chrisse
Version:Hard
Source:
Tags:korean pop k-pop kpop female vocalist teenfresh highup high up entertainment sumin sieun isa seeun yoon j 수민 시은 아이사 세은 윤 재이 star to a young culture B.E.P Black Eyed Pilseung Rado Jeon Goon FLYT
BeatmapID:4286441
BeatmapSetID:2051813

[Difficulty]
HPDrainRate:7.5
CircleSize:4
OverallDifficulty:7.5
ApproachRate:5
SliderMultiplier:1.4
SliderTickRate:1

[Events]
//Background and Video events
0,0,"bg.jpg",0,0
//Break Periods
//Storyboard Layer 0 (Background)
//Storyboard Layer 1 (Fail)
//Storyboard Layer 2 (Pass)
//Storyboard Layer 3 (Foreground)
//Storyboard Layer 4 (Overlay)
//Storyboard Sound Samples
Sample,21149,0,"Tom2.wav",40
Sample,28421,0,"Tom2.wav",40
Sample,67512,0,"Hat Close.wav",30
Sample,67967,0,"Hat Close.wav",30
Sample,125694,0,"Hat Close.wav",30
Sample,126149,0,"Hat Close.wav",30
Sample,148194,0,"snare.wav",40

[TimingPoints]
3650,454.545454545455,4,2,1,50,1,0
14550,454.545454545455,4,2,1,50,1,0
47277,-100,4,2,1,50,0,1
74550,-100,4,2,1,50,0,0
105459,-100,4,2,1,50,0,1
132731,-100,4,2,1,50,0,0
150913,-100,4,2,1,50,0,1
163413,-100,4,2,1,50,0,0
165459,-100,4,2,1,50,0,1
178186,-100,4,2,1,50,0,0

[HitObjects]
320,192,3650,5,0,0:0:0:0:
448,192,3650,128,0,3877:0:0:0:0:
192,192,3877,1,0,0:0:0:0:
64,192,4104,128,0,4331:0:0:0:0:
448,192,4104,1,0,0:0:0:0:
192,192,4331,1,0,0:0:0:0:
320,192,4559,128,0,4786:0:0:0:0:
448,192,4559,1,0,0:0:0:0:
64,192,4786,128,0,5013:0:0:0:0:
320,192,5013,128,0,5240:0:0:0:0:
448,192,5013,1,0,0:0:0:0:
64,192,5240,128,0,5468:0:0:0:0:
448,192,5468,1,0,0:0:0:0:
192,192,5695,128,0,5922:0:0:0:0:
320,192,5695,1,0,0:0:0:0:
64,192,5922,128,0,6150:0:0:0:0:
320,192,6150,128,0,6377:0:0:0:0:
448,192,6150,1,0,0:0:0:0:
192,192,6377,1,0,0:0:0:0:
64,192,6604,128,0,6831:0:0:0:0:
448,192,6604,1,0,0:0:0:0:
192,192,6831,128,0,7059:0:0:0:0:
448,192,7059,128,0,7286:0:0:0:0:
64,192,7286,128,0,7513:0:0:0:0:
192,192,7286,1,0,0:0:0:0:
320,192,7513,1,0,0:0:0:0:
64,192,7740,1,0,0:0:0:0:
448,192,7740,128,0,7968:0:0:0:0:
320,192,7968,1,0,0:0:0:0:
64,192,8195,128,0,8422:0:0:0:0:
192,192,8195,1,0,0:0:0:0:
448,192,8422,128,0,8650:0:0:0:0:
64,192,8650,1,0,0:0:0:0:
192,192,8650,128,0,8877:0:0:0:0:
448,192,8877,128,0,9104:0:0:0:0:
64,192,9104,1,0,0:0:0:0:
192,192,9331,1,0,0:0:0:0:
320,192,9331,128,0,9559:0:0:0:0:
448,192,9559,1,0,0:0:0:0:
64,192,9786,1,0,0:0:0:0:
192,192,9786,128,0,10013:0:0:0:0:
320,192,10013,1,0,0:0:0:0:
64,192,10240,128,0,10468:0:0:0:0:
448,192,10240,1,0,0:0:0:0:
320,192,10468,128,0,10695:0:0:0:0:
448,192,10468,1,0,0:0:0:0:
64,192,10695,1,0,0:0:0:0:
192,192,10695,128,0,10922:0:0:0:0:
320,192,10922,1,0,0:0:0:0:
448,192,10922,128,0,11150:0:0:0:0:
64,192,11150,1,0,0:0:0:0:
192,192,11377,1,0,0:0:0:0:
320,192,11377,128,0,11604:0:0:0:0:
448,192,11604,1,0,0:0:0:0:
64,192,11831,128,0,12059:0:0:0:0:
192,192,11831,1,0,0:0:0:0:
320,192,12059,128,0,12286:0:0:0:0:
64,192,12286,128,0,12513:0:0:0:0:
192,192,12286,1,0,0:0:0:0:
320,192,12513,128,0,12740:0:0:0:0:
192,192,12740,1,0,0:0:0:0:
320,192,12968,1,0,0:0:0:0:
448,192,12968,128,0,13195:0:0:0:0:
64,192,13195,128,0,13422:0:0:0:0:
320,192,13422,1,0,0:0:0:0:
448,192,13422,128,0,13650:0:0:0:0:
192,192,13650,1,0,0:0:0:0:
64,192,13877,128,0,14104:0:0:0:0:
320,192,13877,1,0,0:0:0:0:
448,192,14104,128,0,14331:0:0:0:0:
192,192,14331,128,0,14550:0:0:0:0:
320,192,14550,128,2,14777:0:0:0:0:
448,192,14550,128,0,14777:0:0:0:0:
64,192,15459,128,2,15686:0:0:0:0:
192,192,15459,128,0,15686:0:0:0:0:
320,192,16368,128,2,16595:0:0:0:0:
448,192,16368,128,0,16595:0:0:0:0:
64,192,16822,128,2,17050:0:0:0:0:
192,192,16822,128,0,17050:0:0:0:0:
320,192,17277,1,2,0:0:0:0:
448,192,17277,1,0,0:0:0:0:
64,192,17390,1,2,0:0:0:0:
192,192,17504,1,2,0:0:0:0:
320,192,17618,1,2,0:0:0:0:
64,192,17731,128,0,18186:0:0:0:0:
448,192,17731,1,0,0:0:0:0:
320,192,18186,1,2,0:0:0:0:
448,192,18186,1,0,0:0:0:0:
192,192,18413,128,0,18640:0:0:0:0:
64,192,18640,1,0,0:0:0:30:clap.wav
448,192,18640,1,0,0:0:0:0:
192,192,19095,1,0,0:0:0:0:
320,192,19322,128,0,19550:0:0:0:0:
64,192,19550,1,0,0:0:0:30:clap.wav
448,192,19550,1,0,0:0:0:0:
192,192,20004,128,0,20231:0:0:0:0:
320,192,20231,128,0,20459:0:0:0:0:
64,192,20459,1,0,0:0:0:30:clap.wav
448,192,20459,1,0,0:0:0:0:
192,192,20686,128,0,20913:0:0:0:0:
64,192,20913,128,0,21140:0:0:0:0:
448,192,21140,1,2,0:0:0:0:
192,192,21254,1,0,0:0:0:40:Tom1.wav
320,192,21368,1,0,0:0:0:30:clap.wav
448,192,21368,1,0,0:0:0:40:Tom1.wav
64,192,21595,1,0,0:0:0:40:Tom1.wav
192,192,21822,1,2,0:0:0:0:
320,192,21822,1,0,0:0:0:0:
448,192,22050,128,0,22277:0:0:0:0:
64,192,22277,1,0,0:0:0:30:clap.wav
192,192,22277,1,0,0:0:0:0:
320,192,22731,1,0,0:0:0:0:
64,192,22959,128,0,23186:0:0:0:0:
320,192,23186,1,0,0:0:0:30:clap.wav
448,192,23186,1,0,0:0:0:0:
192,192,23640,128,0,23868:0:0:0:0:
320,192,23868,128,0,24095:0:0:0:0:
64,192,24095,1,0,0:0:0:30:clap.wav
448,192,24095,1,0,0:0:0:0:
192,192,24322,128,0,24550:0:0:0:0:
448,192,24550,128,0,24777:0:0:0:0:
64,192,24777,1,2,0:0:0:0:
192,192,24777,1,0,0:0:0:0:
320,192,25004,128,0,25459:0:0:0:30:clap.wav
448,192,25004,1,0,0:0:0:0:
64,192,25459,1,2,0:0:0:0:
192,192,25459,1,0,0:0:0:0:
448,192,25686,128,0,25913:0:0:0:0:
64,192,25913,1,0,0:0:0:30:clap.wav
320,192,25913,1,0,0:0:0:0:
192,192,26368,1,0,0:0:0:0:
64,192,26595,128,0,26822:0:0:0:0:
320,192,26822,1,0,0:0:0:30:clap.wav
448,192,26822,1,0,0:0:0:0:
192,192,27277,128,0,27504:0:0:0:0:
448,192,27504,128,0,27731:0:0:0:0:
64,192,27731,1,0,0:0:0:30:clap.wav
320,192,27731,1,0,0:0:0:0:
192,192,27959,128,0,28186:0:0:0:0:
320,192,28186,1,0,0:0:0:0:
64,192,28413,1,2,0:0:0:0:
448,192,28527,1,0,0:0:0:40:Tom1.wav
64,192,28640,1,0,0:0:0:30:clap.wav
192,192,28640,1,0,0:0:0:40:Tom1.wav
320,192,28868,1,0,0:0:0:40:Tom1.wav
64,192,29095,1,2,0:0:0:0:
448,192,29095,1,0,0:0:0:0:
192,192,29322,128,0,29550:0:0:0:0:
320,192,29550,1,0,0:0:0:30:clap.wav
448,192,29550,1,0,0:0:0:0:
64,192,30004,1,0,0:0:0:0:
320,192,30231,128,0,30459:0:0:0:0:
64,192,30459,1,0,0:0:0:30:clap.wav
192,192,30459,1,0,0:0:0:0:
448,192,30913,1,0,0:0:0:40:snare.wav
320,192,31027,1,0,0:0:0:0:
64,192,31140,1,0,0:0:0:40:snare.wav
192,192,31254,1,0,0:0:0:40:snare.wav
320,192,31368,1,0,0:0:0:40:snare.wav
448,192,31368,1,0,0:0:0:0:
64,192,31595,1,2,0:0:0:0:
192,192,31595,1,0,0:0:0:30:Hat Close.wav
448,192,31822,1,0,0:0:0:40:Tom1.wav
320,192,31936,1,0,0:0:0:40:Tom1.wav
64,192,32050,1,0,0:0:0:40:Tom2.wav
192,192,32163,1,0,0:0:0:40:Tom2.wav
448,192,32277,1,0,0:0:0:40:Tom3.wav
64,192,32390,1,0,0:0:0:40:Tom3.wav
320,192,32504,1,0,0:0:0:40:Tom1.wav
192,192,32618,1,0,0:0:0:40:Tom1.wav
64,192,32731,1,2,0:0:0:0:
320,192,32731,1,4,0:0:0:0:
448,192,32731,1,0,0:0:0:0:
192,192,32959,1,0,0:0:0:30:Hat Close.wav
192,192,33186,1,8,0:0:0:0:
320,192,33186,1,0,0:0:0:0:
448,192,33413,1,0,0:0:0:30:Hat Close.wav
64,192,33640,1,2,0:0:0:0:
192,192,33640,1,0,0:0:0:0:
320,192,33868,1,0,0:0:0:30:Hat Close.wav
192,192,34095,1,8,0:0:0:0:
320,192,34095,1,0,0:0:0:0:
64,192,34322,1,0,0:0:0:30:Hat Close.wav
320,192,34550,1,2,0:0:0:0:
448,192,34550,1,0,0:0:0:0:
192,192,34777,1,0,0:0:0:30:Hat Close.wav
192,192,35004,1,8,0:0:0:0:
448,192,35004,1,0,0:0:0:0:
448,192,35231,1,0,0:0:0:30:Hat Close.wav
64,192,35459,1,2,0:0:0:0:
192,192,35459,1,0,0:0:0:0:
64,192,35686,1,0,0:0:0:30:Hat Close.wav
320,192,35913,1,8,0:0:0:0:
448,192,35913,1,0,0:0:0:0:
192,192,36140,1,0,0:0:0:30:Hat Close.wav
64,192,36368,128,2,36595:0:0:0:0:
448,192,36368,1,0,0:0:0:0:
320,192,36595,1,0,0:0:0:30:Hat Close.wav
64,192,36822,1,8,0:0:0:0:
192,192,36822,128,0,37050:0:0:0:0:
448,192,37050,1,0,0:0:0:30:Hat Close.wav
64,192,37277,1,2,0:0:0:0:
320,192,37277,128,0,37504:0:0:0:0:
192,192,37504,128,0,37731:0:0:0:30:Hat Close.wav
320,192,37731,1,8,0:0:0:0:
448,192,37731,1,0,0:0:0:0:
64,192,37959,128,0,38186:0:0:0:30:Hat Close.wav
192,192,38186,1,2,0:0:0:0:
448,192,38186,1,0,0:0:0:0:
320,192,38413,128,0,38640:0:0:0:30:Hat Close.wav
64,192,38640,1,8,0:0:0:0:
192,192,38640,1,0,0:0:0:0:
448,192,38868,128,0,39095:0:0:0:30:Hat Close.wav
64,192,39095,128,2,39322:0:0:0:0:
320,192,39095,1,0,0:0:0:0:
192,192,39322,128,0,39550:0:0:0:30:Hat Close.wav
320,192,39550,1,8,0:0:0:0:
448,192,39550,128,0,39777:0:0:0:0:
64,192,39777,128,0,40004:0:0:0:30:Hat Close.wav
192,192,40004,1,2,0:0:0:0:
320,192,40004,1,0,0:0:0:0:
448,192,40231,1,0,0:0:0:30:Hat Close.wav
192,192,40459,1,8,0:0:0:0:
448,192,40459,1,0,0:0:0:0:
64,192,40686,1,0,0:0:0:30:Hat Close.wav
320,192,40913,1,2,0:0:0:0:
448,192,40913,1,0,0:0:0:0:
192,192,41140,1,0,0:0:0:30:Hat Close.wav
192,192,41368,1,8,0:0:0:0:
320,192,41368,1,0,0:0:0:0:
448,192,41595,1,0,0:0:0:30:Hat Close.wav
64,192,41822,1,2,0:0:0:0:
192,192,41822,1,0,0:0:0:0:
320,192,42050,1,0,0:0:0:30:Hat Close.wav
64,192,42277,1,8,0:0:0:0:
320,192,42277,1,0,0:0:0:0:
64,192,42504,1,0,0:0:0:30:Hat Close.wav
320,192,42731,1,2,0:0:0:0:
448,192,42731,1,0,0:0:0:0:
448,192,42959,1,0,0:0:0:30:Hat Close.wav
64,192,43186,1,8,0:0:0:0:
192,192,43186,1,0,0:0:0:0:
320,192,43413,1,0,0:0:0:30:Hat Close.wav
64,192,43640,1,0,0:0:0:40:snare.wav
448,192,43640,1,0,0:0:0:0:
64,192,43868,1,0,0:0:0:40:snare.wav
192,192,43868,1,0,0:0:0:0:
320,192,44095,1,0,0:0:0:40:snare.wav
448,192,44095,1,0,0:0:0:0:
64,192,44322,1,0,0:0:0:40:snare.wav
192,192,44322,1,0,0:0:0:0:
64,192,44550,1,0,0:0:0:40:snare.wav
448,192,44550,1,0,0:0:0:0:
64,192,44777,1,0,0:0:0:40:snare.wav
448,192,44777,1,0,0:0:0:0:
192,192,45004,1,0,0:0:0:40:snare.wav
320,192,45004,1,0,0:0:0:0:
192,192,45231,1,0,0:0:0:40:snare.wav
320,192,45231,1,0,0:0:0:0:
64,192,45459,1,0,0:0:0:40:snare.wav
448,192,45572,1,0,0:0:0:40:snare.wav
192,192,45686,1,0,0:0:0:40:snare.wav
320,192,45800,1,0,0:0:0:40:snare.wav
64,192,45913,1,0,0:0:0:40:snare.wav
192,192,45913,1,0,0:0:0:0:
448,192,46027,1,0,0:0:0:40:snare.wav
320,192,46140,1,0,0:0:0:40:snare.wav
192,192,46254,1,0,0:0:0:40:snare.wav
64,192,46368,128,0,46595:0:0:0:0:
448,192,46595,128,0,46822:0:0:0:0:
64,192,46822,1,0,0:0:0:40:Tom1.wav
192,192,46822,1,0,0:0:0:0:
320,192,47050,1,0,0:0:0:40:Tom2.wav
448,192,47050,1,0,0:0:0:0:
64,192,47277,1,2,0:0:0:0:
192,192,47277,1,4,0:0:0:0:
448,192,47277,1,0,0:0:0:0:
192,192,47504,1,0,0:0:0:30:Hat Close.wav
320,192,47731,1,8,0:0:0:0:
448,192,47731,1,0,0:0:0:0:
320,192,47959,1,0,0:0:0:30:Hat Close.wav
64,192,48186,1,2,0:0:0:0:
192,192,48186,1,0,0:0:0:0:
448,192,48413,128,0,48640:0:0:0:30:Hat Close.wav
64,192,48640,128,8,48868:0:0:0:0:
320,192,48640,1,0,0:0:0:0:
192,192,48868,128,0,49095:0:0:0:30:Hat Close.wav
320,192,49095,1,2,0:0:0:0:
448,192,49095,1,0,0:0:0:0:
64,192,49322,1,0,0:0:0:30:Hat Close.wav
192,192,49550,1,8,0:0:0:0:
448,192,49550,1,0,0:0:0:0:
320,192,49777,1,0,0:0:0:30:Hat Close.wav
64,192,50004,1,2,0:0:0:0:
192,192,50004,1,0,0:0:0:0:
64,192,50231,128,0,50459:0:0:0:30:Hat Close.wav
320,192,50459,1,8,0:0:0:0:
448,192,50459,128,0,50686:0:0:0:0:
192,192,50686,128,0,51140:0:0:0:30:Hat Close.wav
64,192,50913,1,2,0:0:0:0:
448,192,50913,1,0,0:0:0:0:
320,192,51140,128,0,51368:0:0:0:30:Hat Close.wav
64,192,51368,128,8,51595:0:0:0:0:
448,192,51368,1,0,0:0:0:0:
320,192,51595,128,0,51822:0:0:0:30:Hat Close.wav
64,192,51822,1,2,0:0:0:0:
192,192,51822,128,0,52050:0:0:0:0:
320,192,52050,1,0,0:0:0:30:Hat Close.wav
64,192,52277,1,8,0:0:0:0:
448,192,52277,128,0,52504:0:0:0:0:
192,192,52504,128,0,53186:0:0:0:30:Hat Close.wav
320,192,52731,1,2,0:0:0:0:
448,192,52731,1,0,0:0:0:0:
64,192,52959,128,0,53186:0:0:0:30:Hat Close.wav
320,192,53186,128,8,53413:0:0:0:0:
448,192,53186,1,0,0:0:0:0:
64,192,53413,128,0,53640:0:0:0:30:Hat Close.wav
192,192,53640,1,2,0:0:0:0:
448,192,53640,1,0,0:0:0:0:
320,192,53868,128,0,54095:0:0:0:30:Hat Close.wav
64,192,54095,128,8,54322:0:0:0:0:
448,192,54095,1,0,0:0:0:0:
192,192,54322,128,0,54550:0:0:0:30:Hat Close.wav
64,192,54550,1,2,0:0:0:0:
320,192,54550,1,4,0:0:0:0:
448,192,54550,1,0,0:0:0:0:
320,192,54777,1,0,0:0:0:30:Hat Close.wav
64,192,55004,1,8,0:0:0:0:
192,192,55004,1,0,0:0:0:0:
192,192,55231,1,0,0:0:0:30:Hat Close.wav
320,192,55459,1,2,0:0:0:0:
448,192,55459,1,0,0:0:0:0:
64,192,55686,128,0,55913:0:0:0:30:Hat Close.wav
192,192,55913,1,8,0:0:0:0:
448,192,55913,128,0,56140:0:0:0:0:
320,192,56140,128,0,56368:0:0:0:30:Hat Close.wav
64,192,56368,1,2,0:0:0:0:
192,192,56368,1,0,0:0:0:0:
448,192,56595,1,0,0:0:0:30:Hat Close.wav
64,192,56822,1,8,0:0:0:0:
320,192,56822,1,0,0:0:0:0:
192,192,57050,1,0,0:0:0:30:Hat Close.wav
320,192,57277,1,2,0:0:0:0:
448,192,57277,1,0,0:0:0:0:
192,192,57504,128,0,57731:0:0:0:30:Hat Close.wav
64,192,57731,1,8,0:0:0:0:
448,192,57731,128,0,57959:0:0:0:0:
320,192,57959,128,0,58186:0:0:0:30:Hat Close.wav
64,192,58186,1,2,0:0:0:0:
192,192,58186,1,0,0:0:0:0:
192,192,58413,128,0,58640:0:0:0:30:Hat Close.wav
320,192,58640,1,8,0:0:0:0:
448,192,58640,128,0,58868:0:0:0:0:
64,192,58868,128,0,59095:0:0:0:30:Hat Close.wav
192,192,59095,1,2,0:0:0:0:
448,192,59095,1,0,0:0:0:0:
320,192,59322,128,0,59550:0:0:0:30:Hat Close.wav
64,192,59550,1,8,0:0:0:0:
192,192,59550,1,0,0:0:0:0:
320,192,59777,128,0,60004:0:0:0:30:Hat Close.wav
64,192,60004,1,2,0:0:0:0:
448,192,60004,1,0,0:0:0:0:
192,192,60118,1,0,0:0:0:40:snare.wav
320,192,60231,1,0,0:0:0:40:snare.wav
448,192,60345,1,0,0:0:0:40:snare.wav
64,192,60459,1,8,0:0:0:0:
192,192,60459,1,0,0:0:0:40:snare.wav
320,192,60686,1,0,0:0:0:40:snare.wav
64,192,60913,1,2,0:0:0:0:
192,192,60913,1,0,0:0:0:0:
448,192,61027,1,0,0:0:0:0:
64,192,61140,1,0,0:0:0:0:
448,192,61254,1,0,0:0:0:0:
64,192,61368,1,8,0:0:0:0:
192,192,61368,128,0,61595:0:0:0:0:
320,192,61595,128,0,61822:0:0:0:0:
64,192,61822,1,2,0:0:0:0:
192,192,61822,1,4,0:0:0:0:
448,192,61822,1,0,0:0:0:0:
320,192,62050,1,0,0:0:0:30:Hat Close.wav
64,192,62277,1,8,0:0:0:0:
192,192,62277,1,0,0:0:0:0:
448,192,62504,1,0,0:0:0:30:Hat Close.wav
192,192,62731,1,2,0:0:0:0:
320,192,62731,1,0,0:0:0:30:Hat Close.wav
64,192,62959,128,0,63186:0:0:0:30:Hat Close.wav
320,192,63186,128,8,63413:0:0:0:0:
448,192,63186,1,0,0:0:0:0:
192,192,63413,128,0,63640:0:0:0:30:Hat Close.wav
64,192,63640,1,2,0:0:0:0:
448,192,63640,1,0,0:0:0:30:Hat Close.wav
320,192,63868,1,0,0:0:0:30:Hat Close.wav
64,192,64095,128,8,64322:0:0:0:0:
192,192,64095,128,0,64322:0:0:0:0:
448,192,64322,1,0,0:0:0:30:Hat Close.wav
320,192,64550,128,2,64777:0:0:0:0:
448,192,64550,128,0,64777:0:0:0:30:Hat Close.wav
64,192,64777,1,0,0:0:0:30:Hat Close.wav
64,192,65004,128,8,65231:0:0:0:0:
192,192,65004,128,0,65231:0:0:0:0:
320,192,65231,1,0,0:0:0:30:Hat Close.wav
192,192,65459,1,2,0:0:0:0:
448,192,65459,1,0,0:0:0:30:Hat Close.wav
64,192,65686,1,0,0:0:0:30:Hat Close.wav
320,192,65913,1,8,0:0:0:0:
448,192,65913,1,0,0:0:0:0:
192,192,66140,1,0,0:0:0:30:Hat Close.wav
64,192,66368,1,2,0:0:0:0:
448,192,66368,1,0,0:0:0:30:Hat Close.wav
320,192,66595,128,0,66822:0:0:0:30:Hat Close.wav
64,192,66822,1,8,0:0:0:0:
192,192,66822,128,0,67050:0:0:0:0:
448,192,67050,128,0,67277:0:0:0:30:Hat Close.wav
192,192,67277,1,2,0:0:0:0:
320,192,67277,1,0,0:0:0:30:Hat Close.wav
64,192,67390,1,0,0:0:0:40:snare.wav
448,192,67504,1,0,0:0:0:40:snare.wav
192,192,67618,1,0,0:0:0:40:snare.wav
320,192,67731,1,8,0:0:0:0:
448,192,67731,1,0,0:0:0:40:snare.wav
64,192,67959,1,0,0:0:0:40:snare.wav
320,192,68186,1,2,0:0:0:0:
448,192,68186,1,0,0:0:0:30:Hat Close.wav
64,192,68300,1,0,0:0:0:30:Hat Close.wav
448,192,68413,1,0,0:0:0:30:Hat Close.wav
64,192,68527,1,0,0:0:0:30:Hat Close.wav
320,192,68640,1,8,0:0:0:0:
448,192,68640,128,0,68868:0:0:0:30:Hat Close.wav
64,192,68868,128,0,69095:0:0:0:30:Hat Close.wav
192,192,68868,1,0,0:0:0:0:
192,192,69095,1,2,0:0:0:0:
320,192,69095,1,4,0:0:0:0:
448,192,69095,1,0,0:0:0:0:
320,192,69322,1,0,0:0:0:30:Hat Close.wav
64,192,69550,1,8,0:0:0:0:
448,192,69550,1,0,0:0:0:0:
192,192,69777,1,0,0:0:0:30:Hat Close.wav
320,192,70004,1,2,0:0:0:0:
448,192,70004,1,0,0:0:0:30:Hat Close.wav
192,192,70231,128,0,70459:0:0:0:30:Hat Close.wav
64,192,70459,128,8,70686:0:0:0:0:
448,192,70459,1,0,0:0:0:0:
320,192,70686,128,0,70913:0:0:0:30:Hat Close.wav
64,192,70913,1,2,0:0:0:0:
192,192,70913,1,0,0:0:0:30:Hat Close.wav
448,192,71140,1,0,0:0:0:30:Hat Close.wav
64,192,71368,128,8,71595:0:0:0:0:
192,192,71368,128,0,71595:0:0:0:0:
320,192,71595,1,0,0:0:0:30:Hat Close.wav
320,192,71822,128,2,72050:0:0:0:0:
448,192,71822,128,0,72050:0:0:0:30:Hat Close.wav
192,192,72050,1,0,0:0:0:30:Hat Close.wav
64,192,72277,128,8,72504:0:0:0:0:
192,192,72277,128,0,72504:0:0:0:0:
320,192,72504,1,0,0:0:0:30:Hat Close.wav
64,192,72731,1,2,0:0:0:0:
448,192,72731,1,0,0:0:0:30:Hat Close.wav
192,192,72959,1,0,0:0:0:30:Hat Close.wav
320,192,73186,1,8,0:0:0:0:
448,192,73186,1,0,0:0:0:0:
64,192,73413,1,0,0:0:0:30:Hat Close.wav
192,192,73640,1,2,0:0:0:0:
320,192,73640,1,0,0:0:0:30:Hat Close.wav
448,192,73868,128,0,74095:0:0:0:30:Hat Close.wav
64,192,74095,128,8,74322:0:0:0:0:
192,192,74095,1,0,0:0:0:0:
320,192,74322,128,2,74550:0:0:0:0:
448,192,74322,1,0,0:0:0:30:Hat Close.wav
64,192,74777,1,2,0:0:0:0:
192,192,74777,128,0,75004:0:0:0:0:
448,192,75004,128,0,75231:0:0:0:0:
320,192,75231,128,0,75459:0:0:0:0:
64,192,75459,1,0,0:0:0:0:
448,192,75572,1,0,0:0:0:0:
64,192,75686,1,0,0:0:0:0:
448,192,75800,1,0,0:0:0:0:
192,192,75913,128,0,76140:0:0:0:0:
320,192,76140,128,0,76368:0:0:0:0:
64,192,76368,128,2,76595:0:0:0:0:
192,192,76368,1,0,0:0:0:0:
448,192,76368,1,0,0:0:0:0:
320,192,76595,1,0,0:0:0:30:Hat Close.wav
192,192,76709,1,0,0:0:0:40:snare.wav
64,192,76822,1,0,0:0:0:0:
448,192,76822,1,0,0:0:0:0:
192,192,77050,1,0,0:0:0:40:snare.wav
320,192,77050,1,0,0:0:0:0:
64,192,77277,1,2,0:0:0:0:
448,192,77277,128,0,77618:0:0:0:0:
192,192,77618,1,0,0:0:0:40:snare.wav
320,192,77731,1,2,0:0:0:0:
448,192,77731,1,0,0:0:0:0:
64,192,77959,1,0,0:0:0:40:snare.wav
192,192,77959,1,0,0:0:0:0:
64,192,78186,128,2,78413:0:0:0:0:
448,192,78186,1,0,0:0:0:0:
320,192,78413,1,0,0:0:0:0:
192,192,78527,1,0,0:0:0:40:snare.wav
320,192,78640,1,2,0:0:0:0:
448,192,78640,1,0,0:0:0:0:
64,192,78868,1,0,0:0:0:40:snare.wav
192,192,78868,1,0,0:0:0:0:
64,192,79095,1,2,0:0:0:0:
448,192,79095,128,0,79550:0:0:0:0:
320,192,79322,128,0,79550:0:0:0:30:Hat Close.wav
64,192,79550,1,0,0:0:0:30:Hat Close.wav
192,192,79663,1,0,0:0:0:30:Hat Close.wav
320,192,79834,1,0,0:0:0:30:Hat Close.wav
64,192,80004,128,2,80231:0:0:0:0:
448,192,80004,1,0,0:0:0:30:Hat Close.wav
320,192,80231,1,0,0:0:0:30:Hat Close.wav
192,192,80345,1,0,0:0:0:40:snare.wav
64,192,80459,1,2,0:0:0:0:
448,192,80459,1,0,0:0:0:0:
320,192,80686,1,0,0:0:0:40:snare.wav
448,192,80686,1,0,0:0:0:0:
64,192,80913,1,2,0:0:0:0:
192,192,80913,128,0,81254:0:0:0:0:
448,192,81254,1,0,0:0:0:40:snare.wav
64,192,81368,1,2,0:0:0:0:
192,192,81368,1,0,0:0:0:0:
320,192,81595,1,0,0:0:0:40:snare.wav
448,192,81595,1,0,0:0:0:0:
64,192,81822,1,2,0:0:0:0:
448,192,81822,1,0,0:0:0:0:
192,192,82050,1,0,0:0:0:0:
320,192,82163,1,0,0:0:0:40:snare.wav
64,192,82277,1,2,0:0:0:0:
192,192,82277,1,0,0:0:0:0:
320,192,82504,1,0,0:0:0:40:snare.wav
448,192,82504,1,0,0:0:0:0:
64,192,82731,128,2,82959:0:0:0:0:
448,192,82731,1,0,0:0:0:0:
192,192,82959,128,0,83186:0:0:0:30:Hat Close.wav
448,192,83186,128,0,83640:0:0:0:0:
320,192,83413,128,0,83640:0:0:0:30:Hat Close.wav
64,192,83640,128,2,83868:0:0:0:0:
192,192,83640,1,0,0:0:0:30:Hat Close.wav
320,192,83868,1,0,0:0:0:30:Hat Close.wav
192,192,83981,1,0,0:0:0:40:snare.wav
64,192,84095,1,2,0:0:0:0:
448,192,84095,128,0,84322:0:0:0:0:
64,192,84322,1,0,0:0:0:40:snare.wav
192,192,84322,1,0,0:0:0:0:
320,192,84550,128,2,84890:0:0:0:0:
448,192,84550,1,0,0:0:0:0:
64,192,84890,1,0,0:0:0:40:snare.wav
320,192,85004,1,2,0:0:0:0:
448,192,85004,1,0,0:0:0:0:
64,192,85231,1,0,0:0:0:40:snare.wav
192,192,85231,1,0,0:0:0:0:
64,192,85459,128,2,85686:0:0:0:0:
448,192,85459,1,0,0:0:0:0:
320,192,85686,1,0,0:0:0:0:
192,192,85800,1,0,0:0:0:40:snare.wav
320,192,85913,1,2,0:0:0:0:
448,192,85913,1,0,0:0:0:0:
64,192,86140,1,0,0:0:0:40:snare.wav
448,192,86140,1,0,0:0:0:0:
64,192,86368,1,2,0:0:0:0:
192,192,86368,128,0,86822:0:0:0:0:
320,192,86595,128,0,86822:0:0:0:40:snare.wav
448,192,86595,1,0,0:0:0:0:
64,192,86822,1,2,0:0:0:0:
448,192,86822,1,0,0:0:0:40:snare.wav
192,192,86936,1,0,0:0:0:30:Hat Close.wav
320,192,87106,1,0,0:0:0:30:Hat Close.wav
64,192,87277,1,2,0:0:0:0:
448,192,87277,1,0,0:0:0:30:Hat Close.wav
192,192,87504,1,0,0:0:0:30:Hat Close.wav
320,192,87618,1,0,0:0:0:40:snare.wav
64,192,87731,1,2,0:0:0:0:
192,192,87731,1,0,0:0:0:0:
320,192,87959,1,0,0:0:0:40:snare.wav
448,192,87959,1,0,0:0:0:0:
64,192,88186,1,2,0:0:0:0:
192,192,88186,1,0,0:0:0:0:
320,192,88413,1,0,0:0:0:0:
192,192,88527,1,0,0:0:0:40:snare.wav
320,192,88640,1,2,0:0:0:0:
448,192,88640,128,0,88868:0:0:0:0:
64,192,88868,128,0,89095:0:0:0:40:snare.wav
192,192,88868,1,0,0:0:0:0:
320,192,89095,1,0,0:0:0:0:
448,192,89322,1,0,0:0:0:0:
192,192,89550,1,0,0:0:0:0:
320,192,89777,1,0,0:0:0:0:
64,192,90004,1,0,0:0:0:0:
320,192,90459,128,0,90686:0:0:0:0:
192,192,90686,128,0,90913:0:0:0:0:
64,192,90913,1,2,0:0:0:0:
320,192,90913,1,4,0:0:0:0:
448,192,90913,1,0,0:0:0:0:
192,192,91140,1,0,0:0:0:30:Hat Close.wav
192,192,91368,1,8,0:0:0:0:
320,192,91368,1,0,0:0:0:0:
448,192,91595,1,0,0:0:0:30:Hat Close.wav
64,192,91822,1,2,0:0:0:0:
192,192,91822,1,0,0:0:0:0:
320,192,92050,1,0,0:0:0:30:Hat Close.wav
192,192,92277,1,8,0:0:0:0:
320,192,92277,1,0,0:0:0:0:
64,192,92504,1,0,0:0:0:30:Hat Close.wav
320,192,92731,1,2,0:0:0:0:
448,192,92731,1,0,0:0:0:0:
192,192,92959,1,0,0:0:0:30:Hat Close.wav
192,192,93186,1,8,0:0:0:0:
448,192,93186,1,0,0:0:0:0:
448,192,93413,1,0,0:0:0:30:Hat Close.wav
64,192,93640,1,2,0:0:0:0:
192,192,93640,1,0,0:0:0:0:
64,192,93868,1,0,0:0:0:30:Hat Close.wav
320,192,94095,1,8,0:0:0:0:
448,192,94095,1,0,0:0:0:0:
192,192,94322,1,0,0:0:0:30:Hat Close.wav
64,192,94550,1,2,0:0:0:0:
320,192,94550,128,0,94777:0:0:0:0:
448,192,94777,1,0,0:0:0:30:Hat Close.wav
64,192,95004,1,8,0:0:0:0:
192,192,95004,128,0,95231:0:0:0:0:
320,192,95231,1,0,0:0:0:30:Hat Close.wav
64,192,95459,1,2,0:0:0:0:
448,192,95459,128,0,95686:0:0:0:0:
192,192,95686,128,0,95913:0:0:0:30:Hat Close.wav
320,192,95913,1,8,0:0:0:0:
448,192,95913,1,0,0:0:0:0:
64,192,96140,128,0,96368:0:0:0:30:Hat Close.wav
320,192,96368,1,2,0:0:0:0:
448,192,96368,1,0,0:0:0:0:
192,192,96595,128,0,96822:0:0:0:30:Hat Close.wav
320,192,96822,1,8,0:0:0:0:
448,192,96822,1,0,0:0:0:0:
320,192,97050,128,0,97277:0:0:0:30:Hat Close.wav
64,192,97277,1,2,0:0:0:0:
192,192,97277,128,0,97504:0:0:0:0:
448,192,97504,128,0,97731:0:0:0:30:Hat Close.wav
64,192,97731,128,8,97959:0:0:0:0:
320,192,97731,1,0,0:0:0:0:
192,192,97959,128,0,98186:0:0:0:30:Hat Close.wav
320,192,98186,1,2,0:0:0:0:
448,192,98186,1,0,0:0:0:0:
64,192,98413,1,0,0:0:0:30:Hat Close.wav
64,192,98640,1,8,0:0:0:0:
448,192,98640,1,0,0:0:0:0:
320,192,98868,1,0,0:0:0:30:Hat Close.wav
64,192,99095,1,2,0:0:0:0:
192,192,99095,1,0,0:0:0:0:
448,192,99322,1,0,0:0:0:30:Hat Close.wav
320,192,99550,1,8,0:0:0:0:
448,192,99550,1,0,0:0:0:0:
64,192,99777,1,0,0:0:0:30:Hat Close.wav
192,192,100004,1,2,0:0:0:0:
320,192,100004,1,0,0:0:0:0:
448,192,100231,1,0,0:0:0:30:Hat Close.wav
192,192,100459,1,8,0:0:0:0:
448,192,100459,1,0,0:0:0:0:
192,192,100686,1,0,0:0:0:30:Hat Close.wav
64,192,100913,1,2,0:0:0:0:
320,192,100913,1,0,0:0:0:0:
320,192,101140,1,0,0:0:0:30:Hat Close.wav
192,192,101368,1,8,0:0:0:0:
448,192,101368,1,0,0:0:0:0:
64,192,101595,1,0,0:0:0:30:Hat Close.wav
320,192,101822,1,0,0:0:0:40:snare.wav
448,192,101822,1,0,0:0:0:0:
64,192,102050,1,0,0:0:0:40:snare.wav
320,192,102050,1,0,0:0:0:0:
192,192,102277,1,0,0:0:0:40:snare.wav
448,192,102277,1,0,0:0:0:0:
64,192,102504,1,0,0:0:0:40:snare.wav
192,192,102504,1,0,0:0:0:0:
320,192,102731,1,0,0:0:0:40:snare.wav
448,192,102731,1,0,0:0:0:0:
320,192,102959,1,0,0:0:0:40:snare.wav
448,192,102959,1,0,0:0:0:0:
64,192,103186,1,0,0:0:0:40:snare.wav
192,192,103186,1,0,0:0:0:0:
64,192,103413,1,0,0:0:0:40:snare.wav
192,192,103413,1,0,0:0:0:0:
448,192,103640,1,0,0:0:0:40:snare.wav
320,192,103754,1,0,0:0:0:40:snare.wav
64,192,103868,1,0,0:0:0:40:snare.wav
192,192,103981,1,0,0:0:0:40:snare.wav
320,192,104095,1,0,0:0:0:40:snare.wav
448,192,104095,1,0,0:0:0:0:
64,192,104209,1,0,0:0:0:40:snare.wav
448,192,104322,1,0,0:0:0:40:snare.wav
192,192,104436,1,0,0:0:0:40:snare.wav
320,192,104550,128,0,104777:0:0:0:0:
64,192,104777,128,0,105004:0:0:0:0:
320,192,105004,1,0,0:0:0:40:Tom1.wav
448,192,105004,1,0,0:0:0:0:
64,192,105231,1,0,0:0:0:40:Tom2.wav
192,192,105231,1,0,0:0:0:0:
64,192,105459,1,2,0:0:0:0:
320,192,105459,1,4,0:0:0:0:
448,192,105459,1,0,0:0:0:0:
320,192,105686,1,0,0:0:0:30:Hat Close.wav
64,192,105913,1,8,0:0:0:0:
192,192,105913,1,0,0:0:0:0:
192,192,106140,1,0,0:0:0:30:Hat Close.wav
320,192,106368,1,2,0:0:0:0:
448,192,106368,1,0,0:0:0:0:
64,192,106595,128,0,106822:0:0:0:30:Hat Close.wav
192,192,106822,1,8,0:0:0:0:
448,192,106822,128,0,107050:0:0:0:0:
320,192,107050,128,0,107277:0:0:0:30:Hat Close.wav
64,192,107277,1,2,0:0:0:0:
192,192,107277,1,0,0:0:0:0:
448,192,107504,1,0,0:0:0:30:Hat Close.wav
64,192,107731,1,8,0:0:0:0:
192,192,107731,1,0,0:0:0:0:
320,192,107959,1,0,0:0:0:30:Hat Close.wav
192,192,108186,1,2,0:0:0:0:
448,192,108186,1,0,0:0:0:0:
64,192,108413,128,0,108640:0:0:0:30:Hat Close.wav
320,192,108640,128,8,108868:0:0:0:0:
448,192,108640,1,0,0:0:0:0:
192,192,108868,128,0,109322:0:0:0:30:Hat Close.wav
64,192,109095,1,2,0:0:0:0:
448,192,109095,1,0,0:0:0:0:
320,192,109322,128,0,109550:0:0:0:30:Hat Close.wav
64,192,109550,128,8,109777:0:0:0:0:
192,192,109550,1,0,0:0:0:0:
448,192,109777,128,0,110004:0:0:0:30:Hat Close.wav
192,192,110004,128,2,110231:0:0:0:0:
320,192,110004,1,0,0:0:0:0:
64,192,110231,1,0,0:0:0:30:Hat Close.wav
320,192,110459,1,8,0:0:0:0:
448,192,110459,128,0,110686:0:0:0:0:
64,192,110686,128,0,111368:0:0:0:30:Hat Close.wav
192,192,110913,1,2,0:0:0:0:
320,192,110913,1,0,0:0:0:0:
448,192,111140,128,0,111368:0:0:0:30:Hat Close.wav
192,192,111368,128,8,111595:0:0:0:0:
320,192,111368,1,0,0:0:0:0:
448,192,111595,128,0,111822:0:0:0:30:Hat Close.wav
64,192,111822,1,2,0:0:0:0:
320,192,111822,1,0,0:0:0:0:
192,192,112050,128,0,112277:0:0:0:30:Hat Close.wav
64,192,112277,128,8,112504:0:0:0:0:
448,192,112277,1,0,0:0:0:0:
320,192,112504,128,0,112731:0:0:0:30:Hat Close.wav
64,192,112731,1,2,0:0:0:0:
192,192,112731,1,4,0:0:0:0:
448,192,112731,1,0,0:0:0:0:
192,192,112959,1,0,0:0:0:30:Hat Close.wav
64,192,113186,1,8,0:0:0:0:
448,192,113186,1,0,0:0:0:0:
320,192,113413,1,0,0:0:0:30:Hat Close.wav
64,192,113640,1,2,0:0:0:0:
192,192,113640,1,0,0:0:0:0:
448,192,113868,128,0,114095:0:0:0:30:Hat Close.wav
64,192,114095,128,8,114322:0:0:0:0:
320,192,114095,1,0,0:0:0:0:
192,192,114322,128,0,114550:0:0:0:30:Hat Close.wav
320,192,114550,1,2,0:0:0:0:
448,192,114550,1,0,0:0:0:0:
192,192,114777,1,0,0:0:0:30:Hat Close.wav
64,192,115004,1,8,0:0:0:0:
448,192,115004,1,0,0:0:0:0:
320,192,115231,1,0,0:0:0:30:Hat Close.wav
64,192,115459,1,2,0:0:0:0:
192,192,115459,1,0,0:0:0:0:
448,192,115686,128,0,115913:0:0:0:30:Hat Close.wav
64,192,115913,128,8,116140:0:0:0:0:
320,192,115913,1,0,0:0:0:0:
192,192,116140,128,0,116368:0:0:0:30:Hat Close.wav
320,192,116368,1,2,0:0:0:0:
448,192,116368,1,0,0:0:0:0:
320,192,116595,128,0,116822:0:0:0:30:Hat Close.wav
64,192,116822,128,8,117050:0:0:0:0:
192,192,116822,1,0,0:0:0:0:
448,192,117050,128,0,117277:0:0:0:30:Hat Close.wav
64,192,117277,1,2,0:0:0:0:
320,192,117277,1,0,0:0:0:0:
192,192,117504,128,0,117731:0:0:0:30:Hat Close.wav
64,192,117731,1,8,0:0:0:0:
448,192,117731,1,0,0:0:0:0:
192,192,117959,128,0,118186:0:0:0:30:Hat Close.wav
320,192,118186,1,2,0:0:0:0:
448,192,118186,1,0,0:0:0:0:
64,192,118300,1,0,0:0:0:40:snare.wav
192,192,118413,1,0,0:0:0:40:snare.wav
448,192,118527,1,0,0:0:0:40:snare.wav
64,192,118640,1,8,0:0:0:0:
320,192,118640,1,0,0:0:0:40:snare.wav
192,192,118868,1,0,0:0:0:40:snare.wav
320,192,119095,1,2,0:0:0:0:
448,192,119095,1,0,0:0:0:0:
64,192,119209,1,0,0:0:0:0:
448,192,119322,1,0,0:0:0:0:
64,192,119436,1,0,0:0:0:0:
320,192,119550,128,8,119777:0:0:0:0:
448,192,119550,1,0,0:0:0:0:
192,192,119777,128,0,120004:0:0:0:0:
64,192,120004,1,2,0:0:0:0:
320,192,120004,1,4,0:0:0:0:
448,192,120004,1,0,0:0:0:0:
192,192,120231,1,0,0:0:0:30:Hat Close.wav
64,192,120459,1,8,0:0:0:0:
320,192,120459,1,0,0:0:0:0:
448,192,120686,1,0,0:0:0:30:Hat Close.wav
64,192,120913,1,2,0:0:0:0:
192,192,120913,1,0,0:0:0:30:Hat Close.wav
320,192,121140,128,0,121368:0:0:0:30:Hat Close.wav
64,192,121368,128,8,121595:0:0:0:0:
448,192,121368,1,0,0:0:0:0:
192,192,121595,128,0,121822:0:0:0:30:Hat Close.wav
320,192,121822,1,2,0:0:0:0:
448,192,121822,1,0,0:0:0:30:Hat Close.wav
192,192,122050,1,0,0:0:0:30:Hat Close.wav
64,192,122277,128,8,122504:0:0:0:0:
448,192,122277,128,0,122504:0:0:0:0:
320,192,122504,1,0,0:0:0:30:Hat Close.wav
192,192,122731,128,2,122959:0:0:0:0:
320,192,122731,128,0,122959:0:0:0:30:Hat Close.wav
64,192,122959,1,0,0:0:0:30:Hat Close.wav
64,192,123186,128,8,123413:0:0:0:0:
448,192,123186,128,0,123413:0:0:0:0:
192,192,123413,1,0,0:0:0:30:Hat Close.wav
320,192,123640,1,2,0:0:0:0:
448,192,123640,1,0,0:0:0:30:Hat Close.wav
192,192,123868,1,0,0:0:0:30:Hat Close.wav
64,192,124095,1,8,0:0:0:0:
448,192,124095,1,0,0:0:0:0:
320,192,124322,1,0,0:0:0:30:Hat Close.wav
64,192,124550,1,2,0:0:0:0:
192,192,124550,1,0,0:0:0:30:Hat Close.wav
448,192,124777,128,0,125004:0:0:0:30:Hat Close.wav
192,192,125004,128,8,125231:0:0:0:0:
320,192,125004,1,0,0:0:0:0:
64,192,125231,128,0,125459:0:0:0:30:Hat Close.wav
320,192,125459,1,2,0:0:0:0:
448,192,125459,1,0,0:0:0:30:Hat Close.wav
192,192,125572,1,0,0:0:0:40:snare.wav
320,192,125686,1,0,0:0:0:40:snare.wav
64,192,125800,1,0,0:0:0:40:snare.wav
192,192,125913,1,8,0:0:0:0:
448,192,125913,1,0,0:0:0:40:snare.wav
320,192,126140,1,0,0:0:0:40:snare.wav
64,192,126368,1,2,0:0:0:0:
192,192,126368,1,0,0:0:0:30:Hat Close.wav
448,192,126481,1,0,0:0:0:30:Hat Close.wav
64,192,126595,1,0,0:0:0:30:Hat Close.wav
448,192,126709,1,0,0:0:0:30:Hat Close.wav
64,192,126822,128,8,127050:0:0:0:0:
192,192,126822,1,0,0:0:0:30:Hat Close.wav
320,192,127050,1,0,0:0:0:30:Hat Close.wav
448,192,127050,128,0,127277:0:0:0:0:
64,192,127277,1,2,0:0:0:0:
192,192,127277,1,4,0:0:0:0:
320,192,127277,1,0,0:0:0:0:
192,192,127504,1,0,0:0:0:30:Hat Close.wav
320,192,127731,1,8,0:0:0:0:
448,192,127731,1,0,0:0:0:0:
192,192,127959,1,0,0:0:0:30:Hat Close.wav
64,192,128186,1,2,0:0:0:0:
448,192,128186,1,0,0:0:0:30:Hat Close.wav
320,192,128413,128,0,128640:0:0:0:30:Hat Close.wav
64,192,128640,1,8,0:0:0:0:
192,192,128640,128,0,128868:0:0:0:0:
448,192,128868,128,0,129095:0:0:0:30:Hat Close.wav
64,192,129095,1,2,0:0:0:0:
320,192,129095,1,0,0:0:0:30:Hat Close.wav
192,192,129322,1,0,0:0:0:30:Hat Close.wav
320,192,129550,128,8,129777:0:0:0:0:
448,192,129550,128,0,129777:0:0:0:0:
64,192,129777,1,0,0:0:0:30:Hat Close.wav
64,192,130004,128,2,130231:0:0:0:0:
192,192,130004,128,0,130231:0:0:0:30:Hat Close.wav
448,192,130231,1,0,0:0:0:30:Hat Close.wav
320,192,130459,128,8,130686:0:0:0:0:
448,192,130459,128,0,130686:0:0:0:0:
64,192,130686,1,0,0:0:0:30:Hat Close.wav
192,192,130913,1,2,0:0:0:0:
320,192,130913,1,0,0:0:0:30:Hat Close.wav
448,192,131140,1,0,0:0:0:30:Hat Close.wav
64,192,131368,1,8,0:0:0:0:
192,192,131368,1,0,0:0:0:0:
448,192,131595,1,0,0:0:0:30:Hat Close.wav
192,192,131822,1,2,0:0:0:0:
320,192,131822,1,0,0:0:0:30:Hat Close.wav
64,192,132050,128,0,132277:0:0:0:30:Hat Close.wav
320,192,132277,1,8,0:0:0:0:
448,192,132277,128,0,132504:0:0:0:0:
64,192,132504,1,2,0:0:0:0:
192,192,132504,128,0,132731:0:0:0:30:Hat Close.wav
320,192,132959,1,2,0:0:0:0:
448,192,132959,128,0,133186:0:0:0:0:
64,192,133186,128,0,133413:0:0:0:0:
192,192,133413,128,0,133640:0:0:0:0:
448,192,133640,1,0,0:0:0:0:
64,192,133754,1,0,0:0:0:0:
448,192,133868,1,0,0:0:0:0:
64,192,133981,1,0,0:0:0:0:
320,192,134095,128,0,134322:0:0:0:0:
448,192,134095,1,0,0:0:0:0:
64,192,134322,1,0,0:0:0:0:
192,192,134322,128,0,134550:0:0:0:0:
320,192,134550,1,2,0:0:0:0:
448,192,134550,1,0,0:0:0:0:
320,192,134777,1,2,0:0:0:0:
448,192,134777,1,0,0:0:0:0:
64,192,135004,128,0,135231:0:0:0:30:Hat Close.wav
320,192,135231,128,0,135686:0:0:0:0:
192,192,135459,128,0,135686:0:0:0:40:snare.wav
448,192,135459,1,0,0:0:0:0:
64,192,135686,1,2,0:0:0:0:
448,192,135686,1,0,0:0:0:0:
192,192,135913,1,0,0:0:0:30:Hat Close.wav
320,192,136140,128,2,136368:0:0:0:0:
448,192,136140,1,0,0:0:0:0:
64,192,136368,1,0,0:0:0:30:Hat Close.wav
64,192,136595,1,0,0:0:0:40:snare.wav
192,192,136595,128,0,136822:0:0:0:0:
320,192,136822,1,2,0:0:0:0:
448,192,136822,1,0,0:0:0:30:Hat Close.wav
64,192,137050,128,0,137277:0:0:0:0:
448,192,137277,128,0,137504:0:0:0:40:snare.wav
192,192,137504,1,2,0:0:0:0:
320,192,137504,128,0,137731:0:0:0:0:
64,192,137731,128,0,138186:0:0:0:30:Hat Close.wav
448,192,137959,128,0,138186:0:0:0:0:
192,192,138186,1,2,0:0:0:0:
320,192,138186,1,0,0:0:0:0:
192,192,138413,1,2,0:0:0:0:
320,192,138413,1,0,0:0:0:0:
448,192,138640,128,0,138868:0:0:0:30:Hat Close.wav
64,192,138868,128,0,139322:0:0:0:0:
192,192,139095,128,0,139322:0:0:0:40:snare.wav
320,192,139095,1,0,0:0:0:0:
320,192,139322,1,2,0:0:0:0:
448,192,139322,1,0,0:0:0:0:
64,192,139550,1,2,0:0:0:0:
192,192,139550,1,0,0:0:0:30:Hat Close.wav
320,192,139777,128,2,140004:0:0:0:0:
448,192,139777,1,0,0:0:0:0:
64,192,140004,1,0,0:0:0:30:Hat Close.wav
64,192,140231,1,0,0:0:0:40:snare.wav
192,192,140231,128,0,140686:0:0:0:0:
320,192,140459,1,2,0:0:0:0:
448,192,140459,1,0,0:0:0:30:Hat Close.wav
64,192,140686,128,0,140913:0:0:0:0:
448,192,140913,128,0,141140:0:0:0:40:snare.wav
192,192,141140,128,2,141368:0:0:0:0:
64,192,141368,1,0,0:0:0:40:snare.wav
320,192,141368,128,0,141595:0:0:0:0:
448,192,141595,1,0,0:0:0:40:snare.wav
64,192,141709,1,0,0:0:0:40:snare.wav
320,192,141822,1,2,0:0:0:0:
448,192,141822,1,0,0:0:0:0:
64,192,142050,1,2,0:0:0:0:
192,192,142050,1,0,0:0:0:0:
320,192,142277,128,0,142504:0:0:0:0:
192,192,142504,128,0,143186:0:0:0:0:
64,192,142731,128,0,143186:0:0:0:0:
320,192,143186,128,0,143640:0:0:0:0:
64,192,143413,1,2,0:0:0:0:
448,192,143413,1,0,0:0:0:0:
192,192,143640,1,0,0:0:0:30:Hat Close.wav
320,192,143868,1,0,0:0:0:40:snare.wav
448,192,143868,1,0,0:0:0:0:
64,192,144095,1,2,0:0:0:0:
192,192,144095,1,0,0:0:0:30:Hat Close.wav
320,192,144209,1,0,0:0:0:30:Hat Close.wav
64,192,144379,1,0,0:0:0:30:Hat Close.wav
320,192,144550,1,0,0:0:0:40:snare.wav
448,192,144550,1,0,0:0:0:0:
192,192,144701,1,0,0:0:0:40:snare.wav
64,192,144853,1,0,0:0:0:40:snare.wav
320,192,145004,1,0,0:0:0:40:snare.wav
192,192,145156,1,0,0:0:0:40:snare.wav
448,192,145307,1,0,0:0:0:40:snare.wav
64,192,145459,1,2,0:0:0:0:
192,192,145459,1,0,0:0:0:40:snare.wav
320,192,145459,1,0,0:0:0:0:
64,192,145686,1,0,0:0:0:0:
320,192,145800,1,0,0:0:0:40:snare.wav
448,192,145800,1,0,0:0:0:0:
64,192,145913,1,2,0:0:0:0:
192,192,145913,1,0,0:0:0:0:
320,192,146140,1,0,0:0:0:40:snare.wav
192,192,146254,1,0,0:0:0:40:snare.wav
64,192,146368,1,2,0:0:0:0:
448,192,146368,1,0,0:0:0:40:snare.wav
192,192,146595,1,0,0:0:0:0:
320,192,146709,1,2,0:0:0:0:
448,192,146709,1,0,0:0:0:40:snare.wav
64,192,147050,1,2,0:0:0:0:
192,192,147050,1,0,0:0:0:40:snare.wav
320,192,147163,1,0,0:0:0:40:snare.wav
64,192,147277,1,2,0:0:0:0:
448,192,147277,1,0,0:0:0:40:snare.wav
192,192,147504,1,0,0:0:0:40:snare.wav
320,192,147731,1,2,0:0:0:0:
448,192,147731,1,0,0:0:0:40:snare.wav
64,192,147959,1,0,0:0:0:40:snare.wav
448,192,148072,1,0,0:0:0:40:snare.wav
192,192,148186,1,2,0:0:0:0:
320,192,148300,1,0,0:0:0:40:snare.wav
64,192,148413,1,0,0:0:0:40:snare.wav
320,192,148527,1,2,0:0:0:0:
448,192,148527,1,0,0:0:0:40:snare.wav
192,192,148640,1,0,0:0:0:40:snare.wav
448,192,148754,1,0,0:0:0:40:snare.wav
64,192,148868,1,2,0:0:0:0:
192,192,148868,1,0,0:0:0:40:snare.wav
320,192,148981,1,0,0:0:0:40:snare.wav
448,192,149095,1,0,0:0:0:0:
64,192,149550,128,0,149890:0:0:0:0:
192,192,150004,128,0,150231:0:0:0:0:
448,192,150004,128,0,150459:0:0:0:0:
320,192,150231,128,0,150459:0:0:0:0:
64,192,150459,128,0,150913:0:0:0:0:
192,192,150459,128,0,150686:0:0:0:0:
448,192,150686,128,0,150913:0:0:0:0:
192,192,150913,1,2,0:0:0:0:
320,192,150913,1,4,0:0:0:0:
320,192,151140,1,0,0:0:0:30:Hat Close.wav
64,192,151368,1,8,0:0:0:0:
192,192,151368,1,0,0:0:0:0:
64,192,151595,1,0,0:0:0:30:Hat Close.wav
320,192,151822,1,2,0:0:0:0:
448,192,151822,1,0,0:0:0:0:
192,192,152050,128,0,152277:0:0:0:30:Hat Close.wav
64,192,152277,1,8,0:0:0:0:
448,192,152277,128,0,152504:0:0:0:0:
320,192,152504,128,0,152731:0:0:0:30:Hat Close.wav
64,192,152731,1,2,0:0:0:0:
192,192,152731,1,0,0:0:0:0:
448,192,152959,1,0,0:0:0:30:Hat Close.wav
192,192,153186,1,8,0:0:0:0:
320,192,153186,1,0,0:0:0:0:
64,192,153413,1,0,0:0:0:30:Hat Close.wav
320,192,153640,1,2,0:0:0:0:
448,192,153640,1,0,0:0:0:0:
192,192,153868,128,0,154095:0:0:0:30:Hat Close.wav
64,192,154095,128,8,154322:0:0:0:0:
448,192,154095,1,0,0:0:0:0:
320,192,154322,128,0,154777:0:0:0:30:Hat Close.wav
64,192,154550,1,2,0:0:0:0:
192,192,154550,1,0,0:0:0:0:
448,192,154777,128,0,155004:0:0:0:30:Hat Close.wav
64,192,155004,128,8,155231:0:0:0:0:
192,192,155004,1,0,0:0:0:0:
320,192,155231,128,0,155459:0:0:0:30:Hat Close.wav
192,192,155459,128,2,155686:0:0:0:0:
448,192,155459,1,0,0:0:0:0:
64,192,155686,1,0,0:0:0:30:Hat Close.wav
320,192,155913,128,8,156140:0:0:0:0:
448,192,155913,1,0,0:0:0:0:
192,192,156140,128,0,156822:0:0:0:30:Hat Close.wav
64,192,156368,1,2,0:0:0:0:
448,192,156368,1,0,0:0:0:0:
320,192,156595,128,0,156822:0:0:0:30:Hat Close.wav
64,192,156822,128,8,157050:0:0:0:0:
448,192,156822,1,0,0:0:0:0:
448,192,157050,128,0,157277:0:0:0:30:Hat Close.wav
192,192,157277,1,2,0:0:0:0:
320,192,157277,1,0,0:0:0:0:
64,192,157504,128,0,157731:0:0:0:30:Hat Close.wav
192,192,157731,128,8,157959:0:0:0:0:
448,192,157731,1,0,0:0:0:0:
320,192,157959,128,0,158186:0:0:0:30:Hat Close.wav
64,192,158186,1,2,0:0:0:0:
192,192,158186,1,4,0:0:0:0:
448,192,158186,1,0,0:0:0:0:
192,192,158413,1,0,0:0:0:30:Hat Close.wav
320,192,158640,1,8,0:0:0:0:
448,192,158640,1,0,0:0:0:0:
192,192,158868,1,0,0:0:0:30:Hat Close.wav
64,192,159095,1,2,0:0:0:0:
448,192,159095,1,0,0:0:0:0:
320,192,159322,128,0,159550:0:0:0:30:Hat Close.wav
64,192,159550,128,8,159777:0:0:0:0:
192,192,159550,1,0,0:0:0:0:
448,192,159777,128,0,160004:0:0:0:30:Hat Close.wav
64,192,160004,1,2,0:0:0:0:
320,192,160004,1,0,0:0:0:0:
192,192,160231,1,0,0:0:0:30:Hat Close.wav
320,192,160459,1,8,0:0:0:0:
448,192,160459,1,0,0:0:0:0:
64,192,160686,1,0,0:0:0:30:Hat Close.wav
192,192,160913,1,2,0:0:0:0:
320,192,160913,1,0,0:0:0:0:
448,192,161140,128,0,161368:0:0:0:30:Hat Close.wav
64,192,161368,1,8,0:0:0:0:
192,192,161368,1,0,0:0:0:0:
320,192,161595,128,0,161822:0:0:0:30:Hat Close.wav
64,192,161822,1,2,0:0:0:0:
448,192,161822,1,0,0:0:0:0:
64,192,162050,128,0,162277:0:0:0:30:Hat Close.wav
320,192,162277,128,8,162504:0:0:0:0:
448,192,162277,1,0,0:0:0:0:
192,192,162504,128,0,162731:0:0:0:30:Hat Close.wav
64,192,162731,1,2,0:0:0:0:
448,192,162731,1,0,0:0:0:40:snare.wav
320,192,162845,1,0,0:0:0:40:snare.wav
64,192,162959,1,0,0:0:0:40:snare.wav
192,192,163072,1,0,0:0:0:40:snare.wav
320,192,163186,1,8,0:0:0:0:
448,192,163186,1,0,0:0:0:40:snare.wav
64,192,163413,128,0,164550:0:0:0:0:
192,192,163868,128,0,164095:0:0:0:0:
448,192,164095,128,0,164322:0:0:0:0:
192,192,164322,128,0,164550:0:0:0:0:
320,192,164550,1,0,0:0:0:40:Tom3.wav
448,192,164550,1,0,0:0:0:0:
320,192,164777,1,0,0:0:0:40:Tom3.wav
448,192,164777,1,0,0:0:0:0:
64,192,165004,1,0,0:0:0:40:Tom3.wav
192,192,165004,1,0,0:0:0:0:
64,192,165231,1,0,0:0:0:40:Tom3.wav
192,192,165231,1,0,0:0:0:0:
64,192,165459,1,2,0:0:0:0:
320,192,165459,1,4,0:0:0:0:
448,192,165459,1,0,0:0:0:0:
192,192,165686,1,0,0:0:0:30:Hat Close.wav
320,192,165913,1,8,0:0:0:0:
448,192,165913,1,0,0:0:0:0:
192,192,166140,1,0,0:0:0:30:Hat Close.wav
64,192,166368,1,2,0:0:0:0:
448,192,166368,1,0,0:0:0:30:Hat Close.wav
320,192,166595,128,0,166822:0:0:0:30:Hat Close.wav
64,192,166822,128,8,167050:0:0:0:0:
192,192,166822,1,0,0:0:0:0:
448,192,167050,128,0,167277:0:0:0:30:Hat Close.wav
192,192,167277,1,2,0:0:0:0:
320,192,167277,1,0,0:0:0:30:Hat Close.wav
64,192,167504,1,0,0:0:0:30:Hat Close.wav
320,192,167731,128,8,167959:0:0:0:0:
448,192,167731,128,0,167959:0:0:0:0:
192,192,167959,1,0,0:0:0:30:Hat Close.wav
64,192,168186,128,2,168413:0:0:0:0:
192,192,168186,128,0,168413:0:0:0:30:Hat Close.wav
320,192,168413,1,0,0:0:0:30:Hat Close.wav
320,192,168640,128,8,168868:0:0:0:0:
448,192,168640,128,0,168868:0:0:0:0:
192,192,168868,1,0,0:0:0:30:Hat Close.wav
64,192,169095,1,2,0:0:0:0:
448,192,169095,1,0,0:0:0:30:Hat Close.wav
192,192,169322,1,0,0:0:0:30:Hat Close.wav
320,192,169550,1,8,0:0:0:0:
448,192,169550,1,0,0:0:0:0:
64,192,169777,1,0,0:0:0:30:Hat Close.wav
192,192,170004,1,2,0:0:0:0:
320,192,170004,1,0,0:0:0:30:Hat Close.wav
448,192,170231,128,0,170459:0:0:0:30:Hat Close.wav
64,192,170459,1,8,0:0:0:0:
192,192,170459,128,0,170686:0:0:0:0:
320,192,170686,128,0,170913:0:0:0:30:Hat Close.wav
64,192,170913,1,2,0:0:0:0:
448,192,170913,1,0,0:0:0:30:Hat Close.wav
192,192,171027,1,0,0:0:0:40:snare.wav
448,192,171140,1,0,0:0:0:40:snare.wav
320,192,171254,1,0,0:0:0:40:snare.wav
64,192,171368,1,8,0:0:0:0:
192,192,171368,1,0,0:0:0:40:snare.wav
192,192,171595,1,0,0:0:0:40:snare.wav
320,192,171822,1,2,0:0:0:0:
448,192,171822,1,0,0:0:0:30:Hat Close.wav
64,192,171936,1,0,0:0:0:30:Hat Close.wav
448,192,172050,1,0,0:0:0:30:Hat Close.wav
64,192,172163,1,0,0:0:0:30:Hat Close.wav
320,192,172277,128,8,172504:0:0:0:0:
448,192,172277,1,0,0:0:0:30:Hat Close.wav
64,192,172504,1,0,0:0:0:30:Hat Close.wav
192,192,172504,128,0,172731:0:0:0:0:
64,192,172731,1,2,0:0:0:0:
320,192,172731,1,4,0:0:0:0:
448,192,172731,1,0,0:0:0:0:
192,192,172959,1,0,0:0:0:30:Hat Close.wav
320,192,173186,1,8,0:0:0:0:
448,192,173186,1,0,0:0:0:0:
192,192,173413,1,0,0:0:0:30:Hat Close.wav
64,192,173640,1,2,0:0:0:0:
448,192,173640,1,0,0:0:0:30:Hat Close.wav
320,192,173868,128,0,174095:0:0:0:30:Hat Close.wav
64,192,174095,1,8,0:0:0:0:
192,192,174095,128,0,174322:0:0:0:0:
448,192,174322,128,0,174550:0:0:0:30:Hat Close.wav
64,192,174550,1,2,0:0:0:0:
320,192,174550,1,0,0:0:0:30:Hat Close.wav
192,192,174777,1,0,0:0:0:30:Hat Close.wav
320,192,175004,128,8,175231:0:0:0:0:
448,192,175004,128,0,175231:0:0:0:0:
64,192,175231,1,0,0:0:0:30:Hat Close.wav
64,192,175459,128,2,175686:0:0:0:0:
192,192,175459,128,0,175686:0:0:0:30:Hat Close.wav
448,192,175686,1,0,0:0:0:30:Hat Close.wav
320,192,175913,128,8,176140:0:0:0:0:
448,192,175913,128,0,176140:0:0:0:0:
64,192,176140,1,0,0:0:0:30:Hat Close.wav
192,192,176368,1,2,0:0:0:0:
320,192,176368,1,0,0:0:0:30:Hat Close.wav
448,192,176595,1,0,0:0:0:30:Hat Close.wav
64,192,176822,1,8,0:0:0:0:
192,192,176822,1,0,0:0:0:0:
320,192,177050,1,0,0:0:0:30:Hat Close.wav
64,192,177277,1,2,0:0:0:0:
448,192,177277,1,0,0:0:0:30:Hat Close.wav
192,192,177504,128,0,177731:0:0:0:30:Hat Close.wav
320,192,177731,128,8,177959:0:0:0:0:
448,192,177731,1,0,0:0:0:0:
64,192,177959,128,2,178186:0:0:0:0:
192,192,177959,1,0,0:0:0:30:Hat Close.wav
192,192,178413,1,2,0:0:0:0:
448,192,178413,128,0,178640:0:0:0:0:
64,192,178640,128,0,178868:0:0:0:0:
320,192,178868,128,0,179095:0:0:0:0:
448,192,179095,1,0,0:0:0:0:
64,192,179209,1,0,0:0:0:0:
448,192,179322,1,0,0:0:0:0:
64,192,179436,1,0,0:0:0:0:
320,192,179550,1,0,0:0:0:0:
448,192,179550,128,0,179777:0:0:0:0:
64,192,179777,128,0,180231:0:0:0:0:
192,192,179777,1,0,0:0:0:0:
