osu file format v14

[General]
AudioFilename: audio.mp3
AudioLeadIn: 0
PreviewTime: 62017
Countdown: 0
SampleSet: Soft
StackLeniency: 0.7
Mode: 3
LetterboxInBreaks: 0
SpecialStyle: 0
WidescreenStoryboard: 1

[Editor]
Bookmarks: 5899,17370,28664,42781,53899,62370,87958
DistanceSpacing: 1.3
BeatDivisor: 4
GridSize: 4
TimelineZoom: 0.5999998

[Metadata]
Title:ne! ne! ne! (TV Size)
TitleUnicode:ne! ne! ne! (TV Size)
Artist:STARTails*
ArtistUnicode:STARTails☆
Creator:dudehacker
Version:EZ
Source:スロウスタート
Tags:slow start opening 近藤玲奈 伊藤彩沙 嶺内ともみ 長縄まりあ 一之瀬花名 百地たまて 十倉栄依子 千石冠 sengoku kamuri momochi tamate ichinose hana tokura eiko naganawa maria itou ayasa kondou reina minuechi tomomi arcwinolivirus
BeatmapID:1664368
BeatmapSetID:792380

[Difficulty]
HPDrainRate:6.5
CircleSize:7
OverallDifficulty:7
ApproachRate:8.7
SliderMultiplier:1.7
SliderTickRate:1

[Events]
//Background and Video events
0,0,"67804973_p0.jpg",0,0
Video,-608,"op.avi"
//Break Periods
//Storyboard Layer 0 (Background)
//Storyboard Layer 1 (Fail)
//Storyboard Layer 2 (Pass)
//Storyboard Layer 3 (Foreground)
//Storyboard Sound Samples
Sample,429,0,"CrashRight.wav",70
Sample,781,0,"LR_Clap Fast Low.wav",70
Sample,1311,0,"LR_Clap Fast Low.wav",70
Sample,1487,0,"LR_Clap Fast Low.wav",70
Sample,2193,0,"LR_Clap Fast Low.wav",70
Sample,2723,0,"LR_Clap Fast Low.wav",70
Sample,2899,0,"LR_Clap Fast Low.wav",70
Sample,3605,0,"LR_Clap Fast Low.wav",70
Sample,4134,0,"LR_Clap Fast Low.wav",70
Sample,4311,0,"LR_Clap Fast Low.wav",70
Sample,5017,0,"CrashLeft.wav",70
Sample,5017,0,"LR_Clap Fast Low.wav",70
Sample,5546,0,"LR_Clap Fast Low.wav",70
Sample,5723,0,"LR_Clap Fast Low.wav",70
Sample,5899,0,"CrashRight.wav",70
Sample,8723,0,"CrashRight.wav",70
Sample,10134,0,"CrashRight.wav",70
Sample,11546,0,"CrashRight.wav",70
Sample,12958,0,"CrashLeft.wav",70
Sample,14546,0,"CrashLeft.wav",70
Sample,14899,0,"LR_Clap Fast Low.wav",70
Sample,15428,0,"LR_Clap Fast Low.wav",70
Sample,15605,0,"LR_Clap Fast Low.wav",70
Sample,16311,0,"LR_Clap Fast Low.wav",70
Sample,41017,0,"LR_Clap Fast Low.wav",70
Sample,42076,0,"Tom1.wav",70
Sample,42428,0,"LR_Clap Fast Low.wav",70
Sample,42781,0,"CrashRight.wav",70
Sample,52487,0,"CrashRight.wav",70
Sample,53899,0,"CrashRight.wav",70
Sample,55311,0,"CrashRight.wav",70
Sample,56370,0,"LR_Clap Fast Low.wav",70
Sample,56546,0,"LR_Clap Fast Low.wav",70
Sample,56723,0,"CrashRight.wav",70
Sample,57958,0,"Tom1.wav",70
Sample,58134,0,"CrashRight.wav",70
Sample,62370,0,"CrashRight.wav",70
Sample,63781,0,"CrashLeft.wav",70
Sample,68017,0,"CrashRight.wav",70
Sample,68723,0,"CrashLeft.wav",70
Sample,69428,0,"CrashRight.wav",70
Sample,70134,0,"CrashLeft.wav",70
Sample,72252,0,"CrashRight.wav",70
Sample,73664,0,"CrashRight.wav",70
Sample,75076,0,"CrashLeft.wav",70
Sample,77899,0,"CrashRight.wav",70
Sample,79487,0,"CrashLeft.wav",70
Sample,80723,0,"CrashRight.wav",70
Sample,82664,0,"LR_Clap Fast Low.wav",70
Sample,83193,0,"LR_Clap Fast Low.wav",70
Sample,84076,0,"LR_Clap Fast Low.wav",70
Sample,84605,0,"LR_Clap Fast Low.wav",70
Sample,85487,0,"LR_Clap Fast Low.wav",70
Sample,86017,0,"LR_Clap Fast Low.wav",70

[TimingPoints]
429,352.941176470588,4,2,1,60,1,0
5899,-100,4,2,1,70,0,0
17370,-100,4,2,1,50,0,0
28664,-100,4,2,1,60,0,0
42781,-100,4,2,1,40,0,0
53899,-100,4,2,1,60,0,0
62370,-100,4,2,1,70,0,1
86370,-100,4,2,1,50,0,0

[HitObjects]
182,192,429,5,2,0:0:0:0:
475,192,781,1,12,0:0:0:0:
329,192,1134,1,12,0:0:0:0:
109,192,1311,1,2,0:0:0:0:
329,192,1487,1,12,0:0:0:0:
109,192,1664,1,2,0:0:0:0:
402,192,1840,1,12,0:0:0:0:
182,192,2017,1,2,0:0:0:0:
402,192,2193,1,12,0:0:0:0:
256,192,2546,1,14,0:0:0:0:
182,192,2723,1,2,0:0:0:0:
182,192,2899,1,12,0:0:0:0:
329,192,3252,1,12,0:0:0:0:
36,192,3605,1,12,0:0:0:0:
182,192,3958,1,14,0:0:0:0:
402,192,4134,1,2,0:0:0:0:
182,192,4311,1,12,0:0:0:0:
402,192,4487,1,2,0:0:0:0:
109,192,4664,1,12,0:0:0:0:
329,192,4840,1,2,0:0:0:0:
109,192,5017,1,8,0:0:0:0:
256,192,5370,1,2,0:0:0:0:
329,192,5546,1,8,0:0:0:0:
402,192,5723,1,8,0:0:0:0:
475,192,5899,128,2,7840:0:0:0:0:
182,192,7840,128,12,8193:0:0:0:0:
329,192,8193,128,6,8546:0:0:0:0:
36,192,8546,1,12,0:0:0:0:
109,192,8723,128,2,9605:0:0:0:0:
329,192,9605,1,6,0:0:0:0:
475,192,9781,1,2,0:0:0:0:
256,192,10134,128,2,10487:0:0:0:0:
182,192,10487,1,2,0:0:0:0:
109,192,10664,1,12,0:0:0:0:
36,192,10840,128,0,11546:0:0:0:0:
329,192,11546,128,2,12076:0:0:0:0:
402,192,12076,128,12,12428:0:0:0:0:
36,192,12428,1,6,0:0:0:0:
182,192,12605,1,2,0:0:0:0:
475,192,12958,128,2,13311:0:0:0:0:
182,192,13311,1,2,0:0:0:0:
402,192,13664,1,2,0:0:0:0:
36,192,14017,128,0,14546:0:0:0:0:
329,192,14546,1,8,0:0:0:0:
329,192,14899,1,12,0:0:0:0:
329,192,15252,1,12,0:0:0:0:
182,192,15428,1,2,0:0:0:0:
329,192,15605,1,12,0:0:0:0:
36,192,15781,1,2,0:0:0:0:
475,192,15781,1,0,0:0:0:70:CrashRight.wav
182,192,16134,1,2,0:0:0:0:
182,192,16311,1,8,0:0:0:0:
36,192,16487,1,2,0:0:0:0:
475,192,16487,1,0,0:0:0:70:CrashLeft.wav
256,192,16840,1,0,0:0:0:70:LR_Clap Fast Low.wav
256,192,17017,1,0,0:0:0:70:LR_Clap Fast Low.wav
182,192,17370,1,2,0:0:0:0:
475,192,17370,1,0,0:0:0:70:CrashRight.wav
329,192,17723,1,2,0:0:0:0:
182,192,18076,1,2,0:0:0:0:
329,192,18428,1,2,0:0:0:0:
109,192,18781,1,2,0:0:0:0:
402,192,19134,1,2,0:0:0:0:
109,192,19487,1,2,0:0:0:0:
402,192,19840,1,2,0:0:0:0:
182,192,20193,128,2,20899:0:0:0:0:
402,192,20899,128,2,21428:0:0:0:0:
256,192,21428,1,4,0:0:0:0:
109,192,21781,1,0,0:0:0:0:
182,192,21958,1,2,0:0:0:0:
329,192,22311,1,6,0:0:0:0:
36,192,22664,1,6,0:0:0:0:
182,192,23017,1,2,0:0:0:0:
475,192,23017,1,0,0:0:0:70:CrashRight.wav
329,192,23370,1,2,0:0:0:0:
182,192,23723,1,2,0:0:0:0:
329,192,24076,1,2,0:0:0:0:
109,192,24428,1,2,0:0:0:0:
402,192,24781,1,2,0:0:0:0:
109,192,25134,1,2,0:0:0:0:
402,192,25487,1,2,0:0:0:0:
182,192,25840,128,2,26370:0:0:0:0:
402,192,26370,1,0,0:0:0:0:
256,192,26546,1,2,0:0:0:0:
475,192,26899,1,2,0:0:0:0:
182,192,27076,1,2,0:0:0:0:
329,192,27076,1,4,0:0:0:0:
182,192,27428,1,2,0:0:0:0:
36,192,27605,1,8,0:0:0:0:
329,192,27605,1,0,0:0:0:70:CrashRight.wav
109,192,27958,1,0,0:0:0:70:Tom1.wav
402,192,28134,1,0,0:0:0:70:Tom2.wav
109,192,28311,1,0,0:0:0:0:
402,192,28487,1,0,0:0:0:0:
182,192,28664,1,2,0:0:0:0:
475,192,28664,1,0,0:0:0:70:CrashLeft.wav
256,192,29017,1,8,0:0:0:0:
182,192,29370,1,2,0:0:0:0:
182,192,29546,1,2,0:0:0:0:
475,192,29723,1,8,0:0:0:0:
329,192,29899,1,2,0:0:0:0:
182,192,30252,1,2,0:0:0:0:
475,192,30428,1,8,0:0:0:0:
329,192,30781,1,2,0:0:0:0:
329,192,30958,1,2,0:0:0:0:
36,192,31134,1,8,0:0:0:0:
182,192,31487,128,2,32193:0:0:0:0:
402,192,32193,128,2,32723:0:0:0:0:
256,192,32723,1,2,0:0:0:0:
36,192,33076,1,2,0:0:0:0:
182,192,33252,1,8,0:0:0:0:
475,192,33605,1,2,0:0:0:0:
329,192,33958,1,8,0:0:0:0:
36,192,34311,1,2,0:0:0:0:
475,192,34311,1,0,0:0:0:70:CrashRight.wav
256,192,34664,1,8,0:0:0:0:
109,192,35017,1,2,0:0:0:0:
109,192,35193,1,2,0:0:0:0:
329,192,35370,1,8,0:0:0:0:
182,192,35546,1,2,0:0:0:0:
402,192,35546,1,0,0:0:0:70:CrashRight.wav
402,192,35899,1,2,0:0:0:0:
256,192,36076,1,8,0:0:0:0:
329,192,36428,1,2,0:0:0:0:
329,192,36605,1,2,0:0:0:0:
109,192,36781,1,8,0:0:0:0:
36,192,37134,128,2,37840:0:0:0:0:
329,192,37840,1,2,0:0:0:0:
402,192,38017,1,2,0:0:0:0:
475,192,38193,1,8,0:0:0:0:
36,192,38370,1,2,0:0:0:0:
256,192,38370,1,0,0:0:0:70:CrashRight.wav
109,192,38723,1,2,0:0:0:0:
402,192,39252,1,2,0:0:0:0:
329,192,39428,1,8,0:0:0:0:
256,192,39605,1,8,0:0:0:0:
182,192,39781,1,2,0:0:0:0:
109,192,39958,1,8,0:0:0:0:
475,192,39958,1,0,0:0:0:70:CrashRight.wav
36,192,40311,1,12,0:0:0:0:
329,192,40311,1,0,0:0:0:70:LR_Clap Fast Low.wav
256,192,40664,1,14,0:0:0:0:
182,192,41017,1,12,0:0:0:0:
329,192,41193,1,2,0:0:0:0:
475,192,41193,1,0,0:0:0:70:CrashRight.wav
182,192,41546,1,2,0:0:0:0:
402,192,41899,1,0,0:0:0:0:
36,192,42076,1,2,0:0:0:0:
402,192,42252,1,0,0:0:0:70:LR_Clap Fast Low.wav
36,192,42428,1,0,0:0:0:70:Tom2.wav
182,192,42781,1,2,0:0:0:0:
475,192,42781,1,0,0:0:0:70:Tom3.wav
256,192,43134,1,0,0:0:0:30:HHClose.wav
182,192,43487,1,2,0:0:0:0:
329,192,43840,1,8,0:0:0:0:
182,192,44193,1,2,0:0:0:0:
256,192,44546,1,0,0:0:0:30:HHClose.wav
182,192,44899,1,6,0:0:0:0:
329,192,45252,1,8,0:0:0:0:
36,192,45605,128,2,46311:0:0:0:0:
256,192,46311,1,6,0:0:0:0:
329,192,46664,1,8,0:0:0:0:
109,192,47017,1,2,0:0:0:0:
256,192,47370,1,0,0:0:0:30:HHClose.wav
182,192,47723,1,6,0:0:0:0:
36,192,48076,1,8,0:0:0:0:
475,192,48076,1,0,0:0:0:70:CrashLeft.wav
109,192,48428,1,2,0:0:0:0:
329,192,48428,1,0,0:0:0:70:CrashRight.wav
256,192,48781,1,0,0:0:0:30:HHClose.wav
329,192,49134,1,2,0:0:0:0:
182,192,49487,1,8,0:0:0:0:
329,192,49840,1,2,0:0:0:0:
256,192,50193,1,0,0:0:0:30:HHClose.wav
329,192,50546,1,6,0:0:0:0:
182,192,50899,1,8,0:0:0:0:
256,192,51252,1,2,0:0:0:0:
109,192,51958,1,2,0:0:0:0:
329,192,52311,1,8,0:0:0:0:
475,192,52487,1,2,0:0:0:0:
109,192,52840,1,2,0:0:0:0:
256,192,53017,1,8,0:0:0:0:
36,192,53546,1,8,0:0:0:0:
109,192,53723,1,8,0:0:0:0:
182,192,53899,1,2,0:0:0:0:
402,192,54252,1,2,0:0:0:0:
329,192,54428,1,8,0:0:0:0:
475,192,54781,1,8,0:0:0:0:
182,192,54958,1,0,0:0:0:70:LR_Clap Fast Low.wav
182,192,55134,1,0,0:0:0:70:LR_Clap Fast Low.wav
36,192,55311,1,2,0:0:0:0:
329,192,55664,1,2,0:0:0:0:
402,192,55840,1,8,0:0:0:0:
36,192,56193,1,8,0:0:0:0:
256,192,56370,1,2,0:0:0:0:
256,192,56546,1,8,0:0:0:0:
475,192,56723,1,2,0:0:0:0:
109,192,57076,1,2,0:0:0:0:
402,192,57252,1,12,0:0:0:0:
475,192,57605,1,12,0:0:0:0:
109,192,57781,1,2,0:0:0:0:
182,192,57958,1,12,0:0:0:0:
329,192,58134,1,0,0:0:0:70:Tom2.wav
36,192,58487,1,2,0:0:0:0:
109,192,58664,1,8,0:0:0:0:
329,192,59017,1,2,0:0:0:0:
402,192,59370,1,8,0:0:0:0:
256,192,59723,128,2,61134:0:0:0:0:
475,192,59723,1,0,0:0:0:70:CrashRight.wav
475,192,61134,128,0,61840:0:0:0:0:
36,192,62017,1,0,0:0:0:0:
109,192,62193,1,0,0:0:0:0:
182,192,62370,1,2,0:0:0:0:
182,192,62899,1,12,0:0:0:0:
329,192,63252,1,6,0:0:0:0:
109,192,63605,1,12,0:0:0:0:
256,192,63781,1,2,0:0:0:0:
329,192,64134,1,2,0:0:0:0:
402,192,64311,1,12,0:0:0:0:
475,192,64487,1,0,0:0:0:0:
36,192,64840,1,2,0:0:0:0:
109,192,65017,1,12,0:0:0:0:
182,192,65193,1,2,0:0:0:0:
182,192,65723,1,12,0:0:0:0:
329,192,66076,1,6,0:0:0:0:
109,192,66428,1,12,0:0:0:0:
256,192,66605,1,2,0:0:0:0:
475,192,66958,1,2,0:0:0:0:
402,192,67134,1,12,0:0:0:0:
329,192,67311,1,2,0:0:0:0:
256,192,67840,1,12,0:0:0:0:
402,192,68017,1,2,0:0:0:0:
36,192,68370,1,2,0:0:0:0:
109,192,68546,1,8,0:0:0:0:
182,192,68723,1,2,0:0:0:0:
329,192,69076,1,2,0:0:0:0:
402,192,69252,1,8,0:0:0:0:
475,192,69428,128,2,69958:0:0:0:0:
36,192,69958,1,8,0:0:0:0:
256,192,70134,1,2,0:0:0:0:
329,192,70664,128,12,71017:0:0:0:0:
182,192,71017,128,6,71723:0:0:0:0:
475,192,71723,1,12,0:0:0:0:
402,192,71899,1,2,0:0:0:0:
329,192,72076,1,12,0:0:0:0:
36,192,72252,1,2,0:0:0:0:
182,192,72605,1,2,0:0:0:0:
329,192,72781,1,12,0:0:0:0:
475,192,72958,1,2,0:0:0:0:
36,192,73311,1,8,0:0:0:0:
109,192,73487,1,8,0:0:0:0:
182,192,73664,1,2,0:0:0:0:
182,192,74193,1,12,0:0:0:0:
329,192,74546,1,6,0:0:0:0:
109,192,74899,1,12,0:0:0:0:
256,192,75076,1,2,0:0:0:0:
329,192,75428,1,2,0:0:0:0:
402,192,75605,1,12,0:0:0:0:
475,192,75781,1,0,0:0:0:0:
36,192,76134,1,2,0:0:0:0:
109,192,76311,1,12,0:0:0:0:
182,192,76487,1,2,0:0:0:0:
182,192,77017,1,12,0:0:0:0:
329,192,77370,1,6,0:0:0:0:
109,192,77723,1,12,0:0:0:0:
256,192,77899,128,2,78428:0:0:0:0:
475,192,78428,1,12,0:0:0:0:
402,192,78605,1,0,0:0:0:0:
329,192,79134,128,8,79487:0:0:0:0:
475,192,79487,128,8,80193:0:0:0:0:
36,192,80193,128,12,80546:0:0:0:0:
329,192,80546,1,12,0:0:0:0:
182,192,80723,128,2,81252:0:0:0:0:
402,192,81428,128,2,81958:0:0:0:0:
182,192,82134,1,2,0:0:0:0:
329,192,82134,1,0,0:0:0:70:CrashRight.wav
182,192,82487,1,2,0:0:0:0:
475,192,82664,1,8,0:0:0:0:
475,192,83017,1,8,0:0:0:0:
182,192,83193,1,2,0:0:0:0:
36,192,83546,1,2,0:0:0:0:
402,192,83546,1,0,0:0:0:70:CrashLeft.wav
402,192,83899,1,2,0:0:0:0:
109,192,84076,1,8,0:0:0:0:
109,192,84428,1,8,0:0:0:0:
402,192,84605,1,2,0:0:0:0:
329,192,84958,1,2,0:0:0:0:
475,192,84958,1,0,0:0:0:70:CrashRight.wav
329,192,85311,1,2,0:0:0:0:
36,192,85487,1,8,0:0:0:0:
36,192,85840,1,2,0:0:0:0:
329,192,86017,1,8,0:0:0:0:
109,192,86370,1,2,0:0:0:0:
475,192,86370,1,0,0:0:0:70:CrashRight.wav
402,192,86723,1,0,0:0:0:0:
329,192,87076,1,0,0:0:0:0:
36,192,87428,1,0,0:0:0:0:
109,192,87605,1,0,0:0:0:0:
182,192,87781,1,0,0:0:0:0:
256,192,87958,128,2,89546:0:0:0:0:
475,192,87958,1,0,0:0:0:70:CrashRight.wav
