osu file format v14

[General]
AudioFilename: audio.mp3
AudioLeadIn: 0
PreviewTime: 61807
Countdown: 0
SampleSet: None
StackLeniency: 0.7
Mode: 3
LetterboxInBreaks: 0
SpecialStyle: 0
WidescreenStoryboard: 0

[Editor]
Bookmarks: 5337,5866,10101,11513,14513,17337,20160,22984,27043,28631,31454,34278,37101,38337,39925,42748,48395,53337,53866,59690,60748,61807,67984,70631,104866,118984,163984,169631,175278,186572,192219,198043,200866,203160,236690,244631,245160,256278
DistanceSpacing: 1.1
BeatDivisor: 4
GridSize: 4
TimelineZoom: 2.1

[Metadata]
Title:ne! ne! ne!
TitleUnicode:ne! ne! ne!
Artist:STARTails*
ArtistUnicode:STARTails☆
Creator:Shiina Yuuki
Version:[L]olis Invasio[N]
Source:スロウスタート
Tags:ramli ln longnote slow start opening 近藤玲奈 伊藤彩沙 嶺内ともみ 長縄まりあ 一之瀬花名 百地たまて 十倉栄依子 千石冠 sengoku kamuri momochi tamate ichinose hana tokura eiko naganawa maria itou ayasa kondou reina minuechi tomomi anime winter 2018
BeatmapID:1702277
BeatmapSetID:811500

[Difficulty]
HPDrainRate:8
CircleSize:4
OverallDifficulty:0
ApproachRate:5
SliderMultiplier:1.8
SliderTickRate:1

[Events]
//Background and Video events
0,0,"loli.jpg",0,0
//Break Periods
//Storyboard Layer 0 (Background)
//Storyboard Layer 1 (Fail)
//Storyboard Layer 2 (Pass)
//Storyboard Layer 3 (Foreground)
//Storyboard Sound Samples

[TimingPoints]
396,352.941176470588,4,2,1,10,1,0
42748,-111.111111111111,4,2,1,10,0,0
52454,-100,4,2,1,10,0,0
62337,-100,4,2,1,10,0,1
72219,-100,4,2,1,10,0,0
73631,-100,4,2,1,10,0,1
82101,-100,4,2,1,10,0,0
118984,-111.111111111111,4,2,1,10,0,0
128690,-100,4,2,1,10,0,0
138572,-100,4,2,1,10,0,1
148454,-100,4,2,1,10,0,0
149866,-100,4,2,1,10,0,1
163984,-100,4,2,1,10,0,0
209160,-100,4,2,1,10,0,1
214278,-100,4,2,1,10,0,0
214807,-100,4,2,1,10,0,1
231925,-100,4,2,1,10,0,0

[HitObjects]
64,192,396,5,0,0:0:0:0:
192,192,396,1,0,0:0:0:0:
320,192,396,1,0,0:0:0:0:
448,192,396,128,0,748:0:0:0:0:
192,192,748,128,0,925:0:0:0:0:
64,192,748,1,0,0:0:0:0:
320,192,748,1,0,0:0:0:0:
320,192,925,128,0,1278:0:0:0:0:
448,192,1101,1,0,0:0:0:0:
64,192,1101,1,0,0:0:0:0:
64,192,1278,128,0,1631:0:0:0:0:
192,192,1278,1,0,0:0:0:0:
448,192,1278,1,0,0:0:0:0:
320,192,1454,1,0,0:0:0:0:
448,192,1454,1,0,0:0:0:0:
192,192,1454,1,0,0:0:0:0:
192,192,1631,128,0,1984:0:0:0:0:
448,192,1631,1,0,0:0:0:0:
320,192,1807,1,0,0:0:0:0:
64,192,1807,1,0,0:0:0:0:
448,192,1984,128,0,2337:0:0:0:0:
320,192,2160,1,0,0:0:0:0:
192,192,2160,128,0,2425:0:0:0:0:
64,192,2160,128,0,2248:0:0:0:0:
64,192,2337,128,0,2513:0:0:0:0:
320,192,2337,128,0,2425:0:0:0:0:
448,192,2425,128,0,2513:0:0:0:0:
320,192,2513,128,0,2690:0:0:0:0:
192,192,2513,128,0,2601:0:0:0:0:
64,192,2601,128,0,2778:0:0:0:0:
192,192,2690,128,0,2866:0:0:0:0:
448,192,2690,128,0,2778:0:0:0:0:
320,192,2778,128,0,2866:0:0:0:0:
448,192,2866,128,0,3219:0:0:0:0:
64,192,2866,128,0,2954:0:0:0:0:
192,192,2954,128,0,3131:0:0:0:0:
64,192,3043,128,0,3131:0:0:0:0:
320,192,3043,128,0,3219:0:0:0:0:
64,192,3219,128,0,3572:0:0:0:0:
192,192,3219,128,0,3307:0:0:0:0:
320,192,3307,128,0,3395:0:0:0:0:
448,192,3395,128,0,3484:0:0:0:0:
192,192,3484,128,0,3572:0:0:0:0:
320,192,3572,128,0,3748:0:0:0:0:
448,192,3572,128,0,3660:0:0:0:0:
64,192,3660,128,0,3748:0:0:0:0:
192,192,3748,128,0,4101:0:0:0:0:
448,192,3748,128,0,3837:0:0:0:0:
320,192,3837,128,0,3925:0:0:0:0:
64,192,3925,128,0,4013:0:0:0:0:
320,192,4013,128,0,4101:0:0:0:0:
448,192,4101,128,0,4454:0:0:0:0:
64,192,4101,128,0,4190:0:0:0:0:
320,192,4190,128,0,4278:0:0:0:0:
192,192,4278,128,0,4366:0:0:0:0:
64,192,4278,128,0,4366:0:0:0:0:
64,192,4454,1,0,0:0:0:0:
192,192,4498,1,0,0:0:0:0:
448,192,4543,1,0,0:0:0:0:
320,192,4587,1,0,0:0:0:0:
64,192,4631,1,0,0:0:0:0:
192,192,4675,1,0,0:0:0:0:
448,192,4719,1,0,0:0:0:0:
320,192,4763,1,0,0:0:0:0:
64,192,4807,1,0,0:0:0:0:
192,192,4851,1,0,0:0:0:0:
320,192,4895,1,0,0:0:0:0:
448,192,4895,1,0,0:0:0:0:
448,192,4984,1,0,0:0:0:0:
192,192,4984,1,0,0:0:0:0:
64,192,4984,1,0,0:0:0:0:
320,192,4984,1,0,0:0:0:0:
192,192,5160,128,0,5248:0:0:0:0:
64,192,5160,128,0,5248:0:0:0:0:
448,192,5337,128,0,5425:0:0:0:0:
320,192,5381,128,0,5469:0:0:0:0:
64,192,5425,128,0,5513:0:0:0:0:
192,192,5469,128,0,5557:0:0:0:0:
448,192,5513,128,0,5601:0:0:0:0:
320,192,5557,128,0,5645:0:0:0:0:
64,192,5601,128,0,5690:0:0:0:0:
192,192,5645,128,0,5734:0:0:0:0:
448,192,5690,128,0,5778:0:0:0:0:
320,192,5734,128,0,5822:0:0:0:0:
192,192,5778,1,0,0:0:0:0:
320,192,5866,1,0,0:0:0:0:
448,192,5866,128,0,6748:0:0:0:0:
64,192,5866,128,0,5954:0:0:0:0:
192,192,5954,128,0,6043:0:0:0:0:
320,192,6043,128,0,6131:0:0:0:0:
192,192,6131,128,0,6219:0:0:0:0:
64,192,6219,128,0,6307:0:0:0:0:
320,192,6307,128,0,6395:0:0:0:0:
192,192,6395,128,0,6484:0:0:0:0:
64,192,6395,128,0,6484:0:0:0:0:
320,192,6484,128,0,6572:0:0:0:0:
64,192,6572,128,0,6660:0:0:0:0:
192,192,6660,128,0,6748:0:0:0:0:
64,192,6748,128,0,7454:0:0:0:0:
320,192,6748,128,0,6837:0:0:0:0:
448,192,6837,128,0,6925:0:0:0:0:
320,192,6925,128,0,7013:0:0:0:0:
192,192,7013,128,0,7101:0:0:0:0:
320,192,7101,128,0,7190:0:0:0:0:
448,192,7101,128,0,7190:0:0:0:0:
192,192,7190,128,0,7278:0:0:0:0:
448,192,7278,128,0,7366:0:0:0:0:
192,192,7366,128,0,7454:0:0:0:0:
320,192,7454,128,0,7807:0:0:0:0:
448,192,7454,128,0,7543:0:0:0:0:
192,192,7543,128,0,7631:0:0:0:0:
64,192,7631,128,0,7719:0:0:0:0:
448,192,7719,128,0,7807:0:0:0:0:
64,192,7807,128,0,8160:0:0:0:0:
192,192,7807,128,0,7895:0:0:0:0:
320,192,7895,128,0,7984:0:0:0:0:
448,192,7984,128,0,8072:0:0:0:0:
320,192,8072,128,0,8160:0:0:0:0:
192,192,8160,128,0,8513:0:0:0:0:
448,192,8160,128,0,8248:0:0:0:0:
320,192,8248,128,0,8337:0:0:0:0:
64,192,8337,128,0,8425:0:0:0:0:
320,192,8425,128,0,8513:0:0:0:0:
448,192,8513,128,0,8690:0:0:0:0:
64,192,8513,128,0,8601:0:0:0:0:
192,192,8601,128,0,8690:0:0:0:0:
320,192,8690,128,0,9219:0:0:0:0:
64,192,8690,128,0,8778:0:0:0:0:
448,192,8778,128,0,8866:0:0:0:0:
192,192,8866,128,0,8954:0:0:0:0:
64,192,8954,128,0,9043:0:0:0:0:
448,192,9043,128,0,9131:0:0:0:0:
192,192,9131,128,0,9219:0:0:0:0:
64,192,9219,128,0,9395:0:0:0:0:
448,192,9219,128,0,9307:0:0:0:0:
192,192,9307,128,0,9395:0:0:0:0:
448,192,9395,128,0,9572:0:0:0:0:
320,192,9395,128,0,9484:0:0:0:0:
64,192,9484,128,0,9572:0:0:0:0:
192,192,9572,128,0,9748:0:0:0:0:
320,192,9572,128,0,9660:0:0:0:0:
448,192,9660,128,0,9748:0:0:0:0:
320,192,9748,128,0,10101:0:0:0:0:
64,192,9748,128,0,9837:0:0:0:0:
192,192,9837,128,0,9925:0:0:0:0:
448,192,9925,128,0,10013:0:0:0:0:
192,192,10013,128,0,10101:0:0:0:0:
64,192,10101,128,0,10454:0:0:0:0:
448,192,10101,128,0,10366:0:0:0:0:
320,192,10190,128,0,10278:0:0:0:0:
192,192,10278,128,0,10366:0:0:0:0:
320,192,10366,128,0,10543:0:0:0:0:
448,192,10454,128,0,10631:0:0:0:0:
192,192,10454,128,0,10543:0:0:0:0:
64,192,10543,128,0,10719:0:0:0:0:
320,192,10631,128,0,10807:0:0:0:0:
192,192,10631,128,0,10719:0:0:0:0:
448,192,10719,128,0,10895:0:0:0:0:
192,192,10807,128,0,10984:0:0:0:0:
64,192,10807,128,0,10895:0:0:0:0:
320,192,10895,128,0,11160:0:0:0:0:
64,192,10984,128,0,11248:0:0:0:0:
448,192,10984,128,0,11072:0:0:0:0:
192,192,11072,128,0,11248:0:0:0:0:
448,192,11160,128,0,11337:0:0:0:0:
320,192,11248,128,0,11337:0:0:0:0:
64,192,11337,128,0,11425:0:0:0:0:
192,192,11337,128,0,11425:0:0:0:0:
448,192,11425,128,0,11601:0:0:0:0:
320,192,11425,128,0,11513:0:0:0:0:
192,192,11513,128,0,11690:0:0:0:0:
64,192,11513,128,0,11601:0:0:0:0:
320,192,11601,128,0,11778:0:0:0:0:
64,192,11690,128,0,11866:0:0:0:0:
448,192,11690,128,0,11778:0:0:0:0:
192,192,11778,128,0,11954:0:0:0:0:
320,192,11866,128,0,11954:0:0:0:0:
448,192,11866,128,0,12043:0:0:0:0:
64,192,11954,128,0,12131:0:0:0:0:
192,192,12043,128,0,12131:0:0:0:0:
320,192,12043,128,0,12219:0:0:0:0:
448,192,12131,128,0,12307:0:0:0:0:
64,192,12219,128,0,12307:0:0:0:0:
192,192,12219,128,0,12395:0:0:0:0:
320,192,12307,128,0,12484:0:0:0:0:
64,192,12395,128,0,12572:0:0:0:0:
448,192,12395,128,0,12484:0:0:0:0:
192,192,12484,128,0,12660:0:0:0:0:
320,192,12572,128,0,12837:0:0:0:0:
448,192,12572,128,0,12660:0:0:0:0:
64,192,12660,128,0,12837:0:0:0:0:
192,192,12748,128,0,12837:0:0:0:0:
448,192,12748,128,0,12837:0:0:0:0:
64,192,12925,128,0,13278:0:0:0:0:
448,192,12925,128,0,13013:0:0:0:0:
320,192,13013,128,0,13101:0:0:0:0:
192,192,13101,128,0,13190:0:0:0:0:
448,192,13190,128,0,13278:0:0:0:0:
320,192,13278,128,0,13631:0:0:0:0:
192,192,13278,128,0,13366:0:0:0:0:
64,192,13366,128,0,13454:0:0:0:0:
192,192,13454,128,0,13543:0:0:0:0:
448,192,13543,128,0,13631:0:0:0:0:
192,192,13631,128,0,13984:0:0:0:0:
64,192,13631,128,0,13719:0:0:0:0:
448,192,13719,128,0,13807:0:0:0:0:
320,192,13807,128,0,13895:0:0:0:0:
64,192,13895,128,0,13984:0:0:0:0:
448,192,13984,128,0,14425:0:0:0:0:
320,192,13984,128,0,14072:0:0:0:0:
64,192,14072,128,0,14160:0:0:0:0:
192,192,14160,128,0,14248:0:0:0:0:
320,192,14248,128,0,14425:0:0:0:0:
192,192,14337,128,0,14425:0:0:0:0:
64,192,14337,128,0,14425:0:0:0:0:
320,192,14513,1,0,0:0:0:0:
448,192,14513,1,0,0:0:0:0:
192,192,14513,128,0,14954:0:0:0:0:
64,192,14513,128,0,14954:0:0:0:0:
320,192,14866,128,0,15219:0:0:0:0:
448,192,14866,128,0,15219:0:0:0:0:
64,192,15043,128,0,15572:0:0:0:0:
192,192,15043,128,0,15572:0:0:0:0:
320,192,15395,128,0,15484:0:0:0:0:
448,192,15395,128,0,15484:0:0:0:0:
320,192,15572,1,0,0:0:0:0:
448,192,15572,1,0,0:0:0:0:
192,192,15748,1,0,0:0:0:0:
64,192,15748,1,0,0:0:0:0:
320,192,15748,128,0,16101:0:0:0:0:
448,192,15748,128,0,16454:0:0:0:0:
64,192,16101,1,0,0:0:0:0:
192,192,16101,1,0,0:0:0:0:
320,192,16278,1,0,0:0:0:0:
192,192,16278,1,0,0:0:0:0:
64,192,16454,1,0,0:0:0:0:
192,192,16454,1,0,0:0:0:0:
320,192,16454,1,0,0:0:0:0:
64,192,16807,1,0,0:0:0:0:
448,192,16807,1,0,0:0:0:0:
64,192,16984,1,0,0:0:0:0:
448,192,16984,1,0,0:0:0:0:
64,192,17337,1,0,0:0:0:0:
192,192,17337,1,0,0:0:0:0:
448,192,17337,1,0,0:0:0:0:
320,192,17425,1,0,0:0:0:0:
192,192,17513,1,0,0:0:0:0:
64,192,17601,1,0,0:0:0:0:
320,192,17690,1,0,0:0:0:0:
448,192,17690,1,0,0:0:0:0:
64,192,17778,1,0,0:0:0:0:
448,192,17866,1,0,0:0:0:0:
320,192,17954,1,0,0:0:0:0:
192,192,18043,1,0,0:0:0:0:
64,192,18043,1,0,0:0:0:0:
448,192,18131,1,0,0:0:0:0:
64,192,18219,1,0,0:0:0:0:
192,192,18307,1,0,0:0:0:0:
320,192,18395,1,0,0:0:0:0:
448,192,18395,1,0,0:0:0:0:
64,192,18484,1,0,0:0:0:0:
192,192,18572,1,0,0:0:0:0:
320,192,18660,1,0,0:0:0:0:
64,192,18748,1,0,0:0:0:0:
192,192,18748,1,0,0:0:0:0:
448,192,18837,1,0,0:0:0:0:
320,192,18925,1,0,0:0:0:0:
64,192,18925,1,0,0:0:0:0:
192,192,19013,1,0,0:0:0:0:
320,192,19101,1,0,0:0:0:0:
448,192,19101,1,0,0:0:0:0:
64,192,19190,1,0,0:0:0:0:
192,192,19278,1,0,0:0:0:0:
448,192,19278,1,0,0:0:0:0:
320,192,19366,1,0,0:0:0:0:
192,192,19454,1,0,0:0:0:0:
64,192,19454,1,0,0:0:0:0:
320,192,19543,1,0,0:0:0:0:
448,192,19631,1,0,0:0:0:0:
64,192,19631,1,0,0:0:0:0:
192,192,19719,1,0,0:0:0:0:
320,192,19807,1,0,0:0:0:0:
448,192,19807,1,0,0:0:0:0:
192,192,19895,1,0,0:0:0:0:
64,192,19984,1,0,0:0:0:0:
448,192,19984,1,0,0:0:0:0:
320,192,20072,1,0,0:0:0:0:
64,192,20160,128,0,20248:0:0:0:0:
192,192,20160,128,0,20337:0:0:0:0:
320,192,20248,128,0,20425:0:0:0:0:
64,192,20337,128,0,20513:0:0:0:0:
448,192,20337,128,0,20425:0:0:0:0:
192,192,20425,128,0,20601:0:0:0:0:
320,192,20513,128,0,20690:0:0:0:0:
448,192,20513,128,0,20601:0:0:0:0:
64,192,20601,128,0,20778:0:0:0:0:
192,192,20690,128,0,20778:0:0:0:0:
448,192,20690,128,0,20866:0:0:0:0:
320,192,20778,128,0,20954:0:0:0:0:
192,192,20866,128,0,21043:0:0:0:0:
64,192,20866,128,0,20954:0:0:0:0:
448,192,20954,128,0,21131:0:0:0:0:
320,192,21043,128,0,21131:0:0:0:0:
64,192,21043,128,0,21219:0:0:0:0:
192,192,21131,128,0,21307:0:0:0:0:
320,192,21219,128,0,21307:0:0:0:0:
448,192,21219,128,0,21395:0:0:0:0:
64,192,21307,128,0,21484:0:0:0:0:
192,192,21395,128,0,21484:0:0:0:0:
320,192,21395,128,0,21572:0:0:0:0:
448,192,21484,128,0,21660:0:0:0:0:
192,192,21572,128,0,21748:0:0:0:0:
64,192,21572,128,0,21660:0:0:0:0:
320,192,21660,128,0,21837:0:0:0:0:
64,192,21748,128,0,21925:0:0:0:0:
448,192,21748,128,0,21837:0:0:0:0:
192,192,21837,128,0,22013:0:0:0:0:
320,192,21925,128,0,22101:0:0:0:0:
448,192,21925,128,0,22013:0:0:0:0:
64,192,22013,128,0,22190:0:0:0:0:
192,192,22101,128,0,22190:0:0:0:0:
448,192,22101,128,0,22278:0:0:0:0:
320,192,22190,128,0,22366:0:0:0:0:
192,192,22278,128,0,22366:0:0:0:0:
64,192,22278,128,0,22454:0:0:0:0:
448,192,22366,128,0,22543:0:0:0:0:
320,192,22454,128,0,22631:0:0:0:0:
192,192,22454,128,0,22543:0:0:0:0:
64,192,22543,128,0,22719:0:0:0:0:
192,192,22631,128,0,22719:0:0:0:0:
448,192,22631,128,0,22895:0:0:0:0:
320,192,22719,128,0,22895:0:0:0:0:
192,192,22807,128,0,22895:0:0:0:0:
64,192,22807,128,0,22895:0:0:0:0:
448,192,22984,1,0,0:0:0:0:
320,192,22984,1,0,0:0:0:0:
64,192,22984,1,0,0:0:0:0:
192,192,23072,1,0,0:0:0:0:
320,192,23160,1,0,0:0:0:0:
448,192,23248,1,0,0:0:0:0:
192,192,23337,1,0,0:0:0:0:
64,192,23337,1,0,0:0:0:0:
448,192,23425,1,0,0:0:0:0:
64,192,23513,1,0,0:0:0:0:
192,192,23601,1,0,0:0:0:0:
320,192,23690,1,0,0:0:0:0:
448,192,23690,1,0,0:0:0:0:
64,192,23778,1,0,0:0:0:0:
448,192,23866,1,0,0:0:0:0:
320,192,23954,1,0,0:0:0:0:
192,192,24043,1,0,0:0:0:0:
64,192,24043,1,0,0:0:0:0:
448,192,24131,1,0,0:0:0:0:
320,192,24219,1,0,0:0:0:0:
192,192,24307,1,0,0:0:0:0:
448,192,24395,1,0,0:0:0:0:
320,192,24395,1,0,0:0:0:0:
64,192,24484,1,0,0:0:0:0:
192,192,24572,1,0,0:0:0:0:
448,192,24572,1,0,0:0:0:0:
320,192,24660,1,0,0:0:0:0:
192,192,24748,1,0,0:0:0:0:
64,192,24748,1,0,0:0:0:0:
448,192,24837,1,0,0:0:0:0:
320,192,24925,1,0,0:0:0:0:
64,192,24925,1,0,0:0:0:0:
192,192,25013,1,0,0:0:0:0:
320,192,25101,1,0,0:0:0:0:
448,192,25101,1,0,0:0:0:0:
192,192,25190,1,0,0:0:0:0:
64,192,25278,1,0,0:0:0:0:
448,192,25278,1,0,0:0:0:0:
320,192,25366,1,0,0:0:0:0:
192,192,25454,1,0,0:0:0:0:
64,192,25454,1,0,0:0:0:0:
320,192,25543,1,0,0:0:0:0:
448,192,25631,1,0,0:0:0:0:
64,192,25631,1,0,0:0:0:0:
192,192,25719,1,0,0:0:0:0:
448,192,25807,128,0,25895:0:0:0:0:
320,192,25807,128,0,25984:0:0:0:0:
192,192,25895,128,0,26072:0:0:0:0:
448,192,25984,128,0,26160:0:0:0:0:
64,192,25984,128,0,26072:0:0:0:0:
320,192,26072,128,0,26248:0:0:0:0:
192,192,26160,128,0,26337:0:0:0:0:
64,192,26160,128,0,26248:0:0:0:0:
448,192,26248,128,0,26425:0:0:0:0:
320,192,26337,128,0,26425:0:0:0:0:
64,192,26337,128,0,26513:0:0:0:0:
192,192,26425,128,0,26601:0:0:0:0:
320,192,26513,128,0,26690:0:0:0:0:
448,192,26513,128,0,26601:0:0:0:0:
64,192,26601,128,0,26778:0:0:0:0:
192,192,26690,128,0,26778:0:0:0:0:
448,192,26690,128,0,26866:0:0:0:0:
320,192,26778,128,0,26954:0:0:0:0:
192,192,26866,128,0,26954:0:0:0:0:
64,192,26866,128,0,27131:0:0:0:0:
448,192,26954,128,0,27131:0:0:0:0:
320,192,27043,128,0,27131:0:0:0:0:
192,192,27043,128,0,27131:0:0:0:0:
64,192,27395,1,0,0:0:0:0:
192,192,27395,1,0,0:0:0:0:
64,192,27572,1,0,0:0:0:0:
192,192,27572,1,0,0:0:0:0:
320,192,27572,128,0,27837:0:0:0:0:
448,192,27572,128,0,27837:0:0:0:0:
192,192,27748,128,0,27837:0:0:0:0:
64,192,27748,128,0,27837:0:0:0:0:
64,192,27925,1,0,0:0:0:0:
448,192,27925,1,0,0:0:0:0:
192,192,28013,1,0,0:0:0:0:
320,192,28101,1,0,0:0:0:0:
448,192,28101,1,0,0:0:0:0:
192,192,28190,1,0,0:0:0:0:
64,192,28278,1,0,0:0:0:0:
320,192,28366,1,0,0:0:0:0:
448,192,28366,1,0,0:0:0:0:
192,192,28454,1,0,0:0:0:0:
64,192,28454,1,0,0:0:0:0:
320,192,28543,1,0,0:0:0:0:
448,192,28543,1,0,0:0:0:0:
192,192,28631,1,0,0:0:0:0:
64,192,28631,1,0,0:0:0:0:
320,192,28631,1,0,0:0:0:0:
448,192,28631,1,0,0:0:0:0:
448,192,28807,128,0,28895:0:0:0:0:
320,192,28807,128,0,28895:0:0:0:0:
64,192,28984,128,0,29072:0:0:0:0:
192,192,28984,128,0,29072:0:0:0:0:
448,192,28984,128,0,29072:0:0:0:0:
320,192,29160,128,0,29248:0:0:0:0:
192,192,29160,128,0,29248:0:0:0:0:
64,192,29337,128,0,29425:0:0:0:0:
320,192,29337,128,0,29425:0:0:0:0:
192,192,29513,128,0,29601:0:0:0:0:
64,192,29513,128,0,29601:0:0:0:0:
64,192,29690,128,0,29778:0:0:0:0:
320,192,29690,128,0,29778:0:0:0:0:
448,192,29690,128,0,29778:0:0:0:0:
192,192,29866,128,0,29954:0:0:0:0:
448,192,29866,128,0,29954:0:0:0:0:
320,192,30043,128,0,30131:0:0:0:0:
448,192,30043,128,0,30131:0:0:0:0:
192,192,30219,128,0,30307:0:0:0:0:
320,192,30219,128,0,30307:0:0:0:0:
64,192,30395,128,0,30484:0:0:0:0:
192,192,30395,128,0,30484:0:0:0:0:
448,192,30395,128,0,30484:0:0:0:0:
320,192,30572,128,0,30660:0:0:0:0:
448,192,30572,128,0,30660:0:0:0:0:
192,192,30660,128,0,30748:0:0:0:0:
64,192,30748,128,0,30837:0:0:0:0:
448,192,30748,128,0,30837:0:0:0:0:
192,192,30925,128,0,31013:0:0:0:0:
64,192,30925,128,0,31013:0:0:0:0:
64,192,31101,128,0,31190:0:0:0:0:
320,192,31101,128,0,31190:0:0:0:0:
448,192,31101,128,0,31190:0:0:0:0:
448,192,31278,128,0,31366:0:0:0:0:
320,192,31366,128,0,31454:0:0:0:0:
192,192,31454,128,0,31543:0:0:0:0:
64,192,31454,128,0,31631:0:0:0:0:
448,192,31543,128,0,31719:0:0:0:0:
192,192,31631,128,0,31807:0:0:0:0:
320,192,31631,128,0,31719:0:0:0:0:
64,192,31719,128,0,31895:0:0:0:0:
320,192,31807,128,0,31984:0:0:0:0:
448,192,31807,128,0,31895:0:0:0:0:
192,192,31895,128,0,32072:0:0:0:0:
64,192,31984,128,0,32072:0:0:0:0:
448,192,31984,128,0,32160:0:0:0:0:
320,192,32072,128,0,32248:0:0:0:0:
192,192,32160,128,0,32337:0:0:0:0:
64,192,32160,128,0,32248:0:0:0:0:
448,192,32248,128,0,32425:0:0:0:0:
320,192,32337,128,0,32425:0:0:0:0:
64,192,32337,128,0,32513:0:0:0:0:
192,192,32425,128,0,32601:0:0:0:0:
320,192,32513,128,0,32601:0:0:0:0:
448,192,32513,128,0,32690:0:0:0:0:
64,192,32601,128,0,32778:0:0:0:0:
192,192,32690,128,0,32778:0:0:0:0:
320,192,32690,128,0,32866:0:0:0:0:
448,192,32778,128,0,32954:0:0:0:0:
192,192,32866,128,0,33043:0:0:0:0:
64,192,32866,128,0,32954:0:0:0:0:
320,192,32954,128,0,33131:0:0:0:0:
64,192,33043,128,0,33219:0:0:0:0:
448,192,33043,128,0,33131:0:0:0:0:
192,192,33131,128,0,33307:0:0:0:0:
320,192,33219,128,0,33307:0:0:0:0:
448,192,33219,128,0,33395:0:0:0:0:
64,192,33307,128,0,33484:0:0:0:0:
192,192,33395,128,0,33484:0:0:0:0:
320,192,33395,128,0,33660:0:0:0:0:
448,192,33484,128,0,33572:0:0:0:0:
192,192,33572,128,0,33660:0:0:0:0:
64,192,33572,128,0,33748:0:0:0:0:
448,192,33660,128,0,33837:0:0:0:0:
320,192,33748,128,0,33837:0:0:0:0:
192,192,33748,128,0,33925:0:0:0:0:
64,192,33837,128,0,33925:0:0:0:0:
320,192,33925,128,0,34013:0:0:0:0:
448,192,33925,128,0,34013:0:0:0:0:
192,192,34013,128,0,34101:0:0:0:0:
64,192,34013,128,0,34101:0:0:0:0:
320,192,34101,1,0,0:0:0:0:
448,192,34101,1,0,0:0:0:0:
192,192,34190,1,0,0:0:0:0:
64,192,34190,1,0,0:0:0:0:
320,192,34278,1,0,0:0:0:0:
448,192,34278,1,0,0:0:0:0:
192,192,34278,1,0,0:0:0:0:
64,192,34278,1,0,0:0:0:0:
64,192,34454,128,0,34543:0:0:0:0:
192,192,34454,128,0,34543:0:0:0:0:
448,192,34631,128,0,34719:0:0:0:0:
320,192,34631,128,0,34719:0:0:0:0:
64,192,34631,128,0,34719:0:0:0:0:
192,192,34807,128,0,34895:0:0:0:0:
320,192,34807,128,0,34895:0:0:0:0:
448,192,34984,128,0,35072:0:0:0:0:
192,192,34984,128,0,35072:0:0:0:0:
320,192,35160,128,0,35248:0:0:0:0:
448,192,35160,128,0,35248:0:0:0:0:
448,192,35337,128,0,35425:0:0:0:0:
192,192,35337,128,0,35425:0:0:0:0:
64,192,35337,128,0,35425:0:0:0:0:
320,192,35513,128,0,35601:0:0:0:0:
64,192,35513,128,0,35601:0:0:0:0:
448,192,35513,128,0,35778:0:0:0:0:
192,192,35690,128,0,35778:0:0:0:0:
64,192,35690,128,0,35778:0:0:0:0:
320,192,35866,128,0,35954:0:0:0:0:
192,192,35866,128,0,35954:0:0:0:0:
448,192,36043,128,0,36131:0:0:0:0:
320,192,36043,128,0,36131:0:0:0:0:
64,192,36043,128,0,36131:0:0:0:0:
192,192,36219,128,0,36307:0:0:0:0:
64,192,36219,128,0,36307:0:0:0:0:
320,192,36307,128,0,36395:0:0:0:0:
448,192,36395,128,0,36484:0:0:0:0:
64,192,36395,128,0,36484:0:0:0:0:
320,192,36572,128,0,36660:0:0:0:0:
448,192,36572,128,0,36660:0:0:0:0:
448,192,36748,128,0,36837:0:0:0:0:
192,192,36748,128,0,36837:0:0:0:0:
64,192,36748,128,0,36837:0:0:0:0:
64,192,36925,128,0,37013:0:0:0:0:
192,192,36925,128,0,37013:0:0:0:0:
320,192,37101,128,0,37190:0:0:0:0:
448,192,37101,128,0,37278:0:0:0:0:
64,192,37190,128,0,37366:0:0:0:0:
320,192,37278,128,0,37454:0:0:0:0:
192,192,37278,128,0,37366:0:0:0:0:
448,192,37366,128,0,37543:0:0:0:0:
192,192,37454,128,0,37631:0:0:0:0:
64,192,37454,128,0,37543:0:0:0:0:
320,192,37543,128,0,37719:0:0:0:0:
448,192,37631,128,0,37719:0:0:0:0:
64,192,37631,128,0,37807:0:0:0:0:
192,192,37719,128,0,37895:0:0:0:0:
320,192,37807,128,0,37984:0:0:0:0:
448,192,37807,128,0,37895:0:0:0:0:
64,192,37895,128,0,38072:0:0:0:0:
192,192,37984,128,0,38072:0:0:0:0:
448,192,37984,128,0,38160:0:0:0:0:
320,192,38072,128,0,38248:0:0:0:0:
64,192,38160,128,0,38248:0:0:0:0:
192,192,38160,128,0,38248:0:0:0:0:
448,192,38248,128,0,38601:0:0:0:0:
320,192,38337,128,0,38601:0:0:0:0:
192,192,38337,128,0,38601:0:0:0:0:
64,192,38337,128,0,38601:0:0:0:0:
64,192,38690,1,0,0:0:0:0:
192,192,38690,1,0,0:0:0:0:
64,192,38866,1,0,0:0:0:0:
192,192,38866,1,0,0:0:0:0:
320,192,38866,1,0,0:0:0:0:
448,192,38866,1,0,0:0:0:0:
320,192,39219,1,0,0:0:0:0:
448,192,39219,1,0,0:0:0:0:
192,192,39307,1,0,0:0:0:0:
64,192,39395,1,0,0:0:0:0:
448,192,39395,1,0,0:0:0:0:
320,192,39484,1,0,0:0:0:0:
64,192,39572,128,0,39837:0:0:0:0:
192,192,39572,128,0,39837:0:0:0:0:
320,192,39748,128,0,39837:0:0:0:0:
448,192,39748,128,0,39837:0:0:0:0:
320,192,39925,1,0,0:0:0:0:
448,192,39925,1,0,0:0:0:0:
192,192,39925,128,0,40366:0:0:0:0:
64,192,39925,128,0,40366:0:0:0:0:
320,192,40278,128,0,40631:0:0:0:0:
448,192,40278,128,0,40631:0:0:0:0:
64,192,40454,128,0,40984:0:0:0:0:
192,192,40454,128,0,40984:0:0:0:0:
320,192,40807,128,0,40895:0:0:0:0:
448,192,40807,128,0,40895:0:0:0:0:
320,192,40984,1,0,0:0:0:0:
448,192,40984,1,0,0:0:0:0:
192,192,41160,1,0,0:0:0:0:
64,192,41160,1,0,0:0:0:0:
320,192,41160,128,0,41513:0:0:0:0:
448,192,41160,128,0,41690:0:0:0:0:
192,192,41513,1,0,0:0:0:0:
64,192,41513,128,0,41954:0:0:0:0:
320,192,41690,1,0,0:0:0:0:
192,192,41690,1,0,0:0:0:0:
320,192,41866,1,0,0:0:0:0:
448,192,41866,1,0,0:0:0:0:
192,192,41954,1,0,0:0:0:0:
320,192,42043,1,0,0:0:0:0:
64,192,42043,128,0,42131:0:0:0:0:
448,192,42043,128,0,42131:0:0:0:0:
448,192,42219,128,0,42307:0:0:0:0:
64,192,42219,128,0,42307:0:0:0:0:
64,192,42395,128,0,42660:0:0:0:0:
448,192,42395,128,0,42660:0:0:0:0:
320,192,42395,128,0,42660:0:0:0:0:
192,192,42748,128,0,42925:0:0:0:0:
64,192,42748,128,0,42837:0:0:0:0:
448,192,42748,128,0,43013:0:0:0:0:
320,192,42837,128,0,43101:0:0:0:0:
64,192,42925,128,0,43190:0:0:0:0:
192,192,43013,128,0,43190:0:0:0:0:
448,192,43101,128,0,43278:0:0:0:0:
320,192,43190,128,0,43366:0:0:0:0:
192,192,43278,128,0,43366:0:0:0:0:
64,192,43278,128,0,43454:0:0:0:0:
448,192,43366,128,0,43719:0:0:0:0:
192,192,43454,128,0,43543:0:0:0:0:
320,192,43454,128,0,43631:0:0:0:0:
64,192,43543,128,0,43719:0:0:0:0:
192,192,43631,128,0,43807:0:0:0:0:
320,192,43719,128,0,43984:0:0:0:0:
448,192,43807,128,0,43895:0:0:0:0:
64,192,43807,128,0,44072:0:0:0:0:
192,192,43895,128,0,44072:0:0:0:0:
448,192,43984,128,0,44337:0:0:0:0:
320,192,44072,128,0,44160:0:0:0:0:
192,192,44160,128,0,44425:0:0:0:0:
64,192,44160,128,0,44248:0:0:0:0:
320,192,44248,128,0,44513:0:0:0:0:
64,192,44337,128,0,44601:0:0:0:0:
448,192,44425,128,0,44601:0:0:0:0:
192,192,44513,128,0,44778:0:0:0:0:
320,192,44601,128,0,44690:0:0:0:0:
64,192,44690,128,0,44778:0:0:0:0:
448,192,44690,128,0,44866:0:0:0:0:
320,192,44778,128,0,44954:0:0:0:0:
192,192,44866,128,0,45043:0:0:0:0:
64,192,44866,128,0,45219:0:0:0:0:
448,192,44954,128,0,45131:0:0:0:0:
320,192,45043,128,0,45131:0:0:0:0:
192,192,45131,128,0,45307:0:0:0:0:
448,192,45219,128,0,45395:0:0:0:0:
320,192,45219,128,0,45572:0:0:0:0:
64,192,45307,128,0,45484:0:0:0:0:
192,192,45395,128,0,45484:0:0:0:0:
448,192,45484,128,0,45660:0:0:0:0:
192,192,45572,128,0,45748:0:0:0:0:
64,192,45572,128,0,45837:0:0:0:0:
320,192,45660,128,0,46013:0:0:0:0:
448,192,45748,128,0,45925:0:0:0:0:
192,192,45837,128,0,46101:0:0:0:0:
64,192,45925,128,0,46190:0:0:0:0:
448,192,46013,128,0,46190:0:0:0:0:
320,192,46101,128,0,46278:0:0:0:0:
192,192,46190,128,0,46366:0:0:0:0:
64,192,46278,128,0,46543:0:0:0:0:
448,192,46278,128,0,46454:0:0:0:0:
320,192,46366,128,0,46631:0:0:0:0:
192,192,46454,128,0,46543:0:0:0:0:
448,192,46543,128,0,46719:0:0:0:0:
64,192,46631,128,0,46895:0:0:0:0:
192,192,46631,128,0,46807:0:0:0:0:
320,192,46719,128,0,46984:0:0:0:0:
448,192,46807,128,0,47072:0:0:0:0:
192,192,46895,128,0,47160:0:0:0:0:
64,192,46984,128,0,47248:0:0:0:0:
320,192,47072,128,0,47425:0:0:0:0:
448,192,47160,128,0,47337:0:0:0:0:
192,192,47248,128,0,47513:0:0:0:0:
64,192,47337,128,0,47601:0:0:0:0:
448,192,47425,128,0,47601:0:0:0:0:
320,192,47513,128,0,47690:0:0:0:0:
192,192,47601,128,0,47866:0:0:0:0:
64,192,47690,128,0,47778:0:0:0:0:
448,192,47690,128,0,47954:0:0:0:0:
320,192,47778,128,0,47954:0:0:0:0:
64,192,47866,128,0,48043:0:0:0:0:
192,192,47954,128,0,48219:0:0:0:0:
448,192,48043,128,0,48131:0:0:0:0:
320,192,48043,128,0,48307:0:0:0:0:
64,192,48131,128,0,48307:0:0:0:0:
448,192,48219,128,0,48307:0:0:0:0:
192,192,48307,128,0,48395:0:0:0:0:
320,192,48395,128,0,48572:0:0:0:0:
448,192,48395,128,0,48484:0:0:0:0:
64,192,48395,128,0,48660:0:0:0:0:
192,192,48484,128,0,48748:0:0:0:0:
448,192,48572,128,0,48837:0:0:0:0:
320,192,48660,128,0,48837:0:0:0:0:
64,192,48748,128,0,48925:0:0:0:0:
192,192,48837,128,0,49013:0:0:0:0:
320,192,48925,128,0,49013:0:0:0:0:
448,192,48925,128,0,49101:0:0:0:0:
64,192,49013,128,0,49366:0:0:0:0:
320,192,49101,128,0,49190:0:0:0:0:
192,192,49101,128,0,49278:0:0:0:0:
448,192,49190,128,0,49366:0:0:0:0:
320,192,49278,128,0,49454:0:0:0:0:
192,192,49366,128,0,49631:0:0:0:0:
64,192,49454,128,0,49543:0:0:0:0:
448,192,49454,128,0,49719:0:0:0:0:
320,192,49543,128,0,49719:0:0:0:0:
64,192,49631,128,0,49984:0:0:0:0:
192,192,49719,128,0,49807:0:0:0:0:
320,192,49807,128,0,50072:0:0:0:0:
448,192,49807,128,0,49895:0:0:0:0:
192,192,49895,128,0,50160:0:0:0:0:
448,192,49984,128,0,50248:0:0:0:0:
64,192,50072,128,0,50248:0:0:0:0:
320,192,50160,128,0,50425:0:0:0:0:
192,192,50248,128,0,50337:0:0:0:0:
448,192,50337,128,0,50425:0:0:0:0:
64,192,50337,128,0,50513:0:0:0:0:
192,192,50425,128,0,50601:0:0:0:0:
320,192,50513,128,0,50690:0:0:0:0:
448,192,50513,128,0,50866:0:0:0:0:
64,192,50601,128,0,50778:0:0:0:0:
192,192,50690,128,0,50778:0:0:0:0:
320,192,50778,128,0,50954:0:0:0:0:
64,192,50866,128,0,51043:0:0:0:0:
192,192,50866,128,0,51219:0:0:0:0:
448,192,50954,128,0,51131:0:0:0:0:
320,192,51043,128,0,51131:0:0:0:0:
64,192,51131,128,0,51307:0:0:0:0:
320,192,51219,128,0,51395:0:0:0:0:
448,192,51219,128,0,51484:0:0:0:0:
192,192,51307,128,0,51660:0:0:0:0:
64,192,51395,128,0,51572:0:0:0:0:
320,192,51484,128,0,51748:0:0:0:0:
448,192,51572,128,0,51837:0:0:0:0:
64,192,51660,128,0,51837:0:0:0:0:
192,192,51748,128,0,51925:0:0:0:0:
320,192,51837,128,0,52013:0:0:0:0:
448,192,51925,128,0,52190:0:0:0:0:
64,192,51925,128,0,52101:0:0:0:0:
192,192,52013,128,0,52278:0:0:0:0:
320,192,52101,128,0,52190:0:0:0:0:
64,192,52190,128,0,52366:0:0:0:0:
448,192,52278,128,0,52366:0:0:0:0:
320,192,52278,128,0,52366:0:0:0:0:
192,192,52366,128,0,52454:0:0:0:0:
64,192,52454,128,0,52631:0:0:0:0:
320,192,52454,128,0,52631:0:0:0:0:
448,192,52454,128,0,52631:0:0:0:0:
64,192,52807,128,0,52895:0:0:0:0:
192,192,52807,128,0,52895:0:0:0:0:
64,192,52984,1,0,0:0:0:0:
192,192,52984,1,0,0:0:0:0:
320,192,52984,128,0,53248:0:0:0:0:
448,192,52984,128,0,53248:0:0:0:0:
320,192,53337,1,0,0:0:0:0:
448,192,53337,1,0,0:0:0:0:
192,192,53425,1,0,0:0:0:0:
64,192,53425,1,0,0:0:0:0:
320,192,53513,1,0,0:0:0:0:
448,192,53513,1,0,0:0:0:0:
192,192,53601,1,0,0:0:0:0:
64,192,53601,1,0,0:0:0:0:
320,192,53690,1,0,0:0:0:0:
448,192,53690,1,0,0:0:0:0:
192,192,53778,1,0,0:0:0:0:
64,192,53778,1,0,0:0:0:0:
64,192,53866,1,0,0:0:0:0:
192,192,53866,1,0,0:0:0:0:
320,192,53866,1,0,0:0:0:0:
448,192,53866,1,0,0:0:0:0:
320,192,54043,128,0,54131:0:0:0:0:
448,192,54043,128,0,54131:0:0:0:0:
320,192,54219,128,0,54307:0:0:0:0:
448,192,54219,128,0,54307:0:0:0:0:
448,192,54395,1,0,0:0:0:0:
320,192,54395,1,0,0:0:0:0:
192,192,54395,1,0,0:0:0:0:
64,192,54395,1,0,0:0:0:0:
64,192,54748,128,0,54837:0:0:0:0:
192,192,54748,128,0,54837:0:0:0:0:
320,192,54748,128,0,54837:0:0:0:0:
448,192,54748,128,0,54837:0:0:0:0:
64,192,54925,1,0,0:0:0:0:
448,192,54925,1,0,0:0:0:0:
64,192,55101,1,0,0:0:0:0:
448,192,55101,1,0,0:0:0:0:
64,192,55278,128,0,55366:0:0:0:0:
192,192,55278,128,0,55366:0:0:0:0:
448,192,55278,128,0,55366:0:0:0:0:
192,192,55454,128,0,55543:0:0:0:0:
64,192,55454,128,0,55543:0:0:0:0:
192,192,55631,128,0,55719:0:0:0:0:
64,192,55631,128,0,55719:0:0:0:0:
64,192,55807,1,0,0:0:0:0:
192,192,55807,1,0,0:0:0:0:
320,192,55807,1,0,0:0:0:0:
448,192,55807,1,0,0:0:0:0:
64,192,56160,128,0,56248:0:0:0:0:
192,192,56160,128,0,56248:0:0:0:0:
320,192,56160,128,0,56248:0:0:0:0:
448,192,56160,128,0,56248:0:0:0:0:
64,192,56337,1,0,0:0:0:0:
448,192,56337,1,0,0:0:0:0:
64,192,56513,1,0,0:0:0:0:
320,192,56513,1,0,0:0:0:0:
448,192,56513,1,0,0:0:0:0:
320,192,56690,128,0,56778:0:0:0:0:
448,192,56690,128,0,56778:0:0:0:0:
64,192,56778,128,0,56866:0:0:0:0:
192,192,56866,128,0,56954:0:0:0:0:
320,192,56866,128,0,56954:0:0:0:0:
448,192,56954,128,0,57043:0:0:0:0:
64,192,57043,128,0,57131:0:0:0:0:
192,192,57043,128,0,57131:0:0:0:0:
320,192,57131,128,0,57219:0:0:0:0:
192,192,57219,128,0,57307:0:0:0:0:
64,192,57219,128,0,57307:0:0:0:0:
448,192,57307,128,0,57395:0:0:0:0:
64,192,57395,128,0,57484:0:0:0:0:
320,192,57395,128,0,57484:0:0:0:0:
192,192,57484,128,0,57572:0:0:0:0:
320,192,57572,128,0,57660:0:0:0:0:
448,192,57572,128,0,57660:0:0:0:0:
64,192,57572,128,0,57660:0:0:0:0:
64,192,57748,128,0,57837:0:0:0:0:
448,192,57748,128,0,58013:0:0:0:0:
320,192,57925,128,0,58013:0:0:0:0:
192,192,57925,128,0,58013:0:0:0:0:
64,192,57925,128,0,58013:0:0:0:0:
192,192,58101,128,0,58190:0:0:0:0:
64,192,58101,128,0,58190:0:0:0:0:
448,192,58190,128,0,58278:0:0:0:0:
320,192,58278,128,0,58366:0:0:0:0:
192,192,58278,128,0,58366:0:0:0:0:
64,192,58366,128,0,58454:0:0:0:0:
448,192,58454,128,0,58543:0:0:0:0:
320,192,58454,128,0,58543:0:0:0:0:
192,192,58543,128,0,58631:0:0:0:0:
320,192,58631,128,0,58719:0:0:0:0:
448,192,58631,128,0,58719:0:0:0:0:
64,192,58719,128,0,58807:0:0:0:0:
448,192,58807,128,0,58895:0:0:0:0:
192,192,58807,128,0,58895:0:0:0:0:
320,192,58895,128,0,58984:0:0:0:0:
192,192,58984,128,0,59072:0:0:0:0:
64,192,58984,128,0,59072:0:0:0:0:
448,192,58984,128,0,59072:0:0:0:0:
64,192,59160,1,0,0:0:0:0:
448,192,59160,1,0,0:0:0:0:
64,192,59337,1,0,0:0:0:0:
192,192,59337,1,0,0:0:0:0:
448,192,59337,1,0,0:0:0:0:
448,192,59690,128,0,59778:0:0:0:0:
320,192,59734,128,0,59822:0:0:0:0:
64,192,59778,128,0,59866:0:0:0:0:
192,192,59822,128,0,59910:0:0:0:0:
448,192,59866,128,0,59954:0:0:0:0:
320,192,59910,128,0,59998:0:0:0:0:
64,192,59954,128,0,60043:0:0:0:0:
192,192,59998,128,0,60087:0:0:0:0:
448,192,60043,128,0,60131:0:0:0:0:
320,192,60087,128,0,60175:0:0:0:0:
64,192,60131,128,0,60219:0:0:0:0:
192,192,60175,128,0,60263:0:0:0:0:
448,192,60219,128,0,60307:0:0:0:0:
320,192,60263,128,0,60351:0:0:0:0:
64,192,60307,128,0,60395:0:0:0:0:
192,192,60351,128,0,60440:0:0:0:0:
448,192,60395,128,0,60484:0:0:0:0:
320,192,60440,128,0,60528:0:0:0:0:
64,192,60484,128,0,60572:0:0:0:0:
192,192,60528,128,0,60616:0:0:0:0:
448,192,60572,128,0,60660:0:0:0:0:
320,192,60616,128,0,60704:0:0:0:0:
64,192,60660,128,0,60748:0:0:0:0:
192,192,60704,128,0,60793:0:0:0:0:
320,192,60748,128,0,60837:0:0:0:0:
448,192,60793,128,0,60881:0:0:0:0:
192,192,60837,128,0,60925:0:0:0:0:
64,192,60881,128,0,60969:0:0:0:0:
320,192,60925,128,0,61013:0:0:0:0:
448,192,60969,128,0,61057:0:0:0:0:
192,192,61013,128,0,61101:0:0:0:0:
64,192,61057,128,0,61145:0:0:0:0:
320,192,61101,128,0,61190:0:0:0:0:
448,192,61145,128,0,61234:0:0:0:0:
192,192,61190,128,0,61278:0:0:0:0:
64,192,61234,128,0,61322:0:0:0:0:
320,192,61278,128,0,61366:0:0:0:0:
448,192,61322,128,0,61410:0:0:0:0:
192,192,61366,128,0,61454:0:0:0:0:
64,192,61410,128,0,61498:0:0:0:0:
320,192,61454,128,0,61543:0:0:0:0:
448,192,61498,128,0,61587:0:0:0:0:
192,192,61543,128,0,61631:0:0:0:0:
64,192,61587,128,0,61675:0:0:0:0:
320,192,61807,128,0,61851:0:0:0:0:
64,192,61984,128,0,62028:0:0:0:0:
448,192,61984,128,0,62028:0:0:0:0:
64,192,62160,128,0,62204:0:0:0:0:
448,192,62160,128,0,62204:0:0:0:0:
448,192,62337,128,0,62513:0:0:0:0:
320,192,62337,1,0,0:0:0:0:
192,192,62337,128,0,62425:0:0:0:0:
64,192,62337,128,0,62425:0:0:0:0:
320,192,62425,128,0,62601:0:0:0:0:
192,192,62513,128,0,62601:0:0:0:0:
64,192,62513,128,0,62690:0:0:0:0:
448,192,62601,128,0,62778:0:0:0:0:
192,192,62690,128,0,62778:0:0:0:0:
320,192,62690,128,0,62778:0:0:0:0:
64,192,62778,128,0,62866:0:0:0:0:
192,192,62866,128,0,62954:0:0:0:0:
320,192,62866,128,0,63043:0:0:0:0:
448,192,62866,128,0,62954:0:0:0:0:
64,192,62954,128,0,63131:0:0:0:0:
192,192,63043,128,0,63131:0:0:0:0:
448,192,63043,128,0,63219:0:0:0:0:
320,192,63131,128,0,63307:0:0:0:0:
192,192,63219,128,0,63395:0:0:0:0:
64,192,63219,128,0,63307:0:0:0:0:
448,192,63307,128,0,63484:0:0:0:0:
64,192,63395,128,0,63484:0:0:0:0:
320,192,63395,128,0,63484:0:0:0:0:
192,192,63484,128,0,63572:0:0:0:0:
320,192,63572,128,0,63660:0:0:0:0:
448,192,63572,128,0,63660:0:0:0:0:
64,192,63572,128,0,63748:0:0:0:0:
192,192,63660,128,0,63837:0:0:0:0:
320,192,63748,128,0,63837:0:0:0:0:
448,192,63748,128,0,63925:0:0:0:0:
64,192,63837,128,0,64013:0:0:0:0:
320,192,63925,128,0,64190:0:0:0:0:
192,192,63925,128,0,64013:0:0:0:0:
448,192,64013,128,0,64101:0:0:0:0:
64,192,64101,128,0,64190:0:0:0:0:
192,192,64101,128,0,64190:0:0:0:0:
448,192,64190,128,0,64278:0:0:0:0:
320,192,64278,128,0,64366:0:0:0:0:
192,192,64278,128,0,64454:0:0:0:0:
64,192,64278,128,0,64366:0:0:0:0:
448,192,64366,128,0,64543:0:0:0:0:
64,192,64454,128,0,64631:0:0:0:0:
320,192,64454,128,0,64543:0:0:0:0:
192,192,64543,128,0,64719:0:0:0:0:
320,192,64631,128,0,64807:0:0:0:0:
448,192,64631,128,0,64719:0:0:0:0:
64,192,64719,128,0,64895:0:0:0:0:
192,192,64807,128,0,64895:0:0:0:0:
448,192,64807,128,0,64895:0:0:0:0:
320,192,64895,128,0,64984:0:0:0:0:
192,192,64984,128,0,65072:0:0:0:0:
64,192,64984,128,0,65072:0:0:0:0:
448,192,64984,128,0,65160:0:0:0:0:
320,192,65072,128,0,65248:0:0:0:0:
192,192,65160,128,0,65337:0:0:0:0:
64,192,65160,128,0,65248:0:0:0:0:
448,192,65248,128,0,65425:0:0:0:0:
320,192,65337,128,0,65425:0:0:0:0:
64,192,65337,128,0,65513:0:0:0:0:
192,192,65425,128,0,65601:0:0:0:0:
320,192,65513,128,0,65601:0:0:0:0:
448,192,65513,128,0,65601:0:0:0:0:
64,192,65601,128,0,65690:0:0:0:0:
192,192,65690,128,0,65778:0:0:0:0:
320,192,65690,128,0,65866:0:0:0:0:
448,192,65690,128,0,65778:0:0:0:0:
64,192,65778,128,0,65954:0:0:0:0:
448,192,65866,128,0,66043:0:0:0:0:
192,192,65866,128,0,65954:0:0:0:0:
320,192,65954,128,0,66131:0:0:0:0:
192,192,66043,128,0,66219:0:0:0:0:
64,192,66043,128,0,66131:0:0:0:0:
448,192,66131,128,0,66307:0:0:0:0:
320,192,66219,128,0,66307:0:0:0:0:
64,192,66219,128,0,66307:0:0:0:0:
192,192,66307,128,0,66395:0:0:0:0:
320,192,66395,128,0,66484:0:0:0:0:
448,192,66395,128,0,66484:0:0:0:0:
64,192,66395,128,0,66572:0:0:0:0:
192,192,66484,128,0,66660:0:0:0:0:
320,192,66572,128,0,66660:0:0:0:0:
448,192,66572,128,0,66748:0:0:0:0:
64,192,66660,128,0,66837:0:0:0:0:
320,192,66748,128,0,66925:0:0:0:0:
192,192,66748,128,0,66837:0:0:0:0:
448,192,66837,128,0,67013:0:0:0:0:
192,192,66925,128,0,67101:0:0:0:0:
64,192,66925,128,0,67013:0:0:0:0:
320,192,67013,128,0,67190:0:0:0:0:
64,192,67101,128,0,67278:0:0:0:0:
448,192,67101,128,0,67190:0:0:0:0:
192,192,67190,128,0,67366:0:0:0:0:
320,192,67278,128,0,67454:0:0:0:0:
448,192,67278,128,0,67366:0:0:0:0:
64,192,67366,128,0,67543:0:0:0:0:
192,192,67454,128,0,67543:0:0:0:0:
448,192,67454,128,0,67631:0:0:0:0:
320,192,67543,128,0,67719:0:0:0:0:
192,192,67631,128,0,67895:0:0:0:0:
64,192,67631,128,0,67719:0:0:0:0:
448,192,67719,128,0,67895:0:0:0:0:
320,192,67807,128,0,67895:0:0:0:0:
64,192,67807,128,0,67895:0:0:0:0:
64,192,67984,128,0,68072:0:0:0:0:
192,192,67984,128,0,68072:0:0:0:0:
320,192,67984,128,0,68072:0:0:0:0:
448,192,67984,128,0,68072:0:0:0:0:
192,192,68337,128,0,68425:0:0:0:0:
448,192,68337,128,0,68425:0:0:0:0:
192,192,68513,128,0,68601:0:0:0:0:
448,192,68513,128,0,68601:0:0:0:0:
64,192,68513,128,0,68601:0:0:0:0:
64,192,68690,1,0,0:0:0:0:
192,192,68690,1,0,0:0:0:0:
320,192,68690,1,0,0:0:0:0:
448,192,68690,1,0,0:0:0:0:
64,192,69043,1,0,0:0:0:0:
192,192,69043,1,0,0:0:0:0:
448,192,69043,1,0,0:0:0:0:
64,192,69219,1,0,0:0:0:0:
192,192,69219,1,0,0:0:0:0:
320,192,69219,1,0,0:0:0:0:
448,192,69219,1,0,0:0:0:0:
64,192,69395,128,0,69484:0:0:0:0:
320,192,69395,128,0,69484:0:0:0:0:
448,192,69395,128,0,69484:0:0:0:0:
64,192,69572,128,0,69660:0:0:0:0:
192,192,69572,128,0,69660:0:0:0:0:
320,192,69748,128,0,69837:0:0:0:0:
448,192,69748,128,0,69837:0:0:0:0:
448,192,69925,1,0,0:0:0:0:
320,192,69925,1,0,0:0:0:0:
192,192,69925,1,0,0:0:0:0:
64,192,69925,1,0,0:0:0:0:
64,192,70101,1,0,0:0:0:0:
192,192,70101,1,0,0:0:0:0:
448,192,70101,1,0,0:0:0:0:
320,192,70278,128,0,70366:0:0:0:0:
448,192,70278,128,0,70366:0:0:0:0:
192,192,70454,128,0,70543:0:0:0:0:
320,192,70454,128,0,70543:0:0:0:0:
192,192,70631,1,0,0:0:0:0:
64,192,70631,1,0,0:0:0:0:
320,192,70631,1,0,0:0:0:0:
448,192,70631,1,0,0:0:0:0:
320,192,70807,128,0,70984:0:0:0:0:
448,192,70807,128,0,70895:0:0:0:0:
192,192,70895,128,0,71072:0:0:0:0:
64,192,70984,128,0,71072:0:0:0:0:
448,192,70984,128,0,71248:0:0:0:0:
320,192,71072,128,0,71160:0:0:0:0:
192,192,71160,128,0,71337:0:0:0:0:
64,192,71160,128,0,71248:0:0:0:0:
320,192,71248,128,0,71425:0:0:0:0:
448,192,71337,128,0,71425:0:0:0:0:
64,192,71337,128,0,71513:0:0:0:0:
192,192,71425,128,0,71601:0:0:0:0:
320,192,71513,128,0,71601:0:0:0:0:
448,192,71513,128,0,71690:0:0:0:0:
64,192,71601,128,0,71778:0:0:0:0:
192,192,71690,128,0,71778:0:0:0:0:
320,192,71690,128,0,71866:0:0:0:0:
448,192,71778,128,0,71954:0:0:0:0:
192,192,71866,128,0,72043:0:0:0:0:
64,192,71866,128,0,71954:0:0:0:0:
320,192,71954,128,0,72131:0:0:0:0:
64,192,72043,128,0,72307:0:0:0:0:
448,192,72043,128,0,72131:0:0:0:0:
192,192,72131,128,0,72219:0:0:0:0:
320,192,72219,128,0,72660:0:0:0:0:
448,192,72219,128,0,72395:0:0:0:0:
192,192,72307,128,0,72484:0:0:0:0:
64,192,72395,128,0,72484:0:0:0:0:
448,192,72484,128,0,72660:0:0:0:0:
192,192,72572,128,0,72660:0:0:0:0:
64,192,72572,128,0,72660:0:0:0:0:
64,192,72748,1,0,0:0:0:0:
192,192,72748,1,0,0:0:0:0:
320,192,72748,1,0,0:0:0:0:
448,192,72748,1,0,0:0:0:0:
320,192,72925,1,0,0:0:0:0:
448,192,72925,1,0,0:0:0:0:
320,192,73101,1,0,0:0:0:0:
448,192,73101,1,0,0:0:0:0:
64,192,73190,128,0,73278:0:0:0:0:
192,192,73234,128,0,73322:0:0:0:0:
320,192,73278,128,0,73366:0:0:0:0:
448,192,73322,128,0,73410:0:0:0:0:
64,192,73366,128,0,73454:0:0:0:0:
192,192,73410,128,0,73498:0:0:0:0:
448,192,73454,128,0,73543:0:0:0:0:
320,192,73498,128,0,73587:0:0:0:0:
192,192,73543,1,0,0:0:0:0:
448,192,73631,128,0,73807:0:0:0:0:
320,192,73631,1,0,0:0:0:0:
192,192,73631,128,0,73719:0:0:0:0:
64,192,73631,128,0,73719:0:0:0:0:
320,192,73719,128,0,73895:0:0:0:0:
192,192,73807,128,0,73895:0:0:0:0:
64,192,73807,128,0,73984:0:0:0:0:
448,192,73895,128,0,74072:0:0:0:0:
192,192,73984,128,0,74072:0:0:0:0:
320,192,73984,128,0,74072:0:0:0:0:
64,192,74072,128,0,74160:0:0:0:0:
192,192,74160,128,0,74248:0:0:0:0:
320,192,74160,128,0,74337:0:0:0:0:
448,192,74160,128,0,74248:0:0:0:0:
64,192,74248,128,0,74425:0:0:0:0:
192,192,74337,128,0,74425:0:0:0:0:
448,192,74337,128,0,74513:0:0:0:0:
320,192,74425,128,0,74601:0:0:0:0:
192,192,74513,128,0,74690:0:0:0:0:
64,192,74513,128,0,74601:0:0:0:0:
448,192,74601,128,0,74778:0:0:0:0:
64,192,74690,128,0,74778:0:0:0:0:
320,192,74690,128,0,74778:0:0:0:0:
192,192,74778,128,0,74866:0:0:0:0:
320,192,74866,128,0,74954:0:0:0:0:
448,192,74866,128,0,74954:0:0:0:0:
64,192,74866,128,0,75043:0:0:0:0:
192,192,74954,128,0,75131:0:0:0:0:
320,192,75043,128,0,75131:0:0:0:0:
448,192,75043,128,0,75219:0:0:0:0:
64,192,75131,128,0,75307:0:0:0:0:
320,192,75219,128,0,75484:0:0:0:0:
192,192,75219,128,0,75307:0:0:0:0:
448,192,75307,128,0,75395:0:0:0:0:
64,192,75395,128,0,75484:0:0:0:0:
192,192,75395,128,0,75484:0:0:0:0:
448,192,75484,128,0,75572:0:0:0:0:
320,192,75572,128,0,75660:0:0:0:0:
192,192,75572,128,0,75748:0:0:0:0:
64,192,75572,128,0,75660:0:0:0:0:
448,192,75660,128,0,75837:0:0:0:0:
64,192,75748,128,0,75925:0:0:0:0:
320,192,75748,128,0,75837:0:0:0:0:
192,192,75837,128,0,76013:0:0:0:0:
320,192,75925,128,0,76101:0:0:0:0:
448,192,75925,128,0,76013:0:0:0:0:
64,192,76013,128,0,76190:0:0:0:0:
192,192,76101,128,0,76190:0:0:0:0:
448,192,76101,128,0,76190:0:0:0:0:
320,192,76190,128,0,76278:0:0:0:0:
192,192,76278,128,0,76366:0:0:0:0:
64,192,76278,128,0,76366:0:0:0:0:
448,192,76278,128,0,76454:0:0:0:0:
320,192,76366,128,0,76543:0:0:0:0:
192,192,76454,128,0,76631:0:0:0:0:
64,192,76454,128,0,76543:0:0:0:0:
448,192,76543,128,0,76719:0:0:0:0:
320,192,76631,128,0,76719:0:0:0:0:
64,192,76631,128,0,76807:0:0:0:0:
192,192,76719,128,0,76895:0:0:0:0:
320,192,76807,128,0,76895:0:0:0:0:
448,192,76807,128,0,76895:0:0:0:0:
64,192,76895,128,0,76984:0:0:0:0:
192,192,76984,128,0,77072:0:0:0:0:
320,192,76984,128,0,77160:0:0:0:0:
448,192,76984,128,0,77072:0:0:0:0:
64,192,77072,128,0,77248:0:0:0:0:
448,192,77160,128,0,77337:0:0:0:0:
192,192,77160,128,0,77248:0:0:0:0:
320,192,77248,128,0,77425:0:0:0:0:
192,192,77337,128,0,77513:0:0:0:0:
64,192,77337,128,0,77425:0:0:0:0:
448,192,77425,128,0,77601:0:0:0:0:
320,192,77513,128,0,77601:0:0:0:0:
64,192,77513,128,0,77601:0:0:0:0:
192,192,77601,128,0,77690:0:0:0:0:
320,192,77690,128,0,77778:0:0:0:0:
448,192,77690,128,0,77778:0:0:0:0:
64,192,77690,128,0,77866:0:0:0:0:
192,192,77778,128,0,77954:0:0:0:0:
320,192,77866,128,0,77954:0:0:0:0:
448,192,77866,128,0,78043:0:0:0:0:
64,192,77954,128,0,78131:0:0:0:0:
320,192,78043,128,0,78219:0:0:0:0:
192,192,78043,128,0,78131:0:0:0:0:
448,192,78131,128,0,78307:0:0:0:0:
192,192,78219,128,0,78395:0:0:0:0:
64,192,78219,128,0,78307:0:0:0:0:
320,192,78307,128,0,78484:0:0:0:0:
64,192,78395,128,0,78572:0:0:0:0:
448,192,78395,128,0,78484:0:0:0:0:
192,192,78484,128,0,78660:0:0:0:0:
320,192,78572,128,0,78748:0:0:0:0:
448,192,78572,128,0,78660:0:0:0:0:
64,192,78660,128,0,78837:0:0:0:0:
192,192,78748,128,0,78837:0:0:0:0:
448,192,78748,128,0,78925:0:0:0:0:
320,192,78837,128,0,79013:0:0:0:0:
192,192,78925,128,0,79190:0:0:0:0:
64,192,78925,128,0,79013:0:0:0:0:
448,192,79013,128,0,79190:0:0:0:0:
320,192,79101,128,0,79190:0:0:0:0:
64,192,79101,128,0,79366:0:0:0:0:
320,192,79278,128,0,79366:0:0:0:0:
448,192,79278,128,0,79366:0:0:0:0:
192,192,79278,128,0,79366:0:0:0:0:
320,192,79454,1,0,0:0:0:0:
448,192,79454,128,0,80072:0:0:0:0:
192,192,79454,128,0,79543:0:0:0:0:
64,192,79454,128,0,79631:0:0:0:0:
320,192,79631,128,0,79719:0:0:0:0:
192,192,79719,128,0,79807:0:0:0:0:
64,192,79807,128,0,79895:0:0:0:0:
192,192,79895,128,0,79984:0:0:0:0:
320,192,79984,128,0,80072:0:0:0:0:
192,192,80072,128,0,80160:0:0:0:0:
64,192,80160,128,0,80337:0:0:0:0:
320,192,80160,128,0,80248:0:0:0:0:
448,192,80160,128,0,80248:0:0:0:0:
192,192,80248,128,0,80337:0:0:0:0:
448,192,80337,128,0,80513:0:0:0:0:
320,192,80337,128,0,80425:0:0:0:0:
64,192,80425,128,0,80513:0:0:0:0:
192,192,80513,128,0,80690:0:0:0:0:
320,192,80513,128,0,80601:0:0:0:0:
448,192,80601,128,0,80690:0:0:0:0:
320,192,80690,128,0,81219:0:0:0:0:
64,192,80690,128,0,80778:0:0:0:0:
192,192,80778,128,0,80866:0:0:0:0:
448,192,80866,128,0,80954:0:0:0:0:
192,192,80954,128,0,81043:0:0:0:0:
64,192,81043,128,0,81307:0:0:0:0:
192,192,81131,128,0,81307:0:0:0:0:
448,192,81219,128,0,81484:0:0:0:0:
320,192,81307,128,0,81484:0:0:0:0:
64,192,81395,128,0,81660:0:0:0:0:
192,192,81395,128,0,81484:0:0:0:0:
320,192,81572,1,0,0:0:0:0:
448,192,81572,1,0,0:0:0:0:
192,192,81660,1,0,0:0:0:0:
64,192,81748,1,0,0:0:0:0:
448,192,81748,1,0,0:0:0:0:
320,192,81837,1,0,0:0:0:0:
64,192,81925,1,0,0:0:0:0:
192,192,81925,1,0,0:0:0:0:
320,192,82013,1,0,0:0:0:0:
448,192,82013,1,0,0:0:0:0:
64,192,82101,128,0,82366:0:0:0:0:
192,192,82101,128,0,82190:0:0:0:0:
320,192,82101,128,0,82190:0:0:0:0:
448,192,82101,128,0,82190:0:0:0:0:
192,192,82278,128,0,82543:0:0:0:0:
320,192,82278,128,0,82366:0:0:0:0:
448,192,82278,128,0,82366:0:0:0:0:
64,192,82454,128,0,82719:0:0:0:0:
320,192,82454,128,0,82543:0:0:0:0:
448,192,82454,128,0,82543:0:0:0:0:
192,192,82631,128,0,82895:0:0:0:0:
320,192,82631,128,0,82719:0:0:0:0:
448,192,82631,128,0,82719:0:0:0:0:
64,192,82807,128,0,83072:0:0:0:0:
320,192,82807,128,0,82895:0:0:0:0:
448,192,82807,128,0,82895:0:0:0:0:
192,192,82984,128,0,83248:0:0:0:0:
448,192,82984,128,0,83072:0:0:0:0:
320,192,82984,128,0,83072:0:0:0:0:
64,192,83160,128,0,83425:0:0:0:0:
448,192,83160,128,0,83248:0:0:0:0:
320,192,83160,128,0,83248:0:0:0:0:
192,192,83337,128,0,83425:0:0:0:0:
320,192,83337,128,0,83425:0:0:0:0:
448,192,83337,128,0,83425:0:0:0:0:
320,192,83513,128,0,83601:0:0:0:0:
448,192,83513,128,0,83778:0:0:0:0:
192,192,83513,128,0,83601:0:0:0:0:
64,192,83513,128,0,83601:0:0:0:0:
320,192,83690,128,0,83954:0:0:0:0:
64,192,83690,128,0,83778:0:0:0:0:
192,192,83690,128,0,83778:0:0:0:0:
448,192,83866,128,0,84131:0:0:0:0:
192,192,83866,128,0,83954:0:0:0:0:
64,192,83866,128,0,83954:0:0:0:0:
320,192,84043,128,0,84307:0:0:0:0:
64,192,84043,128,0,84131:0:0:0:0:
192,192,84043,128,0,84131:0:0:0:0:
448,192,84219,128,0,84484:0:0:0:0:
64,192,84219,128,0,84307:0:0:0:0:
192,192,84219,128,0,84307:0:0:0:0:
320,192,84395,128,0,84660:0:0:0:0:
64,192,84395,128,0,84484:0:0:0:0:
192,192,84395,128,0,84484:0:0:0:0:
448,192,84572,128,0,84837:0:0:0:0:
192,192,84572,128,0,84660:0:0:0:0:
64,192,84572,128,0,84660:0:0:0:0:
320,192,84748,128,0,84837:0:0:0:0:
64,192,84748,128,0,84837:0:0:0:0:
192,192,84748,128,0,84837:0:0:0:0:
448,192,84925,128,0,85013:0:0:0:0:
192,192,84925,128,0,85013:0:0:0:0:
320,192,84925,128,0,85013:0:0:0:0:
64,192,84925,128,0,85190:0:0:0:0:
192,192,85101,128,0,85366:0:0:0:0:
320,192,85101,128,0,85190:0:0:0:0:
448,192,85101,128,0,85190:0:0:0:0:
448,192,85278,128,0,85543:0:0:0:0:
320,192,85278,128,0,85366:0:0:0:0:
64,192,85278,128,0,85366:0:0:0:0:
320,192,85454,128,0,85719:0:0:0:0:
64,192,85454,128,0,85543:0:0:0:0:
192,192,85454,128,0,85543:0:0:0:0:
64,192,85631,128,0,85719:0:0:0:0:
448,192,85631,128,0,85719:0:0:0:0:
192,192,85631,128,0,85719:0:0:0:0:
320,192,85807,1,0,0:0:0:0:
448,192,85807,1,0,0:0:0:0:
192,192,85895,1,0,0:0:0:0:
64,192,85895,1,0,0:0:0:0:
320,192,85984,1,0,0:0:0:0:
448,192,85984,1,0,0:0:0:0:
192,192,86072,1,0,0:0:0:0:
64,192,86072,1,0,0:0:0:0:
64,192,86160,1,0,0:0:0:0:
192,192,86160,1,0,0:0:0:0:
448,192,86160,1,0,0:0:0:0:
320,192,86160,1,0,0:0:0:0:
64,192,86337,128,0,86425:0:0:0:0:
192,192,86337,128,0,86425:0:0:0:0:
448,192,86337,128,0,86425:0:0:0:0:
448,192,86690,128,0,86734:0:0:0:0:
64,192,87043,128,0,87087:0:0:0:0:
192,192,87395,128,0,87440:0:0:0:0:
320,192,87572,128,0,87616:0:0:0:0:
448,192,87748,128,0,87793:0:0:0:0:
64,192,87837,1,0,0:0:0:0:
192,192,87837,1,0,0:0:0:0:
64,192,87925,5,0,0:0:0:0:
320,192,87925,1,0,0:0:0:0:
192,192,87925,1,0,0:0:0:0:
448,192,87925,128,0,88278:0:0:0:0:
192,192,88278,128,0,88454:0:0:0:0:
64,192,88278,1,0,0:0:0:0:
320,192,88278,1,0,0:0:0:0:
320,192,88454,128,0,88807:0:0:0:0:
448,192,88631,1,0,0:0:0:0:
64,192,88631,1,0,0:0:0:0:
64,192,88807,128,0,89160:0:0:0:0:
192,192,88807,1,0,0:0:0:0:
448,192,88807,1,0,0:0:0:0:
320,192,88984,1,0,0:0:0:0:
448,192,88984,1,0,0:0:0:0:
192,192,88984,1,0,0:0:0:0:
192,192,89160,128,0,89513:0:0:0:0:
448,192,89160,1,0,0:0:0:0:
320,192,89337,1,0,0:0:0:0:
64,192,89337,1,0,0:0:0:0:
448,192,89513,128,0,89866:0:0:0:0:
320,192,89690,1,0,0:0:0:0:
192,192,89690,128,0,89954:0:0:0:0:
64,192,89690,128,0,89778:0:0:0:0:
64,192,89866,128,0,90043:0:0:0:0:
320,192,89866,128,0,89954:0:0:0:0:
448,192,89954,128,0,90043:0:0:0:0:
320,192,90043,128,0,90219:0:0:0:0:
192,192,90043,128,0,90131:0:0:0:0:
64,192,90131,128,0,90307:0:0:0:0:
192,192,90219,128,0,90395:0:0:0:0:
448,192,90219,128,0,90307:0:0:0:0:
320,192,90307,128,0,90395:0:0:0:0:
448,192,90395,128,0,90748:0:0:0:0:
64,192,90395,128,0,90484:0:0:0:0:
192,192,90484,128,0,90660:0:0:0:0:
64,192,90572,128,0,90660:0:0:0:0:
320,192,90572,128,0,90748:0:0:0:0:
64,192,90748,128,0,91101:0:0:0:0:
192,192,90748,128,0,90837:0:0:0:0:
320,192,90837,128,0,90925:0:0:0:0:
448,192,90925,128,0,91013:0:0:0:0:
192,192,91013,128,0,91101:0:0:0:0:
320,192,91101,128,0,91278:0:0:0:0:
448,192,91101,128,0,91190:0:0:0:0:
64,192,91190,128,0,91278:0:0:0:0:
192,192,91278,128,0,91631:0:0:0:0:
448,192,91278,128,0,91366:0:0:0:0:
320,192,91366,128,0,91454:0:0:0:0:
64,192,91454,128,0,91543:0:0:0:0:
320,192,91543,128,0,91631:0:0:0:0:
448,192,91631,128,0,91895:0:0:0:0:
64,192,91631,128,0,91719:0:0:0:0:
320,192,91719,128,0,91895:0:0:0:0:
192,192,91807,128,0,91895:0:0:0:0:
64,192,91807,128,0,91895:0:0:0:0:
64,192,91984,1,0,0:0:0:0:
192,192,91984,1,0,0:0:0:0:
320,192,91984,1,0,0:0:0:0:
448,192,91984,1,0,0:0:0:0:
64,192,92337,128,0,92425:0:0:0:0:
192,192,92337,128,0,92425:0:0:0:0:
448,192,92337,128,0,92425:0:0:0:0:
448,192,92513,128,0,92601:0:0:0:0:
192,192,92513,128,0,92601:0:0:0:0:
64,192,92513,128,0,92601:0:0:0:0:
192,192,92690,128,0,92778:0:0:0:0:
64,192,92690,128,0,92778:0:0:0:0:
448,192,92690,128,0,92778:0:0:0:0:
448,192,92866,1,0,0:0:0:0:
320,192,92866,1,0,0:0:0:0:
192,192,92866,1,0,0:0:0:0:
64,192,92866,1,0,0:0:0:0:
448,192,93043,1,0,0:0:0:0:
64,192,93043,1,0,0:0:0:0:
192,192,93131,1,0,0:0:0:0:
320,192,93131,1,0,0:0:0:0:
64,192,93219,1,0,0:0:0:0:
448,192,93219,1,0,0:0:0:0:
64,192,93395,1,0,0:0:0:0:
320,192,93395,1,0,0:0:0:0:
448,192,93395,1,0,0:0:0:0:
64,192,93572,5,0,0:0:0:0:
192,192,93572,1,0,0:0:0:0:
320,192,93572,1,0,0:0:0:0:
448,192,93572,1,0,0:0:0:0:
64,192,93748,128,0,93837:0:0:0:0:
192,192,93925,128,0,94013:0:0:0:0:
320,192,94101,128,0,94190:0:0:0:0:
448,192,94278,128,0,94366:0:0:0:0:
64,192,94454,128,0,94543:0:0:0:0:
320,192,94631,128,0,94719:0:0:0:0:
64,192,94807,1,0,0:0:0:0:
192,192,94807,1,0,0:0:0:0:
320,192,94807,1,0,0:0:0:0:
448,192,94807,1,0,0:0:0:0:
448,192,94984,128,0,95072:0:0:0:0:
192,192,95160,128,0,95248:0:0:0:0:
64,192,95337,1,0,0:0:0:0:
320,192,95337,1,0,0:0:0:0:
448,192,95337,1,0,0:0:0:0:
192,192,95337,1,0,0:0:0:0:
448,192,95513,128,0,95601:0:0:0:0:
320,192,95690,128,0,95778:0:0:0:0:
192,192,95866,128,0,95954:0:0:0:0:
64,192,96043,128,0,96131:0:0:0:0:
320,192,96219,128,0,96307:0:0:0:0:
64,192,96395,1,0,0:0:0:0:
192,192,96395,1,0,0:0:0:0:
320,192,96395,1,0,0:0:0:0:
448,192,96395,1,0,0:0:0:0:
64,192,96572,1,0,0:0:0:0:
192,192,96572,1,0,0:0:0:0:
320,192,96572,1,0,0:0:0:0:
448,192,96572,1,0,0:0:0:0:
64,192,96748,128,0,96837:0:0:0:0:
320,192,96925,128,0,97013:0:0:0:0:
192,192,97101,128,0,97190:0:0:0:0:
448,192,97278,128,0,97366:0:0:0:0:
64,192,97454,128,0,97543:0:0:0:0:
448,192,97631,128,0,98072:0:0:0:0:
320,192,97631,128,0,98072:0:0:0:0:
192,192,97631,128,0,98072:0:0:0:0:
64,192,97631,128,0,98072:0:0:0:0:
320,192,98337,1,0,0:0:0:0:
448,192,98337,1,0,0:0:0:0:
64,192,98513,1,0,0:0:0:0:
192,192,98513,1,0,0:0:0:0:
448,192,98513,1,0,0:0:0:0:
64,192,98690,1,0,0:0:0:0:
192,192,98690,1,0,0:0:0:0:
320,192,98778,1,0,0:0:0:0:
448,192,98778,1,0,0:0:0:0:
192,192,98866,1,0,0:0:0:0:
64,192,98866,1,0,0:0:0:0:
320,192,99043,1,0,0:0:0:0:
448,192,99043,1,0,0:0:0:0:
64,192,99219,1,0,0:0:0:0:
192,192,99219,1,0,0:0:0:0:
320,192,99219,1,0,0:0:0:0:
448,192,99219,1,0,0:0:0:0:
64,192,99395,1,0,0:0:0:0:
192,192,99484,1,0,0:0:0:0:
320,192,99572,1,0,0:0:0:0:
448,192,99572,1,0,0:0:0:0:
64,192,99660,1,0,0:0:0:0:
448,192,99748,1,0,0:0:0:0:
320,192,99837,1,0,0:0:0:0:
192,192,99925,1,0,0:0:0:0:
64,192,99925,1,0,0:0:0:0:
448,192,100013,1,0,0:0:0:0:
320,192,100101,1,0,0:0:0:0:
64,192,100190,1,0,0:0:0:0:
320,192,100278,1,0,0:0:0:0:
448,192,100278,1,0,0:0:0:0:
64,192,100366,1,0,0:0:0:0:
448,192,100454,1,0,0:0:0:0:
192,192,100454,1,0,0:0:0:0:
320,192,100543,1,0,0:0:0:0:
192,192,100631,1,0,0:0:0:0:
64,192,100631,1,0,0:0:0:0:
448,192,100719,1,0,0:0:0:0:
64,192,100807,1,0,0:0:0:0:
192,192,100895,1,0,0:0:0:0:
320,192,100984,1,0,0:0:0:0:
448,192,100984,1,0,0:0:0:0:
64,192,101072,1,0,0:0:0:0:
192,192,101160,1,0,0:0:0:0:
320,192,101248,1,0,0:0:0:0:
64,192,101337,1,0,0:0:0:0:
448,192,101337,1,0,0:0:0:0:
192,192,101425,1,0,0:0:0:0:
448,192,101513,1,0,0:0:0:0:
320,192,101601,1,0,0:0:0:0:
192,192,101690,1,0,0:0:0:0:
64,192,101690,1,0,0:0:0:0:
448,192,101778,1,0,0:0:0:0:
320,192,101866,1,0,0:0:0:0:
192,192,101954,1,0,0:0:0:0:
448,192,102043,1,0,0:0:0:0:
320,192,102043,1,0,0:0:0:0:
64,192,102131,1,0,0:0:0:0:
192,192,102219,1,0,0:0:0:0:
320,192,102307,1,0,0:0:0:0:
448,192,102395,1,0,0:0:0:0:
64,192,102395,1,0,0:0:0:0:
192,192,102484,1,0,0:0:0:0:
320,192,102572,1,0,0:0:0:0:
448,192,102660,1,0,0:0:0:0:
64,192,102748,1,0,0:0:0:0:
192,192,102748,1,0,0:0:0:0:
320,192,102925,1,0,0:0:0:0:
448,192,102925,1,0,0:0:0:0:
320,192,103101,1,0,0:0:0:0:
448,192,103101,1,0,0:0:0:0:
64,192,103278,128,0,103631:0:0:0:0:
192,192,103278,128,0,103631:0:0:0:0:
320,192,103278,128,0,103631:0:0:0:0:
448,192,103278,128,0,103631:0:0:0:0:
64,192,104160,5,0,0:0:0:0:
448,192,104160,1,0,0:0:0:0:
320,192,104248,1,0,0:0:0:0:
64,192,104337,1,0,0:0:0:0:
192,192,104337,1,0,0:0:0:0:
320,192,104425,1,0,0:0:0:0:
448,192,104425,1,0,0:0:0:0:
64,192,104513,1,0,0:0:0:0:
192,192,104513,1,0,0:0:0:0:
320,192,104601,1,0,0:0:0:0:
448,192,104601,1,0,0:0:0:0:
192,192,104690,1,0,0:0:0:0:
64,192,104690,1,0,0:0:0:0:
320,192,104778,1,0,0:0:0:0:
448,192,104778,1,0,0:0:0:0:
192,192,104866,1,0,0:0:0:0:
64,192,104866,1,0,0:0:0:0:
448,192,104866,128,0,105131:0:0:0:0:
320,192,104866,128,0,105131:0:0:0:0:
64,192,105043,128,0,105131:0:0:0:0:
192,192,105043,128,0,105131:0:0:0:0:
448,192,105219,128,0,105307:0:0:0:0:
320,192,105219,128,0,105307:0:0:0:0:
64,192,105219,128,0,105307:0:0:0:0:
192,192,105395,128,0,105484:0:0:0:0:
320,192,105395,128,0,105484:0:0:0:0:
448,192,105572,128,0,105660:0:0:0:0:
192,192,105572,128,0,105660:0:0:0:0:
320,192,105748,128,0,105837:0:0:0:0:
448,192,105748,128,0,105837:0:0:0:0:
448,192,105925,128,0,106013:0:0:0:0:
192,192,105925,128,0,106013:0:0:0:0:
64,192,105925,128,0,106013:0:0:0:0:
320,192,106101,128,0,106190:0:0:0:0:
64,192,106101,128,0,106190:0:0:0:0:
192,192,106278,128,0,106366:0:0:0:0:
64,192,106278,128,0,106366:0:0:0:0:
320,192,106454,128,0,106543:0:0:0:0:
192,192,106454,128,0,106543:0:0:0:0:
448,192,106631,128,0,106719:0:0:0:0:
320,192,106631,128,0,106719:0:0:0:0:
64,192,106631,128,0,106719:0:0:0:0:
192,192,106807,128,0,106895:0:0:0:0:
64,192,106807,128,0,106895:0:0:0:0:
320,192,106895,128,0,106984:0:0:0:0:
448,192,106984,128,0,107072:0:0:0:0:
64,192,106984,128,0,107072:0:0:0:0:
320,192,107160,128,0,107248:0:0:0:0:
448,192,107160,128,0,107248:0:0:0:0:
448,192,107337,128,0,107425:0:0:0:0:
192,192,107337,128,0,107425:0:0:0:0:
64,192,107337,128,0,107425:0:0:0:0:
64,192,107513,128,0,107690:0:0:0:0:
192,192,107601,128,0,107778:0:0:0:0:
320,192,107690,128,0,107778:0:0:0:0:
448,192,107690,128,0,107866:0:0:0:0:
64,192,107778,128,0,107954:0:0:0:0:
320,192,107866,128,0,108043:0:0:0:0:
192,192,107866,128,0,107954:0:0:0:0:
448,192,107954,128,0,108131:0:0:0:0:
192,192,108043,128,0,108219:0:0:0:0:
64,192,108043,128,0,108131:0:0:0:0:
320,192,108131,128,0,108307:0:0:0:0:
448,192,108219,128,0,108307:0:0:0:0:
64,192,108219,128,0,108395:0:0:0:0:
192,192,108307,128,0,108484:0:0:0:0:
320,192,108395,128,0,108572:0:0:0:0:
448,192,108395,128,0,108484:0:0:0:0:
64,192,108484,128,0,108660:0:0:0:0:
192,192,108572,128,0,108660:0:0:0:0:
448,192,108572,128,0,108748:0:0:0:0:
320,192,108660,128,0,108837:0:0:0:0:
192,192,108748,128,0,108837:0:0:0:0:
64,192,108748,128,0,108925:0:0:0:0:
448,192,108837,128,0,109013:0:0:0:0:
320,192,108925,128,0,109013:0:0:0:0:
192,192,108925,128,0,109101:0:0:0:0:
64,192,109013,128,0,109190:0:0:0:0:
320,192,109101,128,0,109278:0:0:0:0:
448,192,109101,128,0,109190:0:0:0:0:
192,192,109190,128,0,109366:0:0:0:0:
448,192,109278,128,0,109454:0:0:0:0:
64,192,109278,128,0,109366:0:0:0:0:
320,192,109366,128,0,109543:0:0:0:0:
192,192,109454,128,0,109543:0:0:0:0:
64,192,109454,128,0,109631:0:0:0:0:
448,192,109543,128,0,109719:0:0:0:0:
320,192,109631,128,0,109719:0:0:0:0:
192,192,109631,128,0,109895:0:0:0:0:
64,192,109719,128,0,109807:0:0:0:0:
320,192,109807,128,0,109895:0:0:0:0:
448,192,109807,128,0,109984:0:0:0:0:
64,192,109895,128,0,110072:0:0:0:0:
192,192,109984,128,0,110072:0:0:0:0:
320,192,109984,128,0,110160:0:0:0:0:
448,192,110072,128,0,110160:0:0:0:0:
192,192,110160,128,0,110248:0:0:0:0:
64,192,110160,128,0,110248:0:0:0:0:
320,192,110248,128,0,110337:0:0:0:0:
448,192,110248,128,0,110337:0:0:0:0:
192,192,110337,1,0,0:0:0:0:
64,192,110337,1,0,0:0:0:0:
320,192,110425,1,0,0:0:0:0:
448,192,110425,1,0,0:0:0:0:
192,192,110513,1,0,0:0:0:0:
64,192,110513,1,0,0:0:0:0:
320,192,110513,1,0,0:0:0:0:
448,192,110513,1,0,0:0:0:0:
448,192,110690,128,0,110778:0:0:0:0:
320,192,110690,128,0,110778:0:0:0:0:
64,192,110866,128,0,110954:0:0:0:0:
192,192,110866,128,0,110954:0:0:0:0:
448,192,110866,128,0,110954:0:0:0:0:
320,192,111043,128,0,111131:0:0:0:0:
192,192,111043,128,0,111131:0:0:0:0:
64,192,111219,128,0,111307:0:0:0:0:
320,192,111219,128,0,111307:0:0:0:0:
192,192,111395,128,0,111484:0:0:0:0:
64,192,111395,128,0,111484:0:0:0:0:
64,192,111572,128,0,111660:0:0:0:0:
320,192,111572,128,0,111660:0:0:0:0:
448,192,111572,128,0,111660:0:0:0:0:
192,192,111748,128,0,111837:0:0:0:0:
448,192,111748,128,0,111837:0:0:0:0:
64,192,111748,128,0,112013:0:0:0:0:
320,192,111925,128,0,112013:0:0:0:0:
448,192,111925,128,0,112013:0:0:0:0:
192,192,112101,128,0,112190:0:0:0:0:
320,192,112101,128,0,112190:0:0:0:0:
64,192,112278,128,0,112366:0:0:0:0:
192,192,112278,128,0,112366:0:0:0:0:
448,192,112278,128,0,112366:0:0:0:0:
320,192,112454,128,0,112543:0:0:0:0:
448,192,112454,128,0,112543:0:0:0:0:
192,192,112543,128,0,112631:0:0:0:0:
64,192,112631,128,0,112719:0:0:0:0:
448,192,112631,128,0,112719:0:0:0:0:
192,192,112807,128,0,112895:0:0:0:0:
64,192,112807,128,0,112895:0:0:0:0:
64,192,112984,128,0,113072:0:0:0:0:
320,192,112984,128,0,113072:0:0:0:0:
448,192,112984,128,0,113072:0:0:0:0:
448,192,113160,128,0,113248:0:0:0:0:
320,192,113160,128,0,113248:0:0:0:0:
192,192,113337,128,0,113425:0:0:0:0:
64,192,113337,128,0,113513:0:0:0:0:
448,192,113425,128,0,113601:0:0:0:0:
192,192,113513,128,0,113690:0:0:0:0:
320,192,113513,128,0,113601:0:0:0:0:
64,192,113601,128,0,113778:0:0:0:0:
320,192,113690,128,0,113866:0:0:0:0:
448,192,113690,128,0,113778:0:0:0:0:
192,192,113778,128,0,113954:0:0:0:0:
64,192,113866,128,0,113954:0:0:0:0:
448,192,113866,128,0,114043:0:0:0:0:
320,192,113954,128,0,114131:0:0:0:0:
192,192,114043,128,0,114219:0:0:0:0:
64,192,114043,128,0,114131:0:0:0:0:
448,192,114131,128,0,114307:0:0:0:0:
320,192,114219,128,0,114307:0:0:0:0:
64,192,114219,128,0,114395:0:0:0:0:
192,192,114307,128,0,114484:0:0:0:0:
448,192,114395,128,0,114484:0:0:0:0:
320,192,114395,128,0,114484:0:0:0:0:
64,192,114484,128,0,114837:0:0:0:0:
192,192,114572,128,0,114837:0:0:0:0:
320,192,114572,128,0,114837:0:0:0:0:
448,192,114572,128,0,114837:0:0:0:0:
448,192,114925,1,0,0:0:0:0:
320,192,114925,1,0,0:0:0:0:
448,192,115101,1,0,0:0:0:0:
320,192,115101,1,0,0:0:0:0:
192,192,115101,1,0,0:0:0:0:
64,192,115101,1,0,0:0:0:0:
192,192,115454,1,0,0:0:0:0:
64,192,115454,1,0,0:0:0:0:
320,192,115543,1,0,0:0:0:0:
448,192,115631,1,0,0:0:0:0:
64,192,115631,1,0,0:0:0:0:
192,192,115719,1,0,0:0:0:0:
448,192,115807,128,0,116072:0:0:0:0:
320,192,115807,128,0,116072:0:0:0:0:
192,192,115984,128,0,116072:0:0:0:0:
64,192,115984,128,0,116072:0:0:0:0:
192,192,116160,1,0,0:0:0:0:
64,192,116160,1,0,0:0:0:0:
320,192,116160,128,0,116601:0:0:0:0:
448,192,116160,128,0,116601:0:0:0:0:
192,192,116513,128,0,116866:0:0:0:0:
64,192,116513,128,0,116866:0:0:0:0:
448,192,116690,128,0,117219:0:0:0:0:
320,192,116690,128,0,117219:0:0:0:0:
192,192,117043,128,0,117131:0:0:0:0:
64,192,117043,128,0,117131:0:0:0:0:
192,192,117219,1,0,0:0:0:0:
64,192,117219,1,0,0:0:0:0:
320,192,117395,1,0,0:0:0:0:
448,192,117395,1,0,0:0:0:0:
192,192,117395,128,0,117748:0:0:0:0:
64,192,117395,128,0,117925:0:0:0:0:
320,192,117748,1,0,0:0:0:0:
448,192,117748,128,0,118190:0:0:0:0:
192,192,117925,1,0,0:0:0:0:
320,192,117925,1,0,0:0:0:0:
64,192,118101,128,0,118190:0:0:0:0:
192,192,118101,128,0,118190:0:0:0:0:
320,192,118190,1,0,0:0:0:0:
192,192,118278,1,0,0:0:0:0:
448,192,118278,128,0,118366:0:0:0:0:
64,192,118278,128,0,118366:0:0:0:0:
64,192,118454,128,0,118543:0:0:0:0:
448,192,118454,128,0,118543:0:0:0:0:
448,192,118631,128,0,118895:0:0:0:0:
64,192,118631,128,0,118895:0:0:0:0:
192,192,118631,128,0,118895:0:0:0:0:
320,192,118984,128,0,119160:0:0:0:0:
448,192,118984,128,0,119072:0:0:0:0:
64,192,118984,128,0,119248:0:0:0:0:
192,192,119072,128,0,119337:0:0:0:0:
448,192,119160,128,0,119425:0:0:0:0:
320,192,119248,128,0,119425:0:0:0:0:
64,192,119337,128,0,119513:0:0:0:0:
192,192,119425,128,0,119601:0:0:0:0:
320,192,119513,128,0,119601:0:0:0:0:
448,192,119513,128,0,119690:0:0:0:0:
64,192,119601,128,0,119954:0:0:0:0:
320,192,119690,128,0,119778:0:0:0:0:
192,192,119690,128,0,119866:0:0:0:0:
448,192,119778,128,0,119954:0:0:0:0:
320,192,119866,128,0,120043:0:0:0:0:
192,192,119954,128,0,120219:0:0:0:0:
64,192,120043,128,0,120131:0:0:0:0:
448,192,120043,128,0,120307:0:0:0:0:
320,192,120131,128,0,120307:0:0:0:0:
64,192,120219,128,0,120572:0:0:0:0:
192,192,120307,128,0,120395:0:0:0:0:
320,192,120395,128,0,120660:0:0:0:0:
448,192,120395,128,0,120484:0:0:0:0:
192,192,120484,128,0,120748:0:0:0:0:
448,192,120572,128,0,120837:0:0:0:0:
64,192,120660,128,0,120837:0:0:0:0:
320,192,120748,128,0,121013:0:0:0:0:
192,192,120837,128,0,120925:0:0:0:0:
448,192,120925,128,0,121013:0:0:0:0:
64,192,120925,128,0,121101:0:0:0:0:
192,192,121013,128,0,121190:0:0:0:0:
320,192,121101,128,0,121278:0:0:0:0:
448,192,121101,128,0,121454:0:0:0:0:
64,192,121190,128,0,121366:0:0:0:0:
192,192,121278,128,0,121366:0:0:0:0:
320,192,121366,128,0,121543:0:0:0:0:
64,192,121454,128,0,121631:0:0:0:0:
192,192,121454,128,0,121807:0:0:0:0:
448,192,121543,128,0,121719:0:0:0:0:
320,192,121631,128,0,121719:0:0:0:0:
64,192,121719,128,0,121895:0:0:0:0:
320,192,121807,128,0,121984:0:0:0:0:
448,192,121807,128,0,122072:0:0:0:0:
192,192,121895,128,0,122248:0:0:0:0:
64,192,121984,128,0,122160:0:0:0:0:
320,192,122072,128,0,122337:0:0:0:0:
448,192,122160,128,0,122425:0:0:0:0:
64,192,122248,128,0,122425:0:0:0:0:
192,192,122337,128,0,122513:0:0:0:0:
320,192,122425,128,0,122601:0:0:0:0:
448,192,122513,128,0,122778:0:0:0:0:
64,192,122513,128,0,122690:0:0:0:0:
192,192,122601,128,0,122866:0:0:0:0:
320,192,122690,128,0,122778:0:0:0:0:
64,192,122778,128,0,122954:0:0:0:0:
448,192,122866,128,0,123131:0:0:0:0:
320,192,122866,128,0,123043:0:0:0:0:
192,192,122954,128,0,123219:0:0:0:0:
64,192,123043,128,0,123307:0:0:0:0:
320,192,123131,128,0,123395:0:0:0:0:
448,192,123219,128,0,123484:0:0:0:0:
192,192,123307,128,0,123660:0:0:0:0:
64,192,123395,128,0,123572:0:0:0:0:
320,192,123484,128,0,123748:0:0:0:0:
448,192,123572,128,0,123837:0:0:0:0:
64,192,123660,128,0,123837:0:0:0:0:
192,192,123748,128,0,123925:0:0:0:0:
320,192,123837,128,0,124101:0:0:0:0:
448,192,123925,128,0,124013:0:0:0:0:
64,192,123925,128,0,124190:0:0:0:0:
192,192,124013,128,0,124190:0:0:0:0:
448,192,124101,128,0,124278:0:0:0:0:
320,192,124190,128,0,124454:0:0:0:0:
64,192,124278,128,0,124366:0:0:0:0:
192,192,124278,128,0,124543:0:0:0:0:
448,192,124366,128,0,124543:0:0:0:0:
64,192,124454,128,0,124543:0:0:0:0:
320,192,124543,128,0,124631:0:0:0:0:
192,192,124631,128,0,124807:0:0:0:0:
64,192,124631,128,0,124719:0:0:0:0:
448,192,124631,128,0,124895:0:0:0:0:
320,192,124719,128,0,124984:0:0:0:0:
64,192,124807,128,0,125072:0:0:0:0:
192,192,124895,128,0,125072:0:0:0:0:
448,192,124984,128,0,125160:0:0:0:0:
320,192,125072,128,0,125248:0:0:0:0:
192,192,125160,128,0,125248:0:0:0:0:
64,192,125160,128,0,125337:0:0:0:0:
448,192,125248,128,0,125601:0:0:0:0:
192,192,125337,128,0,125425:0:0:0:0:
320,192,125337,128,0,125513:0:0:0:0:
64,192,125425,128,0,125601:0:0:0:0:
192,192,125513,128,0,125690:0:0:0:0:
320,192,125601,128,0,125866:0:0:0:0:
448,192,125690,128,0,125778:0:0:0:0:
64,192,125690,128,0,125954:0:0:0:0:
192,192,125778,128,0,125954:0:0:0:0:
448,192,125866,128,0,126219:0:0:0:0:
320,192,125954,128,0,126043:0:0:0:0:
192,192,126043,128,0,126307:0:0:0:0:
64,192,126043,128,0,126131:0:0:0:0:
320,192,126131,128,0,126395:0:0:0:0:
64,192,126219,128,0,126484:0:0:0:0:
448,192,126307,128,0,126484:0:0:0:0:
192,192,126395,128,0,126660:0:0:0:0:
320,192,126484,128,0,126572:0:0:0:0:
64,192,126572,128,0,126660:0:0:0:0:
448,192,126572,128,0,126748:0:0:0:0:
320,192,126660,128,0,126837:0:0:0:0:
192,192,126748,128,0,126925:0:0:0:0:
64,192,126748,128,0,127101:0:0:0:0:
448,192,126837,128,0,127013:0:0:0:0:
320,192,126925,128,0,127013:0:0:0:0:
192,192,127013,128,0,127190:0:0:0:0:
448,192,127101,128,0,127278:0:0:0:0:
320,192,127101,128,0,127454:0:0:0:0:
64,192,127190,128,0,127366:0:0:0:0:
192,192,127278,128,0,127366:0:0:0:0:
448,192,127366,128,0,127543:0:0:0:0:
192,192,127454,128,0,127543:0:0:0:0:
64,192,127454,128,0,127631:0:0:0:0:
320,192,127543,128,0,127719:0:0:0:0:
448,192,127631,128,0,127719:0:0:0:0:
192,192,127631,128,0,127807:0:0:0:0:
64,192,127719,128,0,127895:0:0:0:0:
448,192,127807,128,0,127895:0:0:0:0:
320,192,127807,128,0,127984:0:0:0:0:
192,192,127895,128,0,128072:0:0:0:0:
64,192,127984,128,0,128072:0:0:0:0:
448,192,127984,128,0,128072:0:0:0:0:
320,192,128072,128,0,128160:0:0:0:0:
192,192,128160,128,0,128248:0:0:0:0:
64,192,128160,128,0,128248:0:0:0:0:
448,192,128160,128,0,128425:0:0:0:0:
320,192,128248,128,0,128425:0:0:0:0:
192,192,128337,128,0,128601:0:0:0:0:
64,192,128337,128,0,128601:0:0:0:0:
320,192,128513,128,0,128601:0:0:0:0:
448,192,128513,128,0,128601:0:0:0:0:
448,192,128690,128,0,128866:0:0:0:0:
192,192,128690,128,0,128866:0:0:0:0:
64,192,128690,128,0,128866:0:0:0:0:
448,192,129043,128,0,129131:0:0:0:0:
320,192,129043,128,0,129131:0:0:0:0:
448,192,129219,1,0,0:0:0:0:
320,192,129219,1,0,0:0:0:0:
192,192,129219,128,0,129484:0:0:0:0:
64,192,129219,128,0,129484:0:0:0:0:
192,192,129572,1,0,0:0:0:0:
64,192,129572,1,0,0:0:0:0:
320,192,129660,1,0,0:0:0:0:
448,192,129660,1,0,0:0:0:0:
192,192,129748,1,0,0:0:0:0:
64,192,129748,1,0,0:0:0:0:
320,192,129837,1,0,0:0:0:0:
448,192,129837,1,0,0:0:0:0:
192,192,129925,1,0,0:0:0:0:
64,192,129925,1,0,0:0:0:0:
320,192,130013,1,0,0:0:0:0:
448,192,130013,1,0,0:0:0:0:
448,192,130101,1,0,0:0:0:0:
320,192,130101,1,0,0:0:0:0:
192,192,130101,1,0,0:0:0:0:
64,192,130101,1,0,0:0:0:0:
192,192,130278,128,0,130366:0:0:0:0:
64,192,130278,128,0,130366:0:0:0:0:
192,192,130454,128,0,130543:0:0:0:0:
64,192,130454,128,0,130543:0:0:0:0:
64,192,130631,1,0,0:0:0:0:
192,192,130631,1,0,0:0:0:0:
320,192,130631,1,0,0:0:0:0:
448,192,130631,1,0,0:0:0:0:
448,192,130984,128,0,131072:0:0:0:0:
320,192,130984,128,0,131072:0:0:0:0:
192,192,130984,128,0,131072:0:0:0:0:
64,192,130984,128,0,131072:0:0:0:0:
448,192,131160,1,0,0:0:0:0:
64,192,131160,1,0,0:0:0:0:
448,192,131337,1,0,0:0:0:0:
64,192,131337,1,0,0:0:0:0:
448,192,131513,128,0,131601:0:0:0:0:
320,192,131513,128,0,131601:0:0:0:0:
64,192,131513,128,0,131601:0:0:0:0:
320,192,131690,128,0,131778:0:0:0:0:
448,192,131690,128,0,131778:0:0:0:0:
320,192,131866,128,0,131954:0:0:0:0:
448,192,131866,128,0,131954:0:0:0:0:
448,192,132043,1,0,0:0:0:0:
320,192,132043,1,0,0:0:0:0:
192,192,132043,1,0,0:0:0:0:
64,192,132043,1,0,0:0:0:0:
448,192,132395,128,0,132484:0:0:0:0:
320,192,132395,128,0,132484:0:0:0:0:
192,192,132395,128,0,132484:0:0:0:0:
64,192,132395,128,0,132484:0:0:0:0:
448,192,132572,1,0,0:0:0:0:
64,192,132572,1,0,0:0:0:0:
448,192,132748,1,0,0:0:0:0:
192,192,132748,1,0,0:0:0:0:
64,192,132748,1,0,0:0:0:0:
192,192,132925,128,0,133013:0:0:0:0:
64,192,132925,128,0,133101:0:0:0:0:
448,192,133013,128,0,133190:0:0:0:0:
320,192,133101,128,0,133190:0:0:0:0:
192,192,133101,128,0,133278:0:0:0:0:
64,192,133190,128,0,133454:0:0:0:0:
448,192,133278,128,0,133366:0:0:0:0:
320,192,133278,128,0,133366:0:0:0:0:
192,192,133366,128,0,133543:0:0:0:0:
320,192,133454,128,0,133631:0:0:0:0:
448,192,133454,128,0,133543:0:0:0:0:
64,192,133543,128,0,133719:0:0:0:0:
448,192,133631,128,0,133719:0:0:0:0:
192,192,133631,128,0,133719:0:0:0:0:
320,192,133719,128,0,134072:0:0:0:0:
192,192,133807,128,0,134072:0:0:0:0:
64,192,133807,128,0,133895:0:0:0:0:
448,192,133807,128,0,133895:0:0:0:0:
448,192,133984,128,0,134072:0:0:0:0:
64,192,133984,128,0,134248:0:0:0:0:
192,192,134160,128,0,134248:0:0:0:0:
320,192,134160,128,0,134248:0:0:0:0:
448,192,134160,128,0,134248:0:0:0:0:
320,192,134337,128,0,134425:0:0:0:0:
448,192,134337,128,0,134513:0:0:0:0:
64,192,134425,128,0,134601:0:0:0:0:
192,192,134513,128,0,134601:0:0:0:0:
320,192,134513,128,0,134690:0:0:0:0:
448,192,134601,128,0,134866:0:0:0:0:
64,192,134690,128,0,134778:0:0:0:0:
192,192,134690,128,0,134778:0:0:0:0:
320,192,134778,128,0,134954:0:0:0:0:
192,192,134866,128,0,135043:0:0:0:0:
64,192,134866,128,0,134954:0:0:0:0:
448,192,134954,128,0,135131:0:0:0:0:
64,192,135043,128,0,135131:0:0:0:0:
320,192,135043,128,0,135131:0:0:0:0:
192,192,135131,128,0,135307:0:0:0:0:
320,192,135219,128,0,135307:0:0:0:0:
448,192,135219,128,0,135307:0:0:0:0:
64,192,135219,128,0,135307:0:0:0:0:
448,192,135395,1,0,0:0:0:0:
64,192,135395,1,0,0:0:0:0:
448,192,135572,1,0,0:0:0:0:
320,192,135572,1,0,0:0:0:0:
64,192,135572,1,0,0:0:0:0:
64,192,135748,128,0,135837:0:0:0:0:
192,192,135748,128,0,135837:0:0:0:0:
64,192,135925,1,0,0:0:0:0:
448,192,135925,1,0,0:0:0:0:
320,192,136013,1,0,0:0:0:0:
192,192,136101,1,0,0:0:0:0:
64,192,136101,1,0,0:0:0:0:
320,192,136190,1,0,0:0:0:0:
64,192,136278,1,0,0:0:0:0:
448,192,136278,1,0,0:0:0:0:
192,192,136366,1,0,0:0:0:0:
320,192,136454,1,0,0:0:0:0:
448,192,136454,1,0,0:0:0:0:
192,192,136543,1,0,0:0:0:0:
64,192,136631,1,0,0:0:0:0:
448,192,136631,1,0,0:0:0:0:
192,192,136719,1,0,0:0:0:0:
320,192,136719,1,0,0:0:0:0:
64,192,136807,1,0,0:0:0:0:
448,192,136807,1,0,0:0:0:0:
192,192,136895,1,0,0:0:0:0:
320,192,136895,1,0,0:0:0:0:
64,192,136984,1,0,0:0:0:0:
192,192,137072,1,0,0:0:0:0:
320,192,137160,1,0,0:0:0:0:
448,192,137160,1,0,0:0:0:0:
192,192,137248,1,0,0:0:0:0:
64,192,137337,1,0,0:0:0:0:
320,192,137425,1,0,0:0:0:0:
192,192,137513,1,0,0:0:0:0:
448,192,137513,1,0,0:0:0:0:
64,192,137513,1,0,0:0:0:0:
64,192,137690,1,0,0:0:0:0:
192,192,137690,1,0,0:0:0:0:
320,192,137866,1,0,0:0:0:0:
448,192,137866,1,0,0:0:0:0:
64,192,138043,1,0,0:0:0:0:
192,192,138043,1,0,0:0:0:0:
320,192,138043,1,0,0:0:0:0:
448,192,138043,1,0,0:0:0:0:
320,192,138219,1,0,0:0:0:0:
448,192,138219,1,0,0:0:0:0:
192,192,138307,1,0,0:0:0:0:
64,192,138307,1,0,0:0:0:0:
320,192,138395,1,0,0:0:0:0:
448,192,138395,1,0,0:0:0:0:
192,192,138484,1,0,0:0:0:0:
64,192,138484,1,0,0:0:0:0:
320,192,138572,128,0,138660:0:0:0:0:
448,192,138572,128,0,138660:0:0:0:0:
64,192,138572,128,0,138748:0:0:0:0:
192,192,138572,1,0,0:0:0:0:
192,192,138660,128,0,138837:0:0:0:0:
448,192,138748,128,0,138925:0:0:0:0:
320,192,138748,128,0,138837:0:0:0:0:
64,192,138837,128,0,139013:0:0:0:0:
192,192,138925,128,0,139013:0:0:0:0:
320,192,138925,128,0,139013:0:0:0:0:
448,192,139013,128,0,139101:0:0:0:0:
64,192,139101,128,0,139190:0:0:0:0:
192,192,139101,128,0,139278:0:0:0:0:
320,192,139101,128,0,139190:0:0:0:0:
448,192,139190,128,0,139366:0:0:0:0:
64,192,139278,128,0,139454:0:0:0:0:
320,192,139278,128,0,139366:0:0:0:0:
192,192,139366,128,0,139543:0:0:0:0:
448,192,139454,128,0,139543:0:0:0:0:
320,192,139454,128,0,139631:0:0:0:0:
64,192,139543,128,0,139719:0:0:0:0:
192,192,139631,128,0,139719:0:0:0:0:
448,192,139631,128,0,139719:0:0:0:0:
320,192,139719,128,0,139807:0:0:0:0:
448,192,139807,128,0,139984:0:0:0:0:
64,192,139807,128,0,139895:0:0:0:0:
192,192,139807,128,0,139895:0:0:0:0:
320,192,139895,128,0,140072:0:0:0:0:
64,192,139984,128,0,140160:0:0:0:0:
192,192,139984,128,0,140072:0:0:0:0:
448,192,140072,128,0,140248:0:0:0:0:
320,192,140160,128,0,140248:0:0:0:0:
192,192,140160,128,0,140425:0:0:0:0:
64,192,140248,128,0,140337:0:0:0:0:
320,192,140337,128,0,140425:0:0:0:0:
448,192,140337,128,0,140425:0:0:0:0:
64,192,140425,128,0,140513:0:0:0:0:
448,192,140513,128,0,140601:0:0:0:0:
320,192,140513,128,0,140690:0:0:0:0:
192,192,140513,128,0,140601:0:0:0:0:
64,192,140601,128,0,140778:0:0:0:0:
192,192,140690,128,0,140778:0:0:0:0:
448,192,140690,128,0,140866:0:0:0:0:
320,192,140778,128,0,140954:0:0:0:0:
64,192,140866,128,0,140954:0:0:0:0:
192,192,140866,128,0,141043:0:0:0:0:
448,192,140954,128,0,141131:0:0:0:0:
64,192,141043,128,0,141131:0:0:0:0:
320,192,141043,128,0,141131:0:0:0:0:
192,192,141131,128,0,141219:0:0:0:0:
64,192,141219,128,0,141395:0:0:0:0:
448,192,141219,128,0,141307:0:0:0:0:
320,192,141219,128,0,141307:0:0:0:0:
192,192,141307,128,0,141484:0:0:0:0:
448,192,141395,128,0,141484:0:0:0:0:
320,192,141395,128,0,141572:0:0:0:0:
64,192,141484,128,0,141660:0:0:0:0:
448,192,141572,128,0,141748:0:0:0:0:
192,192,141572,128,0,141660:0:0:0:0:
320,192,141660,128,0,141837:0:0:0:0:
64,192,141748,128,0,141837:0:0:0:0:
192,192,141748,128,0,141837:0:0:0:0:
448,192,141837,128,0,141925:0:0:0:0:
64,192,141925,128,0,142013:0:0:0:0:
192,192,141925,128,0,142101:0:0:0:0:
320,192,141925,128,0,142013:0:0:0:0:
448,192,142013,128,0,142190:0:0:0:0:
320,192,142101,128,0,142190:0:0:0:0:
64,192,142101,128,0,142278:0:0:0:0:
192,192,142190,128,0,142366:0:0:0:0:
448,192,142278,128,0,142366:0:0:0:0:
320,192,142278,128,0,142454:0:0:0:0:
64,192,142366,128,0,142543:0:0:0:0:
448,192,142454,128,0,142543:0:0:0:0:
192,192,142454,128,0,142543:0:0:0:0:
320,192,142543,128,0,142631:0:0:0:0:
448,192,142631,128,0,142807:0:0:0:0:
64,192,142631,128,0,142719:0:0:0:0:
192,192,142631,128,0,142719:0:0:0:0:
320,192,142719,128,0,142895:0:0:0:0:
64,192,142807,128,0,142984:0:0:0:0:
192,192,142807,128,0,142895:0:0:0:0:
448,192,142895,128,0,143072:0:0:0:0:
320,192,142984,128,0,143072:0:0:0:0:
192,192,142984,128,0,143160:0:0:0:0:
64,192,143072,128,0,143248:0:0:0:0:
448,192,143160,128,0,143248:0:0:0:0:
320,192,143160,128,0,143337:0:0:0:0:
192,192,143248,128,0,143425:0:0:0:0:
64,192,143337,128,0,143425:0:0:0:0:
448,192,143337,128,0,143513:0:0:0:0:
320,192,143425,128,0,143601:0:0:0:0:
64,192,143513,128,0,143601:0:0:0:0:
192,192,143513,128,0,143690:0:0:0:0:
448,192,143601,128,0,143778:0:0:0:0:
64,192,143690,128,0,143866:0:0:0:0:
320,192,143690,128,0,143778:0:0:0:0:
192,192,143778,128,0,143954:0:0:0:0:
448,192,143866,128,0,143954:0:0:0:0:
320,192,143866,128,0,144131:0:0:0:0:
64,192,143954,128,0,144131:0:0:0:0:
448,192,144043,128,0,144131:0:0:0:0:
192,192,144043,128,0,144131:0:0:0:0:
192,192,144219,128,0,144307:0:0:0:0:
64,192,144219,128,0,144307:0:0:0:0:
448,192,144219,128,0,144307:0:0:0:0:
320,192,144219,128,0,144307:0:0:0:0:
64,192,144572,128,0,144660:0:0:0:0:
320,192,144572,128,0,144660:0:0:0:0:
448,192,144748,128,0,144837:0:0:0:0:
64,192,144748,128,0,144837:0:0:0:0:
320,192,144748,128,0,144837:0:0:0:0:
192,192,144925,1,0,0:0:0:0:
64,192,144925,1,0,0:0:0:0:
448,192,144925,1,0,0:0:0:0:
320,192,144925,1,0,0:0:0:0:
64,192,145278,1,0,0:0:0:0:
320,192,145278,1,0,0:0:0:0:
448,192,145278,1,0,0:0:0:0:
192,192,145454,1,0,0:0:0:0:
64,192,145454,1,0,0:0:0:0:
448,192,145454,1,0,0:0:0:0:
320,192,145454,1,0,0:0:0:0:
64,192,145631,128,0,145719:0:0:0:0:
192,192,145631,128,0,145719:0:0:0:0:
448,192,145631,128,0,145719:0:0:0:0:
320,192,145807,128,0,145895:0:0:0:0:
448,192,145807,128,0,145895:0:0:0:0:
64,192,145984,128,0,146072:0:0:0:0:
192,192,145984,128,0,146072:0:0:0:0:
320,192,146160,1,0,0:0:0:0:
448,192,146160,1,0,0:0:0:0:
64,192,146160,1,0,0:0:0:0:
192,192,146160,1,0,0:0:0:0:
64,192,146337,1,0,0:0:0:0:
320,192,146337,1,0,0:0:0:0:
448,192,146337,1,0,0:0:0:0:
64,192,146513,128,0,146601:0:0:0:0:
192,192,146513,128,0,146601:0:0:0:0:
192,192,146690,128,0,146778:0:0:0:0:
320,192,146690,128,0,146778:0:0:0:0:
192,192,146866,1,0,0:0:0:0:
64,192,146866,1,0,0:0:0:0:
320,192,146866,1,0,0:0:0:0:
448,192,146866,1,0,0:0:0:0:
64,192,147043,128,0,147131:0:0:0:0:
192,192,147043,128,0,147219:0:0:0:0:
320,192,147131,128,0,147307:0:0:0:0:
64,192,147219,128,0,147484:0:0:0:0:
448,192,147219,128,0,147307:0:0:0:0:
192,192,147307,128,0,147395:0:0:0:0:
448,192,147395,128,0,147484:0:0:0:0:
320,192,147395,128,0,147572:0:0:0:0:
192,192,147484,128,0,147660:0:0:0:0:
448,192,147572,128,0,147748:0:0:0:0:
64,192,147572,128,0,147660:0:0:0:0:
320,192,147660,128,0,147837:0:0:0:0:
64,192,147748,128,0,147925:0:0:0:0:
192,192,147748,128,0,147837:0:0:0:0:
448,192,147837,128,0,148013:0:0:0:0:
192,192,147925,128,0,148101:0:0:0:0:
320,192,147925,128,0,148013:0:0:0:0:
64,192,148013,128,0,148190:0:0:0:0:
448,192,148101,128,0,148190:0:0:0:0:
320,192,148101,128,0,148278:0:0:0:0:
192,192,148190,128,0,148366:0:0:0:0:
64,192,148278,128,0,148366:0:0:0:0:
448,192,148278,128,0,148543:0:0:0:0:
320,192,148366,128,0,148454:0:0:0:0:
64,192,148454,128,0,148631:0:0:0:0:
192,192,148454,128,0,148895:0:0:0:0:
320,192,148543,128,0,148719:0:0:0:0:
448,192,148631,128,0,148719:0:0:0:0:
64,192,148719,128,0,148895:0:0:0:0:
448,192,148807,128,0,148895:0:0:0:0:
320,192,148807,128,0,148895:0:0:0:0:
192,192,148984,1,0,0:0:0:0:
64,192,148984,1,0,0:0:0:0:
448,192,148984,1,0,0:0:0:0:
320,192,148984,1,0,0:0:0:0:
448,192,149160,1,0,0:0:0:0:
320,192,149160,1,0,0:0:0:0:
64,192,149293,128,0,149381:0:0:0:0:
192,192,149337,128,0,149425:0:0:0:0:
448,192,149381,128,0,149469:0:0:0:0:
320,192,149425,128,0,149513:0:0:0:0:
64,192,149469,128,0,149557:0:0:0:0:
192,192,149513,128,0,149601:0:0:0:0:
448,192,149557,128,0,149645:0:0:0:0:
320,192,149601,128,0,149690:0:0:0:0:
192,192,149645,128,0,149734:0:0:0:0:
64,192,149690,128,0,149778:0:0:0:0:
320,192,149778,1,0,0:0:0:0:
320,192,149866,128,0,149954:0:0:0:0:
448,192,149866,128,0,149954:0:0:0:0:
64,192,149866,128,0,150043:0:0:0:0:
192,192,149866,1,0,0:0:0:0:
192,192,149954,128,0,150131:0:0:0:0:
448,192,150043,128,0,150219:0:0:0:0:
320,192,150043,128,0,150131:0:0:0:0:
64,192,150131,128,0,150307:0:0:0:0:
192,192,150219,128,0,150307:0:0:0:0:
320,192,150219,128,0,150307:0:0:0:0:
448,192,150307,128,0,150395:0:0:0:0:
64,192,150395,128,0,150484:0:0:0:0:
192,192,150395,128,0,150572:0:0:0:0:
320,192,150395,128,0,150484:0:0:0:0:
448,192,150484,128,0,150660:0:0:0:0:
64,192,150572,128,0,150748:0:0:0:0:
320,192,150572,128,0,150660:0:0:0:0:
192,192,150660,128,0,150837:0:0:0:0:
448,192,150748,128,0,150837:0:0:0:0:
320,192,150748,128,0,150925:0:0:0:0:
64,192,150837,128,0,151013:0:0:0:0:
192,192,150925,128,0,151013:0:0:0:0:
448,192,150925,128,0,151013:0:0:0:0:
320,192,151013,128,0,151101:0:0:0:0:
448,192,151101,128,0,151278:0:0:0:0:
64,192,151101,128,0,151190:0:0:0:0:
192,192,151101,128,0,151190:0:0:0:0:
320,192,151190,128,0,151366:0:0:0:0:
64,192,151278,128,0,151454:0:0:0:0:
192,192,151278,128,0,151366:0:0:0:0:
448,192,151366,128,0,151543:0:0:0:0:
320,192,151454,128,0,151543:0:0:0:0:
192,192,151454,128,0,151719:0:0:0:0:
64,192,151543,128,0,151631:0:0:0:0:
320,192,151631,128,0,151719:0:0:0:0:
448,192,151631,128,0,151719:0:0:0:0:
64,192,151719,128,0,151807:0:0:0:0:
448,192,151807,128,0,151895:0:0:0:0:
320,192,151807,128,0,151984:0:0:0:0:
192,192,151807,128,0,151895:0:0:0:0:
64,192,151895,128,0,152072:0:0:0:0:
192,192,151984,128,0,152072:0:0:0:0:
448,192,151984,128,0,152160:0:0:0:0:
320,192,152072,128,0,152248:0:0:0:0:
64,192,152160,128,0,152248:0:0:0:0:
192,192,152160,128,0,152337:0:0:0:0:
448,192,152248,128,0,152425:0:0:0:0:
64,192,152337,128,0,152425:0:0:0:0:
320,192,152337,128,0,152425:0:0:0:0:
192,192,152425,128,0,152513:0:0:0:0:
64,192,152513,128,0,152690:0:0:0:0:
448,192,152513,128,0,152601:0:0:0:0:
320,192,152513,128,0,152601:0:0:0:0:
192,192,152601,128,0,152778:0:0:0:0:
448,192,152690,128,0,152778:0:0:0:0:
320,192,152690,128,0,152866:0:0:0:0:
64,192,152778,128,0,152954:0:0:0:0:
448,192,152866,128,0,153043:0:0:0:0:
192,192,152866,128,0,152954:0:0:0:0:
320,192,152954,128,0,153131:0:0:0:0:
64,192,153043,128,0,153131:0:0:0:0:
192,192,153043,128,0,153131:0:0:0:0:
448,192,153131,128,0,153219:0:0:0:0:
64,192,153219,128,0,153307:0:0:0:0:
192,192,153219,128,0,153395:0:0:0:0:
320,192,153219,128,0,153307:0:0:0:0:
448,192,153307,128,0,153484:0:0:0:0:
320,192,153395,128,0,153484:0:0:0:0:
64,192,153395,128,0,153572:0:0:0:0:
192,192,153484,128,0,153660:0:0:0:0:
448,192,153572,128,0,153660:0:0:0:0:
320,192,153572,128,0,153748:0:0:0:0:
64,192,153660,128,0,153837:0:0:0:0:
448,192,153748,128,0,153837:0:0:0:0:
192,192,153748,128,0,153837:0:0:0:0:
320,192,153837,128,0,153925:0:0:0:0:
448,192,153925,128,0,154101:0:0:0:0:
64,192,153925,128,0,154013:0:0:0:0:
192,192,153925,128,0,154013:0:0:0:0:
320,192,154013,128,0,154190:0:0:0:0:
64,192,154101,128,0,154278:0:0:0:0:
192,192,154101,128,0,154190:0:0:0:0:
448,192,154190,128,0,154366:0:0:0:0:
320,192,154278,128,0,154366:0:0:0:0:
192,192,154278,128,0,154454:0:0:0:0:
64,192,154366,128,0,154543:0:0:0:0:
448,192,154454,128,0,154543:0:0:0:0:
320,192,154454,128,0,154631:0:0:0:0:
192,192,154543,128,0,154719:0:0:0:0:
64,192,154631,128,0,154719:0:0:0:0:
448,192,154631,128,0,154807:0:0:0:0:
320,192,154719,128,0,154895:0:0:0:0:
64,192,154807,128,0,154895:0:0:0:0:
192,192,154807,128,0,154984:0:0:0:0:
448,192,154895,128,0,155072:0:0:0:0:
64,192,154984,128,0,155160:0:0:0:0:
320,192,154984,128,0,155072:0:0:0:0:
192,192,155072,128,0,155248:0:0:0:0:
448,192,155160,128,0,155248:0:0:0:0:
320,192,155160,128,0,155425:0:0:0:0:
64,192,155248,128,0,155425:0:0:0:0:
448,192,155337,128,0,155601:0:0:0:0:
192,192,155337,128,0,155425:0:0:0:0:
320,192,155513,128,0,155601:0:0:0:0:
64,192,155513,128,0,155601:0:0:0:0:
192,192,155513,128,0,155601:0:0:0:0:
320,192,155690,128,0,155778:0:0:0:0:
448,192,155690,128,0,155866:0:0:0:0:
192,192,155690,1,0,0:0:0:0:
64,192,155690,128,0,156307:0:0:0:0:
192,192,155866,128,0,155954:0:0:0:0:
320,192,155954,128,0,156043:0:0:0:0:
448,192,156043,128,0,156131:0:0:0:0:
320,192,156131,128,0,156219:0:0:0:0:
192,192,156219,128,0,156307:0:0:0:0:
320,192,156307,128,0,156395:0:0:0:0:
64,192,156395,128,0,156484:0:0:0:0:
192,192,156395,128,0,156484:0:0:0:0:
448,192,156395,128,0,156572:0:0:0:0:
320,192,156484,128,0,156572:0:0:0:0:
192,192,156572,128,0,156660:0:0:0:0:
64,192,156572,128,0,156748:0:0:0:0:
448,192,156660,128,0,156748:0:0:0:0:
192,192,156748,128,0,156837:0:0:0:0:
320,192,156748,128,0,156925:0:0:0:0:
64,192,156837,128,0,156925:0:0:0:0:
448,192,156925,128,0,157013:0:0:0:0:
192,192,156925,128,0,157454:0:0:0:0:
320,192,157013,128,0,157101:0:0:0:0:
64,192,157101,128,0,157190:0:0:0:0:
320,192,157190,128,0,157278:0:0:0:0:
448,192,157278,128,0,157543:0:0:0:0:
320,192,157366,128,0,157543:0:0:0:0:
64,192,157454,128,0,157719:0:0:0:0:
192,192,157543,128,0,157719:0:0:0:0:
320,192,157631,128,0,157719:0:0:0:0:
448,192,157631,128,0,157895:0:0:0:0:
64,192,157807,1,0,0:0:0:0:
192,192,157807,1,0,0:0:0:0:
320,192,157895,1,0,0:0:0:0:
64,192,157984,1,0,0:0:0:0:
448,192,157984,1,0,0:0:0:0:
192,192,158072,1,0,0:0:0:0:
320,192,158160,1,0,0:0:0:0:
448,192,158160,1,0,0:0:0:0:
64,192,158248,1,0,0:0:0:0:
192,192,158248,1,0,0:0:0:0:
192,192,158337,128,0,158425:0:0:0:0:
64,192,158337,128,0,158425:0:0:0:0:
448,192,158337,128,0,158601:0:0:0:0:
320,192,158337,128,0,158425:0:0:0:0:
64,192,158513,128,0,158601:0:0:0:0:
192,192,158513,128,0,158601:0:0:0:0:
320,192,158513,128,0,158778:0:0:0:0:
64,192,158690,128,0,158778:0:0:0:0:
192,192,158690,128,0,158778:0:0:0:0:
448,192,158690,128,0,158954:0:0:0:0:
64,192,158866,128,0,158954:0:0:0:0:
192,192,158866,128,0,158954:0:0:0:0:
320,192,158866,128,0,159131:0:0:0:0:
64,192,159043,128,0,159131:0:0:0:0:
192,192,159043,128,0,159131:0:0:0:0:
448,192,159043,128,0,159307:0:0:0:0:
192,192,159219,128,0,159307:0:0:0:0:
64,192,159219,128,0,159307:0:0:0:0:
320,192,159219,128,0,159484:0:0:0:0:
192,192,159395,128,0,159484:0:0:0:0:
64,192,159395,128,0,159484:0:0:0:0:
448,192,159395,128,0,159660:0:0:0:0:
64,192,159572,128,0,159660:0:0:0:0:
192,192,159572,128,0,159660:0:0:0:0:
320,192,159572,128,0,159660:0:0:0:0:
320,192,159748,128,0,159837:0:0:0:0:
448,192,159748,128,0,159837:0:0:0:0:
192,192,159748,128,0,159837:0:0:0:0:
64,192,159748,128,0,160013:0:0:0:0:
320,192,159925,128,0,160013:0:0:0:0:
448,192,159925,128,0,160013:0:0:0:0:
192,192,159925,128,0,160190:0:0:0:0:
448,192,160101,128,0,160190:0:0:0:0:
320,192,160101,128,0,160190:0:0:0:0:
64,192,160101,128,0,160366:0:0:0:0:
320,192,160278,128,0,160366:0:0:0:0:
448,192,160278,128,0,160366:0:0:0:0:
192,192,160278,128,0,160543:0:0:0:0:
320,192,160454,128,0,160543:0:0:0:0:
448,192,160454,128,0,160543:0:0:0:0:
64,192,160454,128,0,160719:0:0:0:0:
320,192,160631,128,0,160719:0:0:0:0:
448,192,160631,128,0,160719:0:0:0:0:
192,192,160631,128,0,160895:0:0:0:0:
448,192,160807,128,0,160895:0:0:0:0:
320,192,160807,128,0,160895:0:0:0:0:
64,192,160807,128,0,161072:0:0:0:0:
320,192,160984,128,0,161072:0:0:0:0:
448,192,160984,128,0,161072:0:0:0:0:
192,192,160984,128,0,161072:0:0:0:0:
192,192,161160,128,0,161248:0:0:0:0:
448,192,161160,128,0,161425:0:0:0:0:
64,192,161160,128,0,161248:0:0:0:0:
320,192,161160,128,0,161248:0:0:0:0:
64,192,161337,128,0,161425:0:0:0:0:
192,192,161337,128,0,161425:0:0:0:0:
320,192,161337,128,0,161601:0:0:0:0:
448,192,161513,128,0,161601:0:0:0:0:
192,192,161513,128,0,161601:0:0:0:0:
64,192,161513,128,0,161778:0:0:0:0:
320,192,161690,128,0,161778:0:0:0:0:
448,192,161690,128,0,161778:0:0:0:0:
192,192,161690,128,0,161954:0:0:0:0:
320,192,161866,128,0,161954:0:0:0:0:
64,192,161866,128,0,161954:0:0:0:0:
448,192,161866,128,0,161954:0:0:0:0:
64,192,162043,1,0,0:0:0:0:
192,192,162043,1,0,0:0:0:0:
448,192,162131,1,0,0:0:0:0:
320,192,162131,1,0,0:0:0:0:
64,192,162219,1,0,0:0:0:0:
192,192,162219,1,0,0:0:0:0:
448,192,162307,1,0,0:0:0:0:
320,192,162307,1,0,0:0:0:0:
64,192,162395,1,0,0:0:0:0:
192,192,162395,1,0,0:0:0:0:
448,192,162395,1,0,0:0:0:0:
320,192,162395,1,0,0:0:0:0:
64,192,162572,128,0,162660:0:0:0:0:
320,192,162572,128,0,162660:0:0:0:0:
448,192,162572,128,0,162660:0:0:0:0:
448,192,162925,128,0,162969:0:0:0:0:
64,192,163278,128,0,163322:0:0:0:0:
192,192,163322,1,0,0:0:0:0:
320,192,163366,1,0,0:0:0:0:
448,192,163410,1,0,0:0:0:0:
64,192,163410,1,0,0:0:0:0:
192,192,163454,1,0,0:0:0:0:
448,192,163498,1,0,0:0:0:0:
320,192,163543,1,0,0:0:0:0:
64,192,163587,1,0,0:0:0:0:
192,192,163631,1,0,0:0:0:0:
448,192,163675,1,0,0:0:0:0:
320,192,163719,1,0,0:0:0:0:
64,192,163807,1,0,0:0:0:0:
448,192,163807,1,0,0:0:0:0:
192,192,163807,1,0,0:0:0:0:
192,192,163984,1,0,0:0:0:0:
64,192,163984,1,0,0:0:0:0:
320,192,163984,1,0,0:0:0:0:
64,192,164337,1,0,0:0:0:0:
320,192,164337,1,0,0:0:0:0:
448,192,164337,1,0,0:0:0:0:
448,192,164513,1,0,0:0:0:0:
320,192,164513,1,0,0:0:0:0:
64,192,164513,1,0,0:0:0:0:
64,192,164866,1,0,0:0:0:0:
192,192,164866,1,0,0:0:0:0:
320,192,164866,1,0,0:0:0:0:
448,192,164866,1,0,0:0:0:0:
64,192,165043,1,0,0:0:0:0:
448,192,165043,1,0,0:0:0:0:
448,192,165219,1,0,0:0:0:0:
64,192,165219,1,0,0:0:0:0:
448,192,165748,128,0,165837:0:0:0:0:
320,192,165748,128,0,165837:0:0:0:0:
448,192,165925,1,0,0:0:0:0:
64,192,165925,1,0,0:0:0:0:
448,192,166101,1,0,0:0:0:0:
64,192,166101,1,0,0:0:0:0:
64,192,166278,128,0,166366:0:0:0:0:
192,192,166278,128,0,166366:0:0:0:0:
192,192,166454,1,0,0:0:0:0:
320,192,166454,1,0,0:0:0:0:
448,192,166454,1,0,0:0:0:0:
64,192,166631,1,0,0:0:0:0:
192,192,166631,1,0,0:0:0:0:
448,192,166631,1,0,0:0:0:0:
64,192,166807,128,0,166895:0:0:0:0:
320,192,166807,128,0,166895:0:0:0:0:
192,192,166807,128,0,166895:0:0:0:0:
448,192,166807,128,0,166895:0:0:0:0:
64,192,167160,1,0,0:0:0:0:
192,192,167160,1,0,0:0:0:0:
448,192,167160,1,0,0:0:0:0:
64,192,167337,1,0,0:0:0:0:
192,192,167337,1,0,0:0:0:0:
448,192,167337,1,0,0:0:0:0:
192,192,167513,128,0,167601:0:0:0:0:
448,192,167513,128,0,167601:0:0:0:0:
64,192,167690,128,0,167778:0:0:0:0:
192,192,167690,128,0,167778:0:0:0:0:
320,192,167690,128,0,167778:0:0:0:0:
448,192,167690,128,0,167778:0:0:0:0:
64,192,167866,1,0,0:0:0:0:
448,192,167866,1,0,0:0:0:0:
448,192,168043,1,0,0:0:0:0:
64,192,168043,1,0,0:0:0:0:
192,192,168219,128,0,168395:0:0:0:0:
320,192,168395,128,0,168572:0:0:0:0:
64,192,168572,128,0,168748:0:0:0:0:
192,192,168572,1,0,0:0:0:0:
448,192,168572,1,0,0:0:0:0:
448,192,168748,128,0,168925:0:0:0:0:
192,192,168748,1,0,0:0:0:0:
320,192,168925,128,0,169101:0:0:0:0:
64,192,168925,1,0,0:0:0:0:
192,192,169101,128,0,169278:0:0:0:0:
64,192,169101,1,0,0:0:0:0:
448,192,169101,1,0,0:0:0:0:
64,192,169278,128,0,169543:0:0:0:0:
320,192,169278,1,0,0:0:0:0:
448,192,169278,1,0,0:0:0:0:
192,192,169366,128,0,169543:0:0:0:0:
320,192,169454,128,0,169543:0:0:0:0:
448,192,169454,128,0,169543:0:0:0:0:
64,192,169631,1,0,0:0:0:0:
192,192,169631,1,0,0:0:0:0:
320,192,169631,128,0,169984:0:0:0:0:
448,192,169631,128,0,169984:0:0:0:0:
64,192,169807,128,0,169895:0:0:0:0:
192,192,169807,128,0,169895:0:0:0:0:
64,192,169984,1,0,0:0:0:0:
192,192,169984,1,0,0:0:0:0:
64,192,170160,1,0,0:0:0:0:
192,192,170160,1,0,0:0:0:0:
448,192,170160,1,0,0:0:0:0:
320,192,170248,1,0,0:0:0:0:
192,192,170337,1,0,0:0:0:0:
64,192,170337,1,0,0:0:0:0:
448,192,170425,1,0,0:0:0:0:
64,192,170513,1,0,0:0:0:0:
320,192,170513,1,0,0:0:0:0:
192,192,170601,1,0,0:0:0:0:
320,192,170690,1,0,0:0:0:0:
448,192,170778,1,0,0:0:0:0:
192,192,170866,1,0,0:0:0:0:
64,192,170866,1,0,0:0:0:0:
320,192,170954,1,0,0:0:0:0:
448,192,171043,1,0,0:0:0:0:
192,192,171131,1,0,0:0:0:0:
320,192,171219,1,0,0:0:0:0:
448,192,171219,1,0,0:0:0:0:
64,192,171307,1,0,0:0:0:0:
192,192,171395,1,0,0:0:0:0:
448,192,171484,1,0,0:0:0:0:
320,192,171572,1,0,0:0:0:0:
192,192,171572,1,0,0:0:0:0:
64,192,171660,1,0,0:0:0:0:
192,192,171748,1,0,0:0:0:0:
320,192,171837,1,0,0:0:0:0:
192,192,171925,1,0,0:0:0:0:
64,192,171925,1,0,0:0:0:0:
448,192,172013,1,0,0:0:0:0:
64,192,172101,1,0,0:0:0:0:
192,192,172190,1,0,0:0:0:0:
320,192,172278,1,0,0:0:0:0:
448,192,172278,1,0,0:0:0:0:
64,192,172454,128,0,172631:0:0:0:0:
192,192,172454,128,0,172631:0:0:0:0:
320,192,172454,128,0,172631:0:0:0:0:
448,192,172454,128,0,172631:0:0:0:0:
64,192,172807,1,0,0:0:0:0:
320,192,172807,1,0,0:0:0:0:
448,192,172807,1,0,0:0:0:0:
64,192,172984,1,0,0:0:0:0:
192,192,172984,1,0,0:0:0:0:
320,192,172984,1,0,0:0:0:0:
448,192,172984,1,0,0:0:0:0:
320,192,173160,128,0,173248:0:0:0:0:
448,192,173160,128,0,173248:0:0:0:0:
448,192,173337,1,0,0:0:0:0:
192,192,173337,1,0,0:0:0:0:
64,192,173337,1,0,0:0:0:0:
320,192,173425,1,0,0:0:0:0:
192,192,173513,1,0,0:0:0:0:
64,192,173513,1,0,0:0:0:0:
320,192,173601,1,0,0:0:0:0:
448,192,173601,1,0,0:0:0:0:
192,192,173690,1,0,0:0:0:0:
64,192,173690,1,0,0:0:0:0:
320,192,173778,1,0,0:0:0:0:
448,192,173778,1,0,0:0:0:0:
64,192,173866,1,0,0:0:0:0:
192,192,173866,1,0,0:0:0:0:
448,192,173866,1,0,0:0:0:0:
320,192,173866,1,0,0:0:0:0:
64,192,174219,128,0,174307:0:0:0:0:
320,192,174219,128,0,174484:0:0:0:0:
448,192,174219,128,0,174307:0:0:0:0:
64,192,174395,128,0,174484:0:0:0:0:
448,192,174395,128,0,174484:0:0:0:0:
192,192,174395,128,0,174660:0:0:0:0:
64,192,174572,128,0,174660:0:0:0:0:
448,192,174572,128,0,174748:0:0:0:0:
320,192,174572,128,0,174748:0:0:0:0:
192,192,174748,1,0,0:0:0:0:
64,192,174748,1,0,0:0:0:0:
320,192,174837,1,0,0:0:0:0:
448,192,174837,1,0,0:0:0:0:
192,192,174925,1,0,0:0:0:0:
64,192,174925,1,0,0:0:0:0:
320,192,175013,1,0,0:0:0:0:
448,192,175013,1,0,0:0:0:0:
192,192,175101,1,0,0:0:0:0:
64,192,175101,1,0,0:0:0:0:
320,192,175190,1,0,0:0:0:0:
448,192,175190,1,0,0:0:0:0:
320,192,175278,128,0,175719:0:0:0:0:
448,192,175278,128,0,175631:0:0:0:0:
192,192,175278,128,0,175543:0:0:0:0:
64,192,175278,128,0,175543:0:0:0:0:
64,192,175631,128,0,175807:0:0:0:0:
192,192,175631,128,0,175719:0:0:0:0:
448,192,175719,128,0,175895:0:0:0:0:
320,192,175807,128,0,175895:0:0:0:0:
192,192,175807,128,0,176072:0:0:0:0:
64,192,175895,128,0,175984:0:0:0:0:
448,192,175984,128,0,176072:0:0:0:0:
320,192,175984,128,0,176160:0:0:0:0:
64,192,176072,128,0,176248:0:0:0:0:
192,192,176160,128,0,176248:0:0:0:0:
448,192,176160,128,0,176425:0:0:0:0:
320,192,176248,128,0,176337:0:0:0:0:
192,192,176337,128,0,176513:0:0:0:0:
64,192,176337,128,0,176425:0:0:0:0:
320,192,176425,128,0,176601:0:0:0:0:
64,192,176513,128,0,176690:0:0:0:0:
448,192,176513,128,0,176601:0:0:0:0:
192,192,176601,128,0,176778:0:0:0:0:
320,192,176690,128,0,176778:0:0:0:0:
448,192,176690,128,0,176866:0:0:0:0:
64,192,176778,128,0,176954:0:0:0:0:
192,192,176866,128,0,177043:0:0:0:0:
320,192,176866,128,0,176954:0:0:0:0:
448,192,176954,128,0,177131:0:0:0:0:
64,192,177043,128,0,177219:0:0:0:0:
320,192,177043,128,0,177131:0:0:0:0:
192,192,177131,128,0,177307:0:0:0:0:
320,192,177219,128,0,177307:0:0:0:0:
448,192,177219,128,0,177395:0:0:0:0:
64,192,177307,128,0,177484:0:0:0:0:
192,192,177395,128,0,177484:0:0:0:0:
320,192,177395,128,0,177572:0:0:0:0:
448,192,177484,128,0,177660:0:0:0:0:
64,192,177572,128,0,177660:0:0:0:0:
192,192,177572,128,0,177748:0:0:0:0:
320,192,177660,128,0,177837:0:0:0:0:
64,192,177748,128,0,177925:0:0:0:0:
448,192,177748,128,0,177837:0:0:0:0:
192,192,177837,128,0,178013:0:0:0:0:
320,192,177925,128,0,178101:0:0:0:0:
448,192,177925,128,0,178013:0:0:0:0:
64,192,178013,128,0,178190:0:0:0:0:
192,192,178101,128,0,178190:0:0:0:0:
448,192,178101,128,0,178278:0:0:0:0:
320,192,178190,128,0,178366:0:0:0:0:
192,192,178278,128,0,178366:0:0:0:0:
64,192,178278,128,0,178454:0:0:0:0:
448,192,178366,128,0,178543:0:0:0:0:
320,192,178454,128,0,178543:0:0:0:0:
192,192,178454,128,0,178631:0:0:0:0:
64,192,178543,128,0,178719:0:0:0:0:
320,192,178631,128,0,178807:0:0:0:0:
448,192,178631,128,0,178719:0:0:0:0:
192,192,178719,128,0,178895:0:0:0:0:
64,192,178807,128,0,178895:0:0:0:0:
448,192,178807,128,0,178984:0:0:0:0:
320,192,178895,128,0,179072:0:0:0:0:
192,192,178984,128,0,179072:0:0:0:0:
64,192,178984,128,0,179160:0:0:0:0:
448,192,179072,128,0,179248:0:0:0:0:
192,192,179160,128,0,179337:0:0:0:0:
320,192,179160,128,0,179248:0:0:0:0:
64,192,179248,128,0,179425:0:0:0:0:
448,192,179337,128,0,179425:0:0:0:0:
320,192,179337,128,0,179513:0:0:0:0:
192,192,179425,128,0,179601:0:0:0:0:
448,192,179513,128,0,179690:0:0:0:0:
64,192,179513,128,0,179601:0:0:0:0:
320,192,179601,128,0,179778:0:0:0:0:
192,192,179690,128,0,179866:0:0:0:0:
64,192,179690,128,0,179778:0:0:0:0:
448,192,179778,128,0,179954:0:0:0:0:
64,192,179866,128,0,180043:0:0:0:0:
320,192,179866,128,0,179954:0:0:0:0:
192,192,179954,128,0,180131:0:0:0:0:
320,192,180043,128,0,180219:0:0:0:0:
448,192,180043,128,0,180131:0:0:0:0:
64,192,180131,128,0,180307:0:0:0:0:
192,192,180219,128,0,180307:0:0:0:0:
448,192,180219,128,0,180484:0:0:0:0:
320,192,180307,128,0,180395:0:0:0:0:
192,192,180395,128,0,180572:0:0:0:0:
64,192,180395,128,0,180484:0:0:0:0:
320,192,180484,128,0,180660:0:0:0:0:
448,192,180572,128,0,180660:0:0:0:0:
64,192,180572,128,0,180837:0:0:0:0:
192,192,180660,128,0,180837:0:0:0:0:
320,192,180748,128,0,180837:0:0:0:0:
448,192,180748,128,0,180837:0:0:0:0:
64,192,180925,128,0,181190:0:0:0:0:
192,192,180925,128,0,181190:0:0:0:0:
320,192,180925,128,0,181101:0:0:0:0:
448,192,180925,128,0,181278:0:0:0:0:
320,192,181190,128,0,181366:0:0:0:0:
64,192,181278,128,0,181454:0:0:0:0:
192,192,181278,128,0,181366:0:0:0:0:
448,192,181366,128,0,181543:0:0:0:0:
192,192,181454,128,0,181631:0:0:0:0:
320,192,181454,128,0,181543:0:0:0:0:
64,192,181543,128,0,181719:0:0:0:0:
320,192,181631,128,0,181807:0:0:0:0:
448,192,181631,128,0,181719:0:0:0:0:
192,192,181719,128,0,181895:0:0:0:0:
64,192,181807,128,0,181895:0:0:0:0:
448,192,181807,128,0,181984:0:0:0:0:
320,192,181895,128,0,182072:0:0:0:0:
192,192,181984,128,0,182160:0:0:0:0:
64,192,181984,128,0,182072:0:0:0:0:
448,192,182072,128,0,182248:0:0:0:0:
64,192,182160,128,0,182337:0:0:0:0:
320,192,182160,128,0,182248:0:0:0:0:
192,192,182248,128,0,182425:0:0:0:0:
320,192,182337,128,0,182513:0:0:0:0:
448,192,182337,128,0,182425:0:0:0:0:
64,192,182425,128,0,182601:0:0:0:0:
192,192,182513,128,0,182601:0:0:0:0:
448,192,182513,128,0,182690:0:0:0:0:
320,192,182601,128,0,182778:0:0:0:0:
192,192,182690,128,0,182778:0:0:0:0:
64,192,182690,128,0,182866:0:0:0:0:
448,192,182778,128,0,182954:0:0:0:0:
320,192,182866,128,0,182954:0:0:0:0:
192,192,182866,128,0,183043:0:0:0:0:
64,192,182954,128,0,183131:0:0:0:0:
320,192,183043,128,0,183219:0:0:0:0:
448,192,183043,128,0,183131:0:0:0:0:
192,192,183131,128,0,183307:0:0:0:0:
64,192,183219,128,0,183307:0:0:0:0:
448,192,183219,128,0,183395:0:0:0:0:
320,192,183307,128,0,183484:0:0:0:0:
192,192,183395,128,0,183572:0:0:0:0:
64,192,183395,128,0,183484:0:0:0:0:
448,192,183484,128,0,183660:0:0:0:0:
64,192,183572,128,0,183660:0:0:0:0:
320,192,183572,128,0,183660:0:0:0:0:
192,192,183660,128,0,183748:0:0:0:0:
320,192,183748,128,0,183837:0:0:0:0:
448,192,183748,128,0,183925:0:0:0:0:
64,192,183748,128,0,183837:0:0:0:0:
192,192,183837,128,0,184013:0:0:0:0:
320,192,183925,128,0,184013:0:0:0:0:
64,192,183925,128,0,184101:0:0:0:0:
448,192,184013,128,0,184190:0:0:0:0:
320,192,184101,128,0,184190:0:0:0:0:
192,192,184101,128,0,184278:0:0:0:0:
64,192,184190,128,0,184366:0:0:0:0:
320,192,184278,128,0,184454:0:0:0:0:
448,192,184278,128,0,184366:0:0:0:0:
192,192,184366,128,0,184543:0:0:0:0:
64,192,184454,128,0,184543:0:0:0:0:
448,192,184454,128,0,184631:0:0:0:0:
320,192,184543,128,0,184719:0:0:0:0:
192,192,184631,128,0,184719:0:0:0:0:
64,192,184631,128,0,184807:0:0:0:0:
448,192,184719,128,0,184895:0:0:0:0:
192,192,184807,128,0,185072:0:0:0:0:
320,192,184807,128,0,184895:0:0:0:0:
64,192,184895,128,0,184984:0:0:0:0:
320,192,184984,128,0,185160:0:0:0:0:
448,192,184984,128,0,185072:0:0:0:0:
64,192,185072,128,0,185248:0:0:0:0:
448,192,185160,128,0,185337:0:0:0:0:
192,192,185160,128,0,185248:0:0:0:0:
320,192,185248,128,0,185425:0:0:0:0:
192,192,185337,128,0,185513:0:0:0:0:
64,192,185337,128,0,185425:0:0:0:0:
448,192,185425,128,0,185601:0:0:0:0:
64,192,185513,128,0,185778:0:0:0:0:
320,192,185513,128,0,185601:0:0:0:0:
192,192,185601,128,0,185778:0:0:0:0:
320,192,185690,128,0,185778:0:0:0:0:
448,192,185690,128,0,185778:0:0:0:0:
64,192,185866,128,0,185954:0:0:0:0:
192,192,185866,128,0,185954:0:0:0:0:
320,192,185866,128,0,185954:0:0:0:0:
448,192,185866,128,0,185954:0:0:0:0:
320,192,186219,1,0,0:0:0:0:
448,192,186219,1,0,0:0:0:0:
448,192,186395,1,0,0:0:0:0:
320,192,186395,1,0,0:0:0:0:
64,192,186395,1,0,0:0:0:0:
192,192,186572,1,0,0:0:0:0:
64,192,186572,128,0,187807:0:0:0:0:
320,192,186572,128,0,186660:0:0:0:0:
448,192,186572,128,0,186660:0:0:0:0:
192,192,186748,128,0,186837:0:0:0:0:
320,192,186837,128,0,186925:0:0:0:0:
448,192,186925,128,0,187013:0:0:0:0:
192,192,187013,128,0,187101:0:0:0:0:
320,192,187101,128,0,187190:0:0:0:0:
448,192,187190,128,0,187278:0:0:0:0:
192,192,187278,128,0,187366:0:0:0:0:
448,192,187366,128,0,187454:0:0:0:0:
320,192,187454,128,0,187543:0:0:0:0:
192,192,187543,128,0,187631:0:0:0:0:
448,192,187631,128,0,187719:0:0:0:0:
320,192,187719,128,0,187807:0:0:0:0:
448,192,187807,128,0,187984:0:0:0:0:
192,192,187807,128,0,187895:0:0:0:0:
64,192,187895,128,0,187984:0:0:0:0:
192,192,187984,128,0,188337:0:0:0:0:
320,192,187984,128,0,188072:0:0:0:0:
64,192,188072,128,0,188160:0:0:0:0:
320,192,188160,128,0,188248:0:0:0:0:
448,192,188248,128,0,188337:0:0:0:0:
320,192,188337,128,0,188513:0:0:0:0:
64,192,188337,128,0,188425:0:0:0:0:
192,192,188425,128,0,188513:0:0:0:0:
448,192,188513,128,0,188601:0:0:0:0:
320,192,188601,128,0,188690:0:0:0:0:
64,192,188690,128,0,188866:0:0:0:0:
192,192,188690,128,0,188778:0:0:0:0:
448,192,188778,128,0,188866:0:0:0:0:
320,192,188866,128,0,188954:0:0:0:0:
192,192,188954,128,0,189043:0:0:0:0:
320,192,189043,128,0,189219:0:0:0:0:
64,192,189043,128,0,189131:0:0:0:0:
448,192,189131,128,0,189219:0:0:0:0:
192,192,189219,128,0,189307:0:0:0:0:
64,192,189307,128,0,189395:0:0:0:0:
448,192,189395,128,0,190278:0:0:0:0:
320,192,189395,128,0,189484:0:0:0:0:
64,192,189484,128,0,189572:0:0:0:0:
192,192,189572,128,0,189660:0:0:0:0:
320,192,189660,128,0,189748:0:0:0:0:
64,192,189748,128,0,189837:0:0:0:0:
192,192,189837,128,0,189925:0:0:0:0:
320,192,189925,128,0,190013:0:0:0:0:
64,192,190013,128,0,190101:0:0:0:0:
320,192,190101,128,0,190190:0:0:0:0:
192,192,190190,128,0,190278:0:0:0:0:
64,192,190278,128,0,190454:0:0:0:0:
320,192,190278,128,0,190366:0:0:0:0:
448,192,190366,128,0,190454:0:0:0:0:
192,192,190454,128,0,190631:0:0:0:0:
320,192,190454,128,0,190543:0:0:0:0:
64,192,190543,128,0,190631:0:0:0:0:
320,192,190631,128,0,190807:0:0:0:0:
448,192,190631,128,0,190719:0:0:0:0:
192,192,190719,128,0,190807:0:0:0:0:
448,192,190807,128,0,191337:0:0:0:0:
64,192,190807,128,0,190895:0:0:0:0:
320,192,190895,128,0,190984:0:0:0:0:
192,192,190984,128,0,191072:0:0:0:0:
64,192,191072,128,0,191160:0:0:0:0:
320,192,191160,128,0,191248:0:0:0:0:
64,192,191248,128,0,191337:0:0:0:0:
192,192,191337,128,0,191513:0:0:0:0:
320,192,191337,128,0,191425:0:0:0:0:
448,192,191425,128,0,191513:0:0:0:0:
320,192,191513,128,0,192043:0:0:0:0:
64,192,191513,128,0,191690:0:0:0:0:
192,192,191631,128,0,191807:0:0:0:0:
448,192,191690,128,0,191807:0:0:0:0:
64,192,191748,128,0,191925:0:0:0:0:
448,192,191866,128,0,191984:0:0:0:0:
192,192,191925,128,0,192043:0:0:0:0:
64,192,191984,128,0,192101:0:0:0:0:
448,192,192043,128,0,192160:0:0:0:0:
192,192,192101,128,0,192219:0:0:0:0:
320,192,192219,1,0,0:0:0:0:
448,192,192219,128,0,192748:0:0:0:0:
64,192,192219,128,0,192307:0:0:0:0:
192,192,192307,128,0,192395:0:0:0:0:
320,192,192395,128,0,192484:0:0:0:0:
64,192,192484,128,0,192572:0:0:0:0:
192,192,192572,128,0,192660:0:0:0:0:
320,192,192660,128,0,192748:0:0:0:0:
64,192,192748,128,0,193013:0:0:0:0:
192,192,192837,128,0,193190:0:0:0:0:
320,192,192925,128,0,193190:0:0:0:0:
448,192,193013,128,0,193101:0:0:0:0:
64,192,193101,128,0,193278:0:0:0:0:
448,192,193190,128,0,193366:0:0:0:0:
320,192,193278,128,0,193366:0:0:0:0:
192,192,193278,128,0,193454:0:0:0:0:
64,192,193366,128,0,193454:0:0:0:0:
320,192,193454,128,0,193543:0:0:0:0:
448,192,193454,128,0,193543:0:0:0:0:
192,192,193631,1,0,0:0:0:0:
64,192,193631,128,0,194072:0:0:0:0:
448,192,193631,128,0,193719:0:0:0:0:
320,192,193631,128,0,193719:0:0:0:0:
192,192,193807,128,0,193895:0:0:0:0:
320,192,193895,128,0,193984:0:0:0:0:
448,192,193984,128,0,194160:0:0:0:0:
192,192,194072,128,0,194160:0:0:0:0:
320,192,194160,128,0,194337:0:0:0:0:
64,192,194248,128,0,194337:0:0:0:0:
192,192,194337,128,0,194513:0:0:0:0:
320,192,194425,128,0,194513:0:0:0:0:
64,192,194513,128,0,194690:0:0:0:0:
448,192,194690,128,0,194954:0:0:0:0:
320,192,194778,128,0,194954:0:0:0:0:
192,192,194866,128,0,195131:0:0:0:0:
64,192,194954,128,0,195131:0:0:0:0:
320,192,195043,128,0,195131:0:0:0:0:
448,192,195043,128,0,195131:0:0:0:0:
64,192,195395,128,0,195484:0:0:0:0:
192,192,195484,128,0,195748:0:0:0:0:
320,192,195572,128,0,195660:0:0:0:0:
64,192,195572,1,0,0:0:0:0:
448,192,195660,128,0,195837:0:0:0:0:
320,192,195748,128,0,196013:0:0:0:0:
192,192,195837,128,0,195925:0:0:0:0:
64,192,195925,128,0,196190:0:0:0:0:
448,192,195925,1,0,0:0:0:0:
192,192,196013,128,0,196190:0:0:0:0:
320,192,196101,128,0,196278:0:0:0:0:
448,192,196190,128,0,196366:0:0:0:0:
64,192,196278,1,0,0:0:0:0:
192,192,196278,128,0,196366:0:0:0:0:
320,192,196366,128,0,196631:0:0:0:0:
64,192,196454,1,0,0:0:0:0:
192,192,196454,1,0,0:0:0:0:
448,192,196454,128,0,196631:0:0:0:0:
192,192,196631,128,0,196807:0:0:0:0:
64,192,196631,128,0,196895:0:0:0:0:
448,192,196719,128,0,196895:0:0:0:0:
320,192,196807,128,0,196895:0:0:0:0:
192,192,196895,128,0,196984:0:0:0:0:
64,192,196984,128,0,197072:0:0:0:0:
320,192,196984,1,0,0:0:0:0:
448,192,196984,1,0,0:0:0:0:
192,192,197072,128,0,197248:0:0:0:0:
320,192,197160,128,0,197425:0:0:0:0:
64,192,197160,1,0,0:0:0:0:
448,192,197248,128,0,197337:0:0:0:0:
192,192,197337,1,0,0:0:0:0:
64,192,197337,1,0,0:0:0:0:
448,192,197425,128,0,197601:0:0:0:0:
320,192,197513,128,0,197690:0:0:0:0:
64,192,197513,1,0,0:0:0:0:
192,192,197601,128,0,197866:0:0:0:0:
64,192,197690,128,0,197778:0:0:0:0:
448,192,197690,1,0,0:0:0:0:
320,192,197778,128,0,197954:0:0:0:0:
448,192,197866,128,0,197954:0:0:0:0:
64,192,197866,1,0,0:0:0:0:
192,192,197954,128,0,198043:0:0:0:0:
64,192,198043,128,0,198131:0:0:0:0:
448,192,198043,128,0,199278:0:0:0:0:
320,192,198131,128,0,198219:0:0:0:0:
192,192,198219,128,0,198307:0:0:0:0:
64,192,198307,128,0,198395:0:0:0:0:
192,192,198395,1,0,0:0:0:0:
320,192,198395,1,0,0:0:0:0:
64,192,198484,128,0,198572:0:0:0:0:
192,192,198572,128,0,198660:0:0:0:0:
320,192,198660,128,0,198748:0:0:0:0:
64,192,198748,128,0,198837:0:0:0:0:
192,192,198837,128,0,198925:0:0:0:0:
64,192,198925,1,0,0:0:0:0:
320,192,198925,1,0,0:0:0:0:
64,192,199101,1,0,0:0:0:0:
320,192,199101,1,0,0:0:0:0:
192,192,199190,128,0,199278:0:0:0:0:
64,192,199278,128,0,199807:0:0:0:0:
320,192,199366,128,0,199454:0:0:0:0:
448,192,199454,128,0,199543:0:0:0:0:
320,192,199543,128,0,199631:0:0:0:0:
448,192,199631,128,0,199807:0:0:0:0:
192,192,199631,1,0,0:0:0:0:
320,192,199807,128,0,199984:0:0:0:0:
192,192,199807,1,0,0:0:0:0:
64,192,199895,128,0,199984:0:0:0:0:
192,192,199984,128,0,200160:0:0:0:0:
448,192,199984,128,0,200072:0:0:0:0:
320,192,200072,128,0,200160:0:0:0:0:
64,192,200160,128,0,200337:0:0:0:0:
448,192,200160,128,0,200248:0:0:0:0:
192,192,200248,128,0,200337:0:0:0:0:
448,192,200337,128,0,200513:0:0:0:0:
320,192,200425,128,0,200513:0:0:0:0:
192,192,200513,128,0,200866:0:0:0:0:
64,192,200513,128,0,200601:0:0:0:0:
320,192,200601,128,0,200690:0:0:0:0:
448,192,200690,128,0,200778:0:0:0:0:
448,192,200866,128,0,200954:0:0:0:0:
320,192,200910,128,0,200998:0:0:0:0:
192,192,200954,128,0,201043:0:0:0:0:
64,192,200998,128,0,201087:0:0:0:0:
448,192,201043,128,0,201131:0:0:0:0:
320,192,201087,128,0,201175:0:0:0:0:
64,192,201131,128,0,201219:0:0:0:0:
192,192,201175,128,0,201263:0:0:0:0:
320,192,201219,128,0,201307:0:0:0:0:
448,192,201263,128,0,201351:0:0:0:0:
64,192,201307,128,0,201395:0:0:0:0:
192,192,201351,128,0,201440:0:0:0:0:
448,192,201395,128,0,201484:0:0:0:0:
320,192,201440,128,0,201528:0:0:0:0:
64,192,201484,128,0,201572:0:0:0:0:
192,192,201528,128,0,201616:0:0:0:0:
448,192,201572,128,0,201660:0:0:0:0:
320,192,201616,128,0,201704:0:0:0:0:
64,192,201748,1,0,0:0:0:0:
192,192,201748,1,0,0:0:0:0:
320,192,201925,1,0,0:0:0:0:
448,192,201925,1,0,0:0:0:0:
192,192,202101,128,0,202190:0:0:0:0:
64,192,202145,128,0,202234:0:0:0:0:
320,192,202190,128,0,202278:0:0:0:0:
448,192,202234,128,0,202322:0:0:0:0:
192,192,202278,128,0,202366:0:0:0:0:
64,192,202322,128,0,202410:0:0:0:0:
320,192,202366,128,0,202454:0:0:0:0:
448,192,202410,128,0,202498:0:0:0:0:
192,192,202454,128,0,202543:0:0:0:0:
64,192,202498,128,0,202587:0:0:0:0:
320,192,202543,128,0,202631:0:0:0:0:
448,192,202587,128,0,202675:0:0:0:0:
192,192,202631,128,0,202719:0:0:0:0:
64,192,202675,128,0,202763:0:0:0:0:
320,192,202719,128,0,202807:0:0:0:0:
448,192,202763,128,0,202851:0:0:0:0:
192,192,202807,128,0,202895:0:0:0:0:
64,192,202851,128,0,202940:0:0:0:0:
320,192,202895,128,0,202984:0:0:0:0:
448,192,202940,128,0,203028:0:0:0:0:
192,192,202984,128,0,203072:0:0:0:0:
64,192,203028,128,0,203116:0:0:0:0:
320,192,203160,1,0,0:0:0:0:
448,192,203160,1,0,0:0:0:0:
192,192,203337,1,0,0:0:0:0:
64,192,203337,1,0,0:0:0:0:
64,192,203513,128,0,203778:0:0:0:0:
192,192,203513,128,0,203778:0:0:0:0:
320,192,203513,128,0,203778:0:0:0:0:
448,192,203513,128,0,203778:0:0:0:0:
448,192,204043,128,0,204087:0:0:0:0:
64,192,204395,128,0,204440:0:0:0:0:
192,192,204748,128,0,204793:0:0:0:0:
64,192,204748,128,0,204793:0:0:0:0:
64,192,204925,1,0,0:0:0:0:
192,192,204925,1,0,0:0:0:0:
320,192,204925,1,0,0:0:0:0:
448,192,204925,1,0,0:0:0:0:
64,192,205278,1,0,0:0:0:0:
320,192,205278,1,0,0:0:0:0:
320,192,205454,1,0,0:0:0:0:
448,192,205454,1,0,0:0:0:0:
192,192,205631,1,0,0:0:0:0:
64,192,205631,1,0,0:0:0:0:
192,192,205807,1,0,0:0:0:0:
320,192,205807,1,0,0:0:0:0:
64,192,205984,128,0,206072:0:0:0:0:
448,192,205984,128,0,206072:0:0:0:0:
448,192,206160,128,0,206248:0:0:0:0:
64,192,206160,128,0,206248:0:0:0:0:
64,192,206337,128,0,206425:0:0:0:0:
448,192,206337,128,0,206425:0:0:0:0:
192,192,206337,128,0,206425:0:0:0:0:
320,192,206337,128,0,206425:0:0:0:0:
64,192,206866,128,0,206910:0:0:0:0:
448,192,207219,128,0,207263:0:0:0:0:
448,192,207395,128,0,207440:0:0:0:0:
320,192,207395,128,0,207440:0:0:0:0:
64,192,207572,1,0,0:0:0:0:
192,192,207572,1,0,0:0:0:0:
192,192,207748,1,0,0:0:0:0:
64,192,207748,1,0,0:0:0:0:
320,192,207748,1,0,0:0:0:0:
448,192,207748,1,0,0:0:0:0:
64,192,208101,1,0,0:0:0:0:
448,192,208101,1,0,0:0:0:0:
320,192,208190,1,0,0:0:0:0:
192,192,208278,1,0,0:0:0:0:
64,192,208278,1,0,0:0:0:0:
448,192,208366,1,0,0:0:0:0:
320,192,208454,1,0,0:0:0:0:
64,192,208454,1,0,0:0:0:0:
192,192,208543,1,0,0:0:0:0:
320,192,208631,1,0,0:0:0:0:
448,192,208631,1,0,0:0:0:0:
64,192,208719,1,0,0:0:0:0:
192,192,208807,1,0,0:0:0:0:
448,192,208807,1,0,0:0:0:0:
320,192,208895,1,0,0:0:0:0:
192,192,208984,1,0,0:0:0:0:
64,192,208984,1,0,0:0:0:0:
448,192,208984,1,0,0:0:0:0:
64,192,209160,128,0,209248:0:0:0:0:
192,192,209160,128,0,209248:0:0:0:0:
320,192,209160,128,0,209248:0:0:0:0:
448,192,209160,128,0,209248:0:0:0:0:
192,192,209513,128,0,209601:0:0:0:0:
448,192,209513,128,0,209601:0:0:0:0:
192,192,209690,128,0,209778:0:0:0:0:
448,192,209690,128,0,209778:0:0:0:0:
64,192,209690,128,0,209778:0:0:0:0:
64,192,209866,1,0,0:0:0:0:
192,192,209866,1,0,0:0:0:0:
320,192,209866,1,0,0:0:0:0:
448,192,209866,1,0,0:0:0:0:
64,192,210219,1,0,0:0:0:0:
192,192,210219,1,0,0:0:0:0:
448,192,210219,1,0,0:0:0:0:
64,192,210395,1,0,0:0:0:0:
192,192,210395,1,0,0:0:0:0:
320,192,210395,1,0,0:0:0:0:
448,192,210395,1,0,0:0:0:0:
64,192,210572,128,0,210660:0:0:0:0:
320,192,210572,128,0,210660:0:0:0:0:
448,192,210572,128,0,210660:0:0:0:0:
64,192,210748,128,0,210837:0:0:0:0:
192,192,210748,128,0,210837:0:0:0:0:
320,192,210925,128,0,211013:0:0:0:0:
448,192,210925,128,0,211013:0:0:0:0:
448,192,211101,1,0,0:0:0:0:
320,192,211101,1,0,0:0:0:0:
192,192,211101,1,0,0:0:0:0:
64,192,211101,1,0,0:0:0:0:
64,192,211278,1,0,0:0:0:0:
192,192,211278,1,0,0:0:0:0:
448,192,211278,1,0,0:0:0:0:
320,192,211454,128,0,211543:0:0:0:0:
448,192,211454,128,0,211543:0:0:0:0:
192,192,211631,128,0,211719:0:0:0:0:
320,192,211631,128,0,211719:0:0:0:0:
192,192,211807,1,0,0:0:0:0:
64,192,211807,1,0,0:0:0:0:
320,192,211807,1,0,0:0:0:0:
448,192,211807,1,0,0:0:0:0:
320,192,211984,128,0,212160:0:0:0:0:
448,192,211984,128,0,212072:0:0:0:0:
192,192,212072,128,0,212248:0:0:0:0:
64,192,212160,128,0,212248:0:0:0:0:
448,192,212160,128,0,212425:0:0:0:0:
320,192,212248,128,0,212337:0:0:0:0:
192,192,212337,128,0,212513:0:0:0:0:
64,192,212337,128,0,212425:0:0:0:0:
320,192,212425,128,0,212601:0:0:0:0:
448,192,212513,128,0,212601:0:0:0:0:
64,192,212513,128,0,212690:0:0:0:0:
192,192,212601,128,0,212778:0:0:0:0:
320,192,212690,128,0,212778:0:0:0:0:
448,192,212690,128,0,212866:0:0:0:0:
64,192,212778,128,0,212954:0:0:0:0:
192,192,212866,128,0,212954:0:0:0:0:
320,192,212866,128,0,213043:0:0:0:0:
448,192,212954,128,0,213131:0:0:0:0:
192,192,213043,128,0,213219:0:0:0:0:
64,192,213043,128,0,213131:0:0:0:0:
320,192,213131,128,0,213307:0:0:0:0:
64,192,213219,128,0,213484:0:0:0:0:
448,192,213219,128,0,213307:0:0:0:0:
192,192,213307,128,0,213395:0:0:0:0:
320,192,213395,128,0,213837:0:0:0:0:
448,192,213395,128,0,213572:0:0:0:0:
192,192,213484,128,0,213660:0:0:0:0:
64,192,213572,128,0,213660:0:0:0:0:
448,192,213660,128,0,213837:0:0:0:0:
192,192,213748,128,0,213837:0:0:0:0:
64,192,213748,128,0,213837:0:0:0:0:
64,192,213925,1,0,0:0:0:0:
192,192,213925,1,0,0:0:0:0:
320,192,213925,1,0,0:0:0:0:
448,192,213925,1,0,0:0:0:0:
320,192,214101,1,0,0:0:0:0:
448,192,214101,1,0,0:0:0:0:
64,192,214278,128,0,214366:0:0:0:0:
192,192,214322,128,0,214410:0:0:0:0:
448,192,214366,128,0,214454:0:0:0:0:
320,192,214410,128,0,214498:0:0:0:0:
64,192,214454,128,0,214543:0:0:0:0:
192,192,214498,128,0,214587:0:0:0:0:
320,192,214543,128,0,214631:0:0:0:0:
448,192,214587,128,0,214675:0:0:0:0:
192,192,214631,128,0,214719:0:0:0:0:
64,192,214675,1,0,0:0:0:0:
448,192,214807,128,0,214984:0:0:0:0:
320,192,214807,1,0,0:0:0:0:
192,192,214807,128,0,214895:0:0:0:0:
64,192,214807,128,0,214895:0:0:0:0:
320,192,214895,128,0,215072:0:0:0:0:
192,192,214984,128,0,215072:0:0:0:0:
64,192,214984,128,0,215160:0:0:0:0:
448,192,215072,128,0,215248:0:0:0:0:
192,192,215160,128,0,215248:0:0:0:0:
320,192,215160,128,0,215248:0:0:0:0:
64,192,215248,128,0,215337:0:0:0:0:
192,192,215337,128,0,215425:0:0:0:0:
320,192,215337,128,0,215513:0:0:0:0:
448,192,215337,128,0,215425:0:0:0:0:
64,192,215425,128,0,215601:0:0:0:0:
192,192,215513,128,0,215601:0:0:0:0:
448,192,215513,128,0,215690:0:0:0:0:
320,192,215601,128,0,215778:0:0:0:0:
192,192,215690,128,0,215866:0:0:0:0:
64,192,215690,128,0,215778:0:0:0:0:
448,192,215778,128,0,215954:0:0:0:0:
64,192,215866,128,0,215954:0:0:0:0:
320,192,215866,128,0,215954:0:0:0:0:
192,192,215954,128,0,216043:0:0:0:0:
320,192,216043,128,0,216131:0:0:0:0:
448,192,216043,128,0,216131:0:0:0:0:
64,192,216043,128,0,216219:0:0:0:0:
192,192,216131,128,0,216307:0:0:0:0:
320,192,216219,128,0,216307:0:0:0:0:
448,192,216219,128,0,216395:0:0:0:0:
64,192,216307,128,0,216484:0:0:0:0:
320,192,216395,128,0,216660:0:0:0:0:
192,192,216395,128,0,216484:0:0:0:0:
448,192,216484,128,0,216572:0:0:0:0:
64,192,216572,128,0,216660:0:0:0:0:
192,192,216572,128,0,216660:0:0:0:0:
448,192,216660,128,0,216748:0:0:0:0:
320,192,216748,128,0,216837:0:0:0:0:
192,192,216748,128,0,216925:0:0:0:0:
64,192,216748,128,0,216837:0:0:0:0:
448,192,216837,128,0,217013:0:0:0:0:
64,192,216925,128,0,217101:0:0:0:0:
320,192,216925,128,0,217013:0:0:0:0:
192,192,217013,128,0,217190:0:0:0:0:
320,192,217101,128,0,217278:0:0:0:0:
448,192,217101,128,0,217190:0:0:0:0:
64,192,217190,128,0,217366:0:0:0:0:
192,192,217278,128,0,217366:0:0:0:0:
448,192,217278,128,0,217366:0:0:0:0:
320,192,217366,128,0,217454:0:0:0:0:
192,192,217454,128,0,217543:0:0:0:0:
64,192,217454,128,0,217543:0:0:0:0:
448,192,217454,128,0,217631:0:0:0:0:
320,192,217543,128,0,217719:0:0:0:0:
192,192,217631,128,0,217807:0:0:0:0:
64,192,217631,128,0,217719:0:0:0:0:
448,192,217719,128,0,217895:0:0:0:0:
320,192,217807,128,0,217895:0:0:0:0:
64,192,217807,128,0,217984:0:0:0:0:
192,192,217895,128,0,218072:0:0:0:0:
320,192,217984,128,0,218072:0:0:0:0:
448,192,217984,128,0,218072:0:0:0:0:
64,192,218072,128,0,218160:0:0:0:0:
192,192,218160,128,0,218248:0:0:0:0:
320,192,218160,128,0,218337:0:0:0:0:
448,192,218160,128,0,218248:0:0:0:0:
64,192,218248,128,0,218425:0:0:0:0:
448,192,218337,128,0,218513:0:0:0:0:
192,192,218337,128,0,218425:0:0:0:0:
320,192,218425,128,0,218601:0:0:0:0:
192,192,218513,128,0,218690:0:0:0:0:
64,192,218513,128,0,218601:0:0:0:0:
448,192,218601,128,0,218778:0:0:0:0:
320,192,218690,128,0,218778:0:0:0:0:
64,192,218690,128,0,218778:0:0:0:0:
192,192,218778,128,0,218866:0:0:0:0:
320,192,218866,128,0,218954:0:0:0:0:
448,192,218866,128,0,218954:0:0:0:0:
64,192,218866,128,0,219043:0:0:0:0:
192,192,218954,128,0,219131:0:0:0:0:
320,192,219043,128,0,219131:0:0:0:0:
448,192,219043,128,0,219219:0:0:0:0:
64,192,219131,128,0,219307:0:0:0:0:
320,192,219219,128,0,219395:0:0:0:0:
192,192,219219,128,0,219307:0:0:0:0:
448,192,219307,128,0,219484:0:0:0:0:
192,192,219395,128,0,219572:0:0:0:0:
64,192,219395,128,0,219484:0:0:0:0:
320,192,219484,128,0,219660:0:0:0:0:
64,192,219572,128,0,219748:0:0:0:0:
448,192,219572,128,0,219660:0:0:0:0:
192,192,219660,128,0,219837:0:0:0:0:
320,192,219748,128,0,219925:0:0:0:0:
448,192,219748,128,0,219837:0:0:0:0:
64,192,219837,128,0,220013:0:0:0:0:
192,192,219925,128,0,220013:0:0:0:0:
448,192,219925,128,0,220101:0:0:0:0:
320,192,220013,128,0,220190:0:0:0:0:
192,192,220101,128,0,220366:0:0:0:0:
64,192,220101,128,0,220190:0:0:0:0:
448,192,220190,128,0,220366:0:0:0:0:
320,192,220278,128,0,220366:0:0:0:0:
64,192,220278,128,0,220543:0:0:0:0:
320,192,220454,128,0,220543:0:0:0:0:
448,192,220454,128,0,220543:0:0:0:0:
192,192,220454,128,0,220543:0:0:0:0:
320,192,220631,1,0,0:0:0:0:
448,192,220631,128,0,221248:0:0:0:0:
192,192,220631,128,0,220719:0:0:0:0:
64,192,220631,128,0,220807:0:0:0:0:
320,192,220807,128,0,220895:0:0:0:0:
192,192,220895,128,0,220984:0:0:0:0:
64,192,220984,128,0,221072:0:0:0:0:
192,192,221072,128,0,221160:0:0:0:0:
320,192,221160,128,0,221248:0:0:0:0:
192,192,221248,128,0,221337:0:0:0:0:
64,192,221337,128,0,221513:0:0:0:0:
320,192,221337,128,0,221425:0:0:0:0:
448,192,221337,128,0,221425:0:0:0:0:
192,192,221425,128,0,221513:0:0:0:0:
448,192,221513,128,0,221690:0:0:0:0:
320,192,221513,128,0,221601:0:0:0:0:
64,192,221601,128,0,221690:0:0:0:0:
192,192,221690,128,0,221866:0:0:0:0:
320,192,221690,128,0,221778:0:0:0:0:
448,192,221778,128,0,221866:0:0:0:0:
320,192,221866,128,0,222395:0:0:0:0:
64,192,221866,128,0,221954:0:0:0:0:
192,192,221954,128,0,222043:0:0:0:0:
448,192,222043,128,0,222131:0:0:0:0:
192,192,222131,128,0,222219:0:0:0:0:
64,192,222219,128,0,222484:0:0:0:0:
192,192,222307,128,0,222484:0:0:0:0:
448,192,222395,128,0,222660:0:0:0:0:
320,192,222484,128,0,222660:0:0:0:0:
64,192,222572,128,0,222837:0:0:0:0:
192,192,222572,128,0,222660:0:0:0:0:
320,192,222748,1,0,0:0:0:0:
448,192,222748,1,0,0:0:0:0:
192,192,222837,1,0,0:0:0:0:
64,192,222925,1,0,0:0:0:0:
448,192,222925,1,0,0:0:0:0:
320,192,223013,1,0,0:0:0:0:
64,192,223101,1,0,0:0:0:0:
192,192,223101,1,0,0:0:0:0:
320,192,223190,1,0,0:0:0:0:
448,192,223190,1,0,0:0:0:0:
64,192,223278,128,0,223543:0:0:0:0:
192,192,223278,128,0,223366:0:0:0:0:
320,192,223278,128,0,223366:0:0:0:0:
448,192,223278,128,0,223366:0:0:0:0:
192,192,223454,128,0,223719:0:0:0:0:
320,192,223454,128,0,223543:0:0:0:0:
448,192,223454,128,0,223543:0:0:0:0:
64,192,223631,128,0,223895:0:0:0:0:
320,192,223631,128,0,223719:0:0:0:0:
448,192,223631,128,0,223719:0:0:0:0:
192,192,223807,128,0,224072:0:0:0:0:
320,192,223807,128,0,223895:0:0:0:0:
448,192,223807,128,0,223895:0:0:0:0:
64,192,223984,128,0,224248:0:0:0:0:
320,192,223984,128,0,224072:0:0:0:0:
448,192,223984,128,0,224072:0:0:0:0:
192,192,224160,128,0,224425:0:0:0:0:
448,192,224160,128,0,224248:0:0:0:0:
320,192,224160,128,0,224248:0:0:0:0:
64,192,224337,128,0,224601:0:0:0:0:
448,192,224337,128,0,224425:0:0:0:0:
320,192,224337,128,0,224425:0:0:0:0:
192,192,224513,128,0,224601:0:0:0:0:
320,192,224513,128,0,224601:0:0:0:0:
448,192,224513,128,0,224601:0:0:0:0:
320,192,224690,128,0,224778:0:0:0:0:
448,192,224690,128,0,224954:0:0:0:0:
192,192,224690,128,0,224778:0:0:0:0:
64,192,224690,128,0,224778:0:0:0:0:
320,192,224866,128,0,225131:0:0:0:0:
64,192,224866,128,0,224954:0:0:0:0:
192,192,224866,128,0,224954:0:0:0:0:
448,192,225043,128,0,225307:0:0:0:0:
192,192,225043,128,0,225131:0:0:0:0:
64,192,225043,128,0,225131:0:0:0:0:
320,192,225219,128,0,225484:0:0:0:0:
64,192,225219,128,0,225307:0:0:0:0:
192,192,225219,128,0,225307:0:0:0:0:
448,192,225395,128,0,225660:0:0:0:0:
64,192,225395,128,0,225484:0:0:0:0:
192,192,225395,128,0,225484:0:0:0:0:
320,192,225572,128,0,225837:0:0:0:0:
64,192,225572,128,0,225660:0:0:0:0:
192,192,225572,128,0,225660:0:0:0:0:
448,192,225748,128,0,226013:0:0:0:0:
192,192,225748,128,0,225837:0:0:0:0:
64,192,225748,128,0,225837:0:0:0:0:
320,192,225925,128,0,226013:0:0:0:0:
64,192,225925,128,0,226013:0:0:0:0:
192,192,225925,128,0,226013:0:0:0:0:
448,192,226101,128,0,226190:0:0:0:0:
192,192,226101,128,0,226190:0:0:0:0:
320,192,226101,128,0,226190:0:0:0:0:
64,192,226101,128,0,226366:0:0:0:0:
192,192,226278,128,0,226543:0:0:0:0:
320,192,226278,128,0,226366:0:0:0:0:
448,192,226278,128,0,226366:0:0:0:0:
448,192,226454,128,0,226719:0:0:0:0:
320,192,226454,128,0,226543:0:0:0:0:
64,192,226454,128,0,226543:0:0:0:0:
320,192,226631,128,0,226895:0:0:0:0:
64,192,226631,128,0,226719:0:0:0:0:
192,192,226631,128,0,226719:0:0:0:0:
64,192,226807,128,0,226895:0:0:0:0:
448,192,226807,128,0,226895:0:0:0:0:
192,192,226807,128,0,226895:0:0:0:0:
320,192,226984,1,0,0:0:0:0:
448,192,226984,1,0,0:0:0:0:
192,192,227072,1,0,0:0:0:0:
64,192,227072,1,0,0:0:0:0:
320,192,227160,1,0,0:0:0:0:
448,192,227160,1,0,0:0:0:0:
192,192,227248,1,0,0:0:0:0:
64,192,227248,1,0,0:0:0:0:
64,192,227337,1,0,0:0:0:0:
192,192,227337,1,0,0:0:0:0:
448,192,227337,1,0,0:0:0:0:
320,192,227337,1,0,0:0:0:0:
64,192,227513,128,0,227601:0:0:0:0:
192,192,227513,128,0,227601:0:0:0:0:
448,192,227513,128,0,227601:0:0:0:0:
448,192,227866,128,0,227910:0:0:0:0:
320,192,227866,1,0,0:0:0:0:
64,192,228043,1,0,0:0:0:0:
192,192,228043,1,0,0:0:0:0:
320,192,228043,1,0,0:0:0:0:
448,192,228043,1,0,0:0:0:0:
64,192,228219,128,0,228263:0:0:0:0:
192,192,228219,1,0,0:0:0:0:
320,192,228395,1,0,0:0:0:0:
448,192,228395,1,0,0:0:0:0:
192,192,228572,128,0,228616:0:0:0:0:
64,192,228572,1,0,0:0:0:0:
320,192,228660,1,0,0:0:0:0:
448,192,228660,1,0,0:0:0:0:
64,192,228748,128,0,228793:0:0:0:0:
192,192,228748,1,0,0:0:0:0:
320,192,228837,1,0,0:0:0:0:
448,192,228837,1,0,0:0:0:0:
448,192,228925,128,0,228969:0:0:0:0:
320,192,228925,1,0,0:0:0:0:
192,192,228925,1,0,0:0:0:0:
64,192,228925,1,0,0:0:0:0:
320,192,229278,1,0,0:0:0:0:
448,192,229278,1,0,0:0:0:0:
320,192,229454,1,0,0:0:0:0:
448,192,229454,1,0,0:0:0:0:
64,192,229454,128,0,229631:0:0:0:0:
192,192,229543,1,0,0:0:0:0:
320,192,229631,128,0,229807:0:0:0:0:
448,192,229719,1,0,0:0:0:0:
192,192,229807,128,0,229984:0:0:0:0:
64,192,229895,1,0,0:0:0:0:
448,192,229984,128,0,230160:0:0:0:0:
320,192,230072,1,0,0:0:0:0:
320,192,230160,128,0,230337:0:0:0:0:
64,192,230160,1,0,0:0:0:0:
192,192,230248,1,0,0:0:0:0:
64,192,230337,128,0,231572:0:0:0:0:
448,192,230337,1,0,0:0:0:0:
192,192,230690,1,0,0:0:0:0:
320,192,230690,1,0,0:0:0:0:
448,192,230690,1,0,0:0:0:0:
320,192,230866,1,0,0:0:0:0:
448,192,230866,1,0,0:0:0:0:
192,192,231043,1,0,0:0:0:0:
320,192,231043,1,0,0:0:0:0:
192,192,231219,1,0,0:0:0:0:
320,192,231219,1,0,0:0:0:0:
448,192,231219,1,0,0:0:0:0:
192,192,231395,1,0,0:0:0:0:
320,192,231395,1,0,0:0:0:0:
448,192,231572,128,0,231616:0:0:0:0:
320,192,231925,128,0,231969:0:0:0:0:
64,192,232631,128,0,232675:0:0:0:0:
192,192,232984,128,0,233028:0:0:0:0:
320,192,233160,128,0,233204:0:0:0:0:
448,192,233337,1,0,0:0:0:0:
320,192,233513,1,0,0:0:0:0:
192,192,233690,1,0,0:0:0:0:
64,192,233866,1,0,0:0:0:0:
192,192,234043,128,0,234087:0:0:0:0:
320,192,234219,128,0,234263:0:0:0:0:
448,192,234395,128,0,234440:0:0:0:0:
320,192,234572,128,0,234616:0:0:0:0:
192,192,234748,128,0,234793:0:0:0:0:
64,192,234748,128,0,234793:0:0:0:0:
192,192,236160,1,0,0:0:0:0:
448,192,236160,1,0,0:0:0:0:
192,192,236513,1,0,0:0:0:0:
320,192,236513,1,0,0:0:0:0:
64,192,236690,128,0,236954:0:0:0:0:
192,192,236690,128,0,236778:0:0:0:0:
320,192,236690,128,0,236778:0:0:0:0:
448,192,236690,128,0,236778:0:0:0:0:
192,192,236866,128,0,237131:0:0:0:0:
320,192,236866,128,0,236954:0:0:0:0:
448,192,236866,128,0,236954:0:0:0:0:
64,192,237043,128,0,237307:0:0:0:0:
320,192,237043,128,0,237131:0:0:0:0:
448,192,237043,128,0,237131:0:0:0:0:
192,192,237219,128,0,237484:0:0:0:0:
320,192,237219,128,0,237307:0:0:0:0:
448,192,237219,128,0,237307:0:0:0:0:
64,192,237395,128,0,237660:0:0:0:0:
320,192,237395,128,0,237484:0:0:0:0:
448,192,237395,128,0,237484:0:0:0:0:
192,192,237572,128,0,237837:0:0:0:0:
448,192,237572,128,0,237660:0:0:0:0:
320,192,237572,128,0,237660:0:0:0:0:
64,192,237748,128,0,238013:0:0:0:0:
448,192,237748,128,0,237837:0:0:0:0:
320,192,237748,128,0,237837:0:0:0:0:
192,192,237925,128,0,238013:0:0:0:0:
320,192,237925,128,0,238013:0:0:0:0:
448,192,237925,128,0,238013:0:0:0:0:
320,192,238101,128,0,238190:0:0:0:0:
448,192,238101,128,0,238366:0:0:0:0:
192,192,238101,128,0,238190:0:0:0:0:
64,192,238101,128,0,238190:0:0:0:0:
320,192,238278,128,0,238543:0:0:0:0:
64,192,238278,128,0,238366:0:0:0:0:
192,192,238278,128,0,238366:0:0:0:0:
448,192,238454,128,0,238719:0:0:0:0:
192,192,238454,128,0,238543:0:0:0:0:
64,192,238454,128,0,238543:0:0:0:0:
320,192,238631,128,0,238895:0:0:0:0:
64,192,238631,128,0,238719:0:0:0:0:
192,192,238631,128,0,238719:0:0:0:0:
448,192,238807,128,0,239072:0:0:0:0:
64,192,238807,128,0,238895:0:0:0:0:
192,192,238807,128,0,238895:0:0:0:0:
320,192,238984,128,0,239248:0:0:0:0:
64,192,238984,128,0,239072:0:0:0:0:
192,192,238984,128,0,239072:0:0:0:0:
448,192,239160,128,0,239425:0:0:0:0:
192,192,239160,128,0,239248:0:0:0:0:
64,192,239160,128,0,239248:0:0:0:0:
320,192,239337,128,0,239425:0:0:0:0:
64,192,239337,128,0,239425:0:0:0:0:
192,192,239337,128,0,239425:0:0:0:0:
448,192,239513,128,0,239601:0:0:0:0:
192,192,239513,128,0,239601:0:0:0:0:
320,192,239513,128,0,239601:0:0:0:0:
64,192,239513,128,0,239778:0:0:0:0:
192,192,239690,128,0,239954:0:0:0:0:
320,192,239690,128,0,239778:0:0:0:0:
448,192,239690,128,0,239778:0:0:0:0:
448,192,239866,128,0,240131:0:0:0:0:
320,192,239866,128,0,239954:0:0:0:0:
64,192,239866,128,0,239954:0:0:0:0:
320,192,240043,128,0,240307:0:0:0:0:
64,192,240043,128,0,240131:0:0:0:0:
192,192,240043,128,0,240131:0:0:0:0:
64,192,240219,128,0,240307:0:0:0:0:
192,192,240219,128,0,240307:0:0:0:0:
448,192,240219,128,0,240484:0:0:0:0:
192,192,240395,128,0,240660:0:0:0:0:
320,192,240395,128,0,240484:0:0:0:0:
64,192,240395,128,0,240484:0:0:0:0:
64,192,240572,128,0,240837:0:0:0:0:
320,192,240572,128,0,240660:0:0:0:0:
448,192,240572,128,0,240660:0:0:0:0:
320,192,240748,128,0,241013:0:0:0:0:
448,192,240748,128,0,240837:0:0:0:0:
192,192,240748,128,0,240837:0:0:0:0:
448,192,240925,128,0,241013:0:0:0:0:
192,192,240925,128,0,241013:0:0:0:0:
64,192,240925,128,0,241013:0:0:0:0:
64,192,241278,128,0,241322:0:0:0:0:
448,192,241278,1,0,0:0:0:0:
448,192,241631,128,0,241675:0:0:0:0:
320,192,241631,1,0,0:0:0:0:
64,192,241807,1,0,0:0:0:0:
192,192,241807,1,0,0:0:0:0:
448,192,241895,128,0,242248:0:0:0:0:
320,192,241984,128,0,242248:0:0:0:0:
192,192,242072,128,0,242248:0:0:0:0:
64,192,242160,128,0,242248:0:0:0:0:
64,192,242337,128,0,243837:0:0:0:0:
192,192,242337,128,0,243837:0:0:0:0:
320,192,242337,128,0,243837:0:0:0:0:
448,192,242337,128,0,243837:0:0:0:0:
64,192,243925,128,0,243969:0:0:0:0:
192,192,243925,128,0,243969:0:0:0:0:
448,192,243925,128,0,243969:0:0:0:0:
64,192,244278,128,0,244322:0:0:0:0:
320,192,244278,128,0,244322:0:0:0:0:
448,192,244278,128,0,244322:0:0:0:0:
448,192,244631,128,0,244719:0:0:0:0:
320,192,244675,128,0,244763:0:0:0:0:
64,192,244719,128,0,244807:0:0:0:0:
192,192,244763,128,0,244851:0:0:0:0:
448,192,244807,128,0,244895:0:0:0:0:
320,192,244851,128,0,244940:0:0:0:0:
64,192,244895,128,0,244984:0:0:0:0:
192,192,244940,128,0,245028:0:0:0:0:
448,192,244984,128,0,245072:0:0:0:0:
320,192,245028,128,0,245116:0:0:0:0:
192,192,245072,1,0,0:0:0:0:
320,192,245160,1,0,0:0:0:0:
448,192,245160,128,0,246043:0:0:0:0:
64,192,245160,128,0,245248:0:0:0:0:
192,192,245248,128,0,245337:0:0:0:0:
320,192,245337,128,0,245425:0:0:0:0:
192,192,245425,128,0,245513:0:0:0:0:
64,192,245513,128,0,245601:0:0:0:0:
320,192,245601,128,0,245690:0:0:0:0:
192,192,245690,128,0,245778:0:0:0:0:
64,192,245690,128,0,245778:0:0:0:0:
320,192,245778,128,0,245866:0:0:0:0:
64,192,245866,128,0,245954:0:0:0:0:
192,192,245954,128,0,246043:0:0:0:0:
64,192,246043,128,0,246748:0:0:0:0:
320,192,246043,128,0,246131:0:0:0:0:
448,192,246131,128,0,246219:0:0:0:0:
320,192,246219,128,0,246307:0:0:0:0:
192,192,246307,128,0,246395:0:0:0:0:
320,192,246395,128,0,246484:0:0:0:0:
448,192,246395,128,0,246484:0:0:0:0:
192,192,246484,128,0,246572:0:0:0:0:
448,192,246572,128,0,246660:0:0:0:0:
192,192,246660,128,0,246748:0:0:0:0:
320,192,246748,128,0,247101:0:0:0:0:
448,192,246748,128,0,246837:0:0:0:0:
192,192,246837,128,0,246925:0:0:0:0:
64,192,246925,128,0,247013:0:0:0:0:
448,192,247013,128,0,247101:0:0:0:0:
64,192,247101,128,0,247454:0:0:0:0:
192,192,247101,128,0,247190:0:0:0:0:
320,192,247190,128,0,247278:0:0:0:0:
448,192,247278,128,0,247366:0:0:0:0:
320,192,247366,128,0,247454:0:0:0:0:
192,192,247454,128,0,247807:0:0:0:0:
448,192,247454,128,0,247543:0:0:0:0:
320,192,247543,128,0,247631:0:0:0:0:
64,192,247631,128,0,247719:0:0:0:0:
320,192,247719,128,0,247807:0:0:0:0:
448,192,247807,128,0,247984:0:0:0:0:
64,192,247807,128,0,247895:0:0:0:0:
192,192,247895,128,0,247984:0:0:0:0:
320,192,247984,128,0,248513:0:0:0:0:
64,192,247984,128,0,248072:0:0:0:0:
448,192,248072,128,0,248160:0:0:0:0:
192,192,248160,128,0,248248:0:0:0:0:
64,192,248248,128,0,248337:0:0:0:0:
448,192,248337,128,0,248425:0:0:0:0:
192,192,248425,128,0,248513:0:0:0:0:
64,192,248513,128,0,248690:0:0:0:0:
448,192,248513,128,0,248601:0:0:0:0:
192,192,248601,128,0,248690:0:0:0:0:
448,192,248690,128,0,248866:0:0:0:0:
320,192,248690,128,0,248778:0:0:0:0:
64,192,248778,128,0,248866:0:0:0:0:
192,192,248866,128,0,249043:0:0:0:0:
320,192,248866,128,0,248954:0:0:0:0:
448,192,248954,128,0,249043:0:0:0:0:
320,192,249043,128,0,249395:0:0:0:0:
64,192,249043,128,0,249131:0:0:0:0:
192,192,249131,128,0,249219:0:0:0:0:
448,192,249219,128,0,249307:0:0:0:0:
192,192,249307,128,0,249395:0:0:0:0:
64,192,249395,128,0,249748:0:0:0:0:
448,192,249395,128,0,249660:0:0:0:0:
320,192,249484,128,0,249572:0:0:0:0:
192,192,249572,128,0,249660:0:0:0:0:
320,192,249660,128,0,249837:0:0:0:0:
448,192,249748,128,0,249925:0:0:0:0:
192,192,249748,128,0,249837:0:0:0:0:
64,192,249837,128,0,250013:0:0:0:0:
320,192,249925,128,0,250101:0:0:0:0:
192,192,249925,128,0,250013:0:0:0:0:
448,192,250013,128,0,250190:0:0:0:0:
192,192,250101,128,0,250278:0:0:0:0:
64,192,250101,128,0,250190:0:0:0:0:
320,192,250190,128,0,250454:0:0:0:0:
64,192,250278,128,0,250543:0:0:0:0:
448,192,250278,128,0,250366:0:0:0:0:
192,192,250366,128,0,250543:0:0:0:0:
448,192,250454,128,0,250631:0:0:0:0:
320,192,250543,128,0,250631:0:0:0:0:
64,192,250631,128,0,250719:0:0:0:0:
192,192,250631,128,0,250719:0:0:0:0:
448,192,250719,128,0,250895:0:0:0:0:
320,192,250719,128,0,250807:0:0:0:0:
192,192,250807,128,0,250984:0:0:0:0:
64,192,250807,128,0,250895:0:0:0:0:
320,192,250895,128,0,251072:0:0:0:0:
64,192,250984,128,0,251160:0:0:0:0:
448,192,250984,128,0,251072:0:0:0:0:
192,192,251072,128,0,251248:0:0:0:0:
320,192,251160,128,0,251248:0:0:0:0:
448,192,251160,128,0,251337:0:0:0:0:
64,192,251248,128,0,251425:0:0:0:0:
192,192,251337,128,0,251425:0:0:0:0:
320,192,251337,128,0,251513:0:0:0:0:
448,192,251425,128,0,251601:0:0:0:0:
64,192,251513,128,0,251601:0:0:0:0:
192,192,251513,128,0,251690:0:0:0:0:
320,192,251601,128,0,251778:0:0:0:0:
64,192,251690,128,0,251866:0:0:0:0:
448,192,251690,128,0,251778:0:0:0:0:
192,192,251778,128,0,251954:0:0:0:0:
320,192,251866,128,0,252131:0:0:0:0:
448,192,251866,128,0,251954:0:0:0:0:
64,192,251954,128,0,252131:0:0:0:0:
192,192,252043,128,0,252131:0:0:0:0:
448,192,252043,128,0,252131:0:0:0:0:
64,192,252219,128,0,252572:0:0:0:0:
448,192,252219,128,0,252307:0:0:0:0:
320,192,252307,128,0,252395:0:0:0:0:
192,192,252395,128,0,252484:0:0:0:0:
448,192,252484,128,0,252572:0:0:0:0:
320,192,252572,128,0,252925:0:0:0:0:
192,192,252572,128,0,252660:0:0:0:0:
64,192,252660,128,0,252748:0:0:0:0:
192,192,252748,128,0,252837:0:0:0:0:
448,192,252837,128,0,252925:0:0:0:0:
192,192,252925,128,0,253278:0:0:0:0:
64,192,252925,128,0,253013:0:0:0:0:
448,192,253013,128,0,253101:0:0:0:0:
320,192,253101,128,0,253190:0:0:0:0:
64,192,253190,128,0,253278:0:0:0:0:
448,192,253278,128,0,253719:0:0:0:0:
320,192,253278,128,0,253366:0:0:0:0:
64,192,253366,128,0,253454:0:0:0:0:
192,192,253454,128,0,253543:0:0:0:0:
320,192,253543,128,0,253719:0:0:0:0:
192,192,253631,128,0,253719:0:0:0:0:
64,192,253631,128,0,253719:0:0:0:0:
320,192,253807,1,0,0:0:0:0:
448,192,253807,1,0,0:0:0:0:
192,192,253807,128,0,254248:0:0:0:0:
64,192,253807,128,0,254248:0:0:0:0:
320,192,254160,128,0,254513:0:0:0:0:
448,192,254160,128,0,254513:0:0:0:0:
64,192,254337,128,0,254866:0:0:0:0:
192,192,254337,128,0,254866:0:0:0:0:
320,192,254690,128,0,254778:0:0:0:0:
448,192,254690,128,0,254778:0:0:0:0:
320,192,254866,1,0,0:0:0:0:
448,192,254866,1,0,0:0:0:0:
192,192,255043,1,0,0:0:0:0:
64,192,255043,1,0,0:0:0:0:
320,192,255043,128,0,255395:0:0:0:0:
448,192,255043,128,0,255748:0:0:0:0:
64,192,255395,1,0,0:0:0:0:
192,192,255395,1,0,0:0:0:0:
320,192,255572,1,0,0:0:0:0:
192,192,255572,1,0,0:0:0:0:
64,192,255748,1,0,0:0:0:0:
192,192,255748,1,0,0:0:0:0:
320,192,255748,1,0,0:0:0:0:
64,192,255925,128,0,256013:0:0:0:0:
448,192,255925,128,0,256013:0:0:0:0:
448,192,256101,1,0,0:0:0:0:
64,192,256101,128,0,256190:0:0:0:0:
64,192,256278,1,0,0:0:0:0:
448,192,256278,128,0,256366:0:0:0:0:
192,192,256631,1,0,0:0:0:0:
64,192,256631,1,0,0:0:0:0:
320,192,256631,128,0,257072:0:0:0:0:
448,192,256631,128,0,257072:0:0:0:0:
192,192,256984,128,0,257337:0:0:0:0:
64,192,256984,128,0,257337:0:0:0:0:
448,192,257160,128,0,257690:0:0:0:0:
320,192,257160,128,0,257690:0:0:0:0:
192,192,257513,128,0,257601:0:0:0:0:
64,192,257513,128,0,257601:0:0:0:0:
192,192,257690,1,0,0:0:0:0:
64,192,257690,1,0,0:0:0:0:
320,192,257866,1,0,0:0:0:0:
448,192,257866,1,0,0:0:0:0:
192,192,257866,128,0,258219:0:0:0:0:
64,192,257866,128,0,258395:0:0:0:0:
320,192,258219,1,0,0:0:0:0:
448,192,258219,128,0,258660:0:0:0:0:
192,192,258395,1,0,0:0:0:0:
320,192,258395,1,0,0:0:0:0:
64,192,258572,128,0,258660:0:0:0:0:
192,192,258572,128,0,258660:0:0:0:0:
320,192,258660,1,0,0:0:0:0:
192,192,258748,1,0,0:0:0:0:
448,192,258748,128,0,258837:0:0:0:0:
64,192,258748,128,0,258837:0:0:0:0:
64,192,258925,128,0,259013:0:0:0:0:
448,192,258925,128,0,259013:0:0:0:0:
448,192,259101,128,0,259366:0:0:0:0:
64,192,259101,128,0,259366:0:0:0:0:
192,192,259101,128,0,259366:0:0:0:0:
64,192,259454,128,0,260513:0:0:0:0:
192,192,259454,128,0,260601:0:0:0:0:
320,192,259454,128,0,261395:0:0:0:0:
448,192,259454,128,0,261925:0:0:0:0:
64,192,260601,1,0,0:0:0:0:
192,192,260690,1,0,0:0:0:0:
64,192,260778,1,0,0:0:0:0:
192,192,260866,1,0,0:0:0:0:
64,192,260954,128,0,262366:0:0:0:0:
192,192,261043,128,0,262895:0:0:0:0:
320,192,261484,128,0,263513:0:0:0:0:
448,192,262013,128,0,263160:0:0:0:0:
64,192,262454,128,0,265101:0:0:0:0:
192,192,262984,128,0,265190:0:0:0:0:
448,192,263248,128,0,265366:0:0:0:0:
320,192,263601,128,0,265366:0:0:0:0:
64,192,265190,128,0,265366:0:0:0:0:
192,192,265278,128,0,265366:0:0:0:0:
