osu file format v14

[General]
AudioFilename: audio.mp3
AudioLeadIn: 0
PreviewTime: -1
Countdown: 1
SampleSet: Normal
StackLeniency: 0.7
Mode: 3
LetterboxInBreaks: 0
SpecialStyle: 0
WidescreenStoryboard: 0

[Editor]
Bookmarks: 164643
DistanceSpacing: 0.85
BeatDivisor: 8
GridSize: 32
TimelineZoom: 1

[Metadata]
Title:Nightcore - Megalovania
TitleUnicode:Nightcore - Megalovania
Artist:SSBNightcore
ArtistUnicode:SSBNightcore
Creator:SednA
Version:7k GENOCIDE
Source:Undertale
Tags:undertale sans
BeatmapID:1910687
BeatmapSetID:914841

[Difficulty]
HPDrainRate:8
CircleSize:7
OverallDifficulty:7
ApproachRate:5
SliderMultiplier:1.4
SliderTickRate:1

[Events]
//Background and Video events
0,0,"29ed997f26238154a1f3f9900852cc0a--undertale-pacifist-art-blog.jpg",0,0
//Break Periods
//Storyboard Layer 0 (Background)
//Storyboard Layer 1 (Fail)
//Storyboard Layer 2 (Pass)
//Storyboard Layer 3 (Foreground)
//Storyboard Sound Samples

[TimingPoints]
176,352.935250219491,4,1,0,100,1,0

[HitObjects]
36,192,176,5,0,0:0:0:0:
475,192,264,1,0,0:0:0:0:
109,192,352,1,0,0:0:0:0:
402,192,528,1,0,0:0:0:0:
182,192,793,1,0,0:0:0:0:
256,192,970,1,0,0:0:0:0:
329,192,1146,1,0,0:0:0:0:
182,192,1323,1,0,0:0:0:0:
329,192,1411,1,0,0:0:0:0:
182,192,1499,1,0,0:0:0:0:
475,192,1587,1,0,0:0:0:0:
36,192,1676,1,0,0:0:0:0:
402,192,1764,1,0,0:0:0:0:
109,192,1940,1,0,0:0:0:0:
329,192,2205,1,0,0:0:0:0:
256,192,2381,1,0,0:0:0:0:
182,192,2558,1,0,0:0:0:0:
329,192,2734,1,0,0:0:0:0:
182,192,2823,1,0,0:0:0:0:
329,192,2911,1,0,0:0:0:0:
36,192,2999,1,0,0:0:0:0:
475,192,3087,1,0,0:0:0:0:
109,192,3175,1,0,0:0:0:0:
402,192,3352,1,0,0:0:0:0:
256,192,3617,1,0,0:0:0:0:
182,192,3793,1,0,0:0:0:0:
329,192,3793,1,0,0:0:0:0:
256,192,3970,1,0,0:0:0:0:
109,192,4146,1,0,0:0:0:0:
402,192,4234,1,0,0:0:0:0:
182,192,4322,1,0,0:0:0:0:
475,192,4587,1,0,0:0:0:0:
36,192,4587,1,0,0:0:0:0:
402,192,4764,1,0,0:0:0:0:
109,192,4764,1,0,0:0:0:0:
182,192,5028,1,0,0:0:0:0:
329,192,5028,1,0,0:0:0:0:
256,192,5205,1,0,0:0:0:0:
36,192,5381,1,0,0:0:0:0:
475,192,5381,1,0,0:0:0:0:
256,192,5558,1,0,0:0:0:0:
109,192,5646,1,0,0:0:0:0:
402,192,5646,1,0,0:0:0:0:
475,192,5734,1,0,0:0:0:0:
36,192,5734,1,0,0:0:0:0:
182,192,5822,1,0,0:0:0:0:
329,192,5822,1,0,0:0:0:0:
182,192,5911,1,0,0:0:0:0:
329,192,5911,1,0,0:0:0:0:
36,192,5999,1,0,0:0:0:0:
475,192,5999,1,0,0:0:0:0:
256,192,6175,1,0,0:0:0:0:
36,192,6440,1,0,0:0:0:0:
182,192,6440,1,0,0:0:0:0:
329,192,6617,1,0,0:0:0:0:
475,192,6617,1,0,0:0:0:0:
256,192,6793,1,0,0:0:0:0:
402,192,6793,1,0,0:0:0:0:
109,192,6793,1,0,0:0:0:0:
36,192,6970,1,0,0:0:0:0:
475,192,6970,1,0,0:0:0:0:
109,192,7058,1,0,0:0:0:0:
402,192,7058,1,0,0:0:0:0:
182,192,7146,1,0,0:0:0:0:
329,192,7146,1,0,0:0:0:0:
36,192,7234,1,0,0:0:0:0:
475,192,7234,1,0,0:0:0:0:
36,192,7322,1,0,0:0:0:0:
475,192,7322,1,0,0:0:0:0:
256,192,7411,1,0,0:0:0:0:
329,192,7411,1,0,0:0:0:0:
182,192,7411,1,0,0:0:0:0:
109,192,7587,1,0,0:0:0:0:
402,192,7587,1,0,0:0:0:0:
256,192,7852,1,0,0:0:0:0:
36,192,7852,1,0,0:0:0:0:
475,192,7852,1,0,0:0:0:0:
182,192,8028,1,0,0:0:0:0:
329,192,8028,1,0,0:0:0:0:
256,192,8205,1,0,0:0:0:0:
109,192,8205,1,0,0:0:0:0:
402,192,8205,1,0,0:0:0:0:
182,192,8381,1,0,0:0:0:0:
329,192,8381,1,0,0:0:0:0:
109,192,8469,1,0,0:0:0:0:
402,192,8469,1,0,0:0:0:0:
36,192,8558,1,0,0:0:0:0:
475,192,8558,1,0,0:0:0:0:
109,192,8646,1,0,0:0:0:0:
402,192,8646,1,0,0:0:0:0:
109,192,8734,1,0,0:0:0:0:
402,192,8734,1,0,0:0:0:0:
256,192,8822,1,0,0:0:0:0:
475,192,8822,1,0,0:0:0:0:
36,192,8822,1,0,0:0:0:0:
182,192,8999,1,0,0:0:0:0:
329,192,8999,1,0,0:0:0:0:
36,192,9264,1,0,0:0:0:0:
182,192,9264,1,0,0:0:0:0:
329,192,9440,1,0,0:0:0:0:
475,192,9440,1,0,0:0:0:0:
109,192,9617,1,0,0:0:0:0:
402,192,9617,1,0,0:0:0:0:
36,192,9793,1,0,0:0:0:0:
475,192,9793,1,0,0:0:0:0:
109,192,9881,1,0,0:0:0:0:
402,192,9881,1,0,0:0:0:0:
182,192,9969,1,0,0:0:0:0:
329,192,9969,1,0,0:0:0:0:
256,192,9969,1,0,0:0:0:0:
109,192,10234,1,0,0:0:0:0:
182,192,10234,1,0,0:0:0:0:
329,192,10411,1,0,0:0:0:0:
402,192,10411,1,0,0:0:0:0:
109,192,10675,1,0,0:0:0:0:
329,192,10675,1,0,0:0:0:0:
182,192,10852,1,0,0:0:0:0:
402,192,10852,1,0,0:0:0:0:
329,192,11028,1,0,0:0:0:0:
36,192,11028,1,0,0:0:0:0:
109,192,11205,1,0,0:0:0:0:
475,192,11205,1,0,0:0:0:0:
182,192,11293,1,0,0:0:0:0:
402,192,11293,1,0,0:0:0:0:
256,192,11381,1,0,0:0:0:0:
475,192,11381,1,0,0:0:0:0:
36,192,11469,1,0,0:0:0:0:
109,192,11469,1,0,0:0:0:0:
329,192,11469,1,0,0:0:0:0:
475,192,11558,1,0,0:0:0:0:
402,192,11646,1,0,0:0:0:0:
182,192,11822,1,0,0:0:0:0:
36,192,11822,1,0,0:0:0:0:
329,192,12087,1,0,0:0:0:0:
475,192,12087,1,0,0:0:0:0:
402,192,12264,1,0,0:0:0:0:
256,192,12264,1,0,0:0:0:0:
329,192,12440,1,0,0:0:0:0:
182,192,12440,1,0,0:0:0:0:
36,192,12616,1,0,0:0:0:0:
475,192,12616,1,0,0:0:0:0:
109,192,12705,1,0,0:0:0:0:
402,192,12705,1,0,0:0:0:0:
36,192,12793,1,0,0:0:0:0:
475,192,12793,1,0,0:0:0:0:
256,192,12881,1,0,0:0:0:0:
256,192,12969,1,0,0:0:0:0:
109,192,13058,1,0,0:0:0:0:
182,192,13058,1,0,0:0:0:0:
329,192,13058,1,0,0:0:0:0:
402,192,13058,1,0,0:0:0:0:
36,192,13234,1,0,0:0:0:0:
475,192,13234,1,0,0:0:0:0:
109,192,13499,1,0,0:0:0:0:
402,192,13499,1,0,0:0:0:0:
256,192,13499,1,0,0:0:0:0:
182,192,13675,1,0,0:0:0:0:
329,192,13675,1,0,0:0:0:0:
256,192,13852,1,0,0:0:0:0:
36,192,13852,1,0,0:0:0:0:
475,192,13852,1,0,0:0:0:0:
109,192,14028,1,0,0:0:0:0:
402,192,14028,1,0,0:0:0:0:
182,192,14116,1,0,0:0:0:0:
329,192,14116,1,0,0:0:0:0:
109,192,14205,1,0,0:0:0:0:
402,192,14205,1,0,0:0:0:0:
36,192,14293,1,0,0:0:0:0:
475,192,14293,1,0,0:0:0:0:
36,192,14381,1,0,0:0:0:0:
475,192,14381,1,0,0:0:0:0:
182,192,14469,1,0,0:0:0:0:
329,192,14469,1,0,0:0:0:0:
256,192,14646,1,0,0:0:0:0:
256,192,14911,1,0,0:0:0:0:
329,192,15087,1,0,0:0:0:0:
182,192,15087,1,0,0:0:0:0:
109,192,15263,1,0,0:0:0:0:
402,192,15263,1,0,0:0:0:0:
36,192,15440,1,0,0:0:0:0:
475,192,15440,1,0,0:0:0:0:
109,192,15528,1,0,0:0:0:0:
402,192,15528,1,0,0:0:0:0:
36,192,15616,1,0,0:0:0:0:
475,192,15616,1,0,0:0:0:0:
182,192,15881,1,0,0:0:0:0:
329,192,15881,1,0,0:0:0:0:
109,192,16058,1,0,0:0:0:0:
402,192,16058,1,0,0:0:0:0:
256,192,16411,1,0,0:0:0:0:
329,192,16455,1,0,0:0:0:0:
402,192,16499,1,0,0:0:0:0:
475,192,16543,1,0,0:0:0:0:
36,192,16543,1,0,0:0:0:0:
109,192,16587,1,0,0:0:0:0:
182,192,16631,1,0,0:0:0:0:
256,192,16675,1,0,0:0:0:0:
329,192,16719,1,0,0:0:0:0:
402,192,16763,1,0,0:0:0:0:
475,192,16808,1,0,0:0:0:0:
36,192,16808,1,0,0:0:0:0:
109,192,16852,1,0,0:0:0:0:
182,192,16896,1,0,0:0:0:0:
256,192,16940,1,0,0:0:0:0:
329,192,16984,1,0,0:0:0:0:
402,192,17028,1,0,0:0:0:0:
475,192,17072,1,0,0:0:0:0:
36,192,17116,1,0,0:0:0:0:
109,192,17116,1,0,0:0:0:0:
182,192,17116,1,0,0:0:0:0:
36,192,17205,1,0,0:0:0:0:
109,192,17205,1,0,0:0:0:0:
182,192,17205,1,0,0:0:0:0:
329,192,17293,1,0,0:0:0:0:
402,192,17293,1,0,0:0:0:0:
475,192,17293,1,0,0:0:0:0:
256,192,17469,1,0,0:0:0:0:
329,192,17513,1,0,0:0:0:0:
402,192,17558,1,0,0:0:0:0:
475,192,17602,1,0,0:0:0:0:
182,192,17602,1,0,0:0:0:0:
109,192,17646,1,0,0:0:0:0:
36,192,17690,1,0,0:0:0:0:
475,192,17734,1,0,0:0:0:0:
402,192,17778,1,0,0:0:0:0:
329,192,17822,1,0,0:0:0:0:
256,192,17866,1,0,0:0:0:0:
182,192,17910,1,0,0:0:0:0:
109,192,17955,1,0,0:0:0:0:
36,192,17999,1,0,0:0:0:0:
329,192,17999,1,0,0:0:0:0:
402,192,18043,1,0,0:0:0:0:
475,192,18087,1,0,0:0:0:0:
36,192,18131,1,0,0:0:0:0:
109,192,18175,1,0,0:0:0:0:
182,192,18219,1,0,0:0:0:0:
256,192,18263,1,0,0:0:0:0:
329,192,18308,1,0,0:0:0:0:
402,192,18352,1,0,0:0:0:0:
475,192,18396,1,0,0:0:0:0:
256,192,18440,1,0,0:0:0:0:
182,192,18484,1,0,0:0:0:0:
109,192,18528,1,0,0:0:0:0:
36,192,18528,1,0,0:0:0:0:
329,192,18528,1,0,0:0:0:0:
109,192,18616,1,0,0:0:0:0:
36,192,18616,1,0,0:0:0:0:
329,192,18616,1,0,0:0:0:0:
402,192,18705,1,0,0:0:0:0:
475,192,18705,1,0,0:0:0:0:
182,192,18705,1,0,0:0:0:0:
256,192,18881,1,0,0:0:0:0:
182,192,18925,1,0,0:0:0:0:
109,192,18969,1,0,0:0:0:0:
36,192,19013,1,0,0:0:0:0:
329,192,19013,1,0,0:0:0:0:
402,192,19058,1,0,0:0:0:0:
475,192,19102,1,0,0:0:0:0:
36,192,19146,1,0,0:0:0:0:
109,192,19190,1,0,0:0:0:0:
182,192,19234,1,0,0:0:0:0:
256,192,19278,1,0,0:0:0:0:
329,192,19322,1,0,0:0:0:0:
402,192,19366,1,0,0:0:0:0:
475,192,19410,1,0,0:0:0:0:
182,192,19410,1,0,0:0:0:0:
109,192,19455,1,0,0:0:0:0:
36,192,19499,1,0,0:0:0:0:
475,192,19543,1,0,0:0:0:0:
402,192,19587,1,0,0:0:0:0:
329,192,19631,1,0,0:0:0:0:
256,192,19675,1,0,0:0:0:0:
182,192,19719,1,0,0:0:0:0:
109,192,19763,1,0,0:0:0:0:
36,192,19808,1,0,0:0:0:0:
256,192,19852,1,0,0:0:0:0:
329,192,19896,1,0,0:0:0:0:
402,192,19940,1,0,0:0:0:0:
475,192,19940,1,0,0:0:0:0:
182,192,19940,1,0,0:0:0:0:
182,192,20028,1,0,0:0:0:0:
402,192,20028,1,0,0:0:0:0:
475,192,20028,1,0,0:0:0:0:
36,192,20116,1,0,0:0:0:0:
109,192,20116,1,0,0:0:0:0:
329,192,20116,1,0,0:0:0:0:
36,192,20293,1,0,0:0:0:0:
402,192,20293,1,0,0:0:0:0:
109,192,20337,1,0,0:0:0:0:
475,192,20337,1,0,0:0:0:0:
182,192,20381,1,0,0:0:0:0:
256,192,20425,1,0,0:0:0:0:
329,192,20469,1,0,0:0:0:0:
402,192,20513,1,0,0:0:0:0:
36,192,20513,1,0,0:0:0:0:
475,192,20558,1,0,0:0:0:0:
109,192,20558,1,0,0:0:0:0:
182,192,20602,1,0,0:0:0:0:
256,192,20646,1,0,0:0:0:0:
329,192,20690,1,0,0:0:0:0:
402,192,20734,1,0,0:0:0:0:
36,192,20734,1,0,0:0:0:0:
475,192,20778,1,0,0:0:0:0:
109,192,20778,1,0,0:0:0:0:
182,192,20822,1,0,0:0:0:0:
256,192,20866,1,0,0:0:0:0:
329,192,20910,1,0,0:0:0:0:
402,192,20955,1,0,0:0:0:0:
36,192,20955,1,0,0:0:0:0:
475,192,20999,1,0,0:0:0:0:
109,192,20999,1,0,0:0:0:0:
182,192,21043,1,0,0:0:0:0:
256,192,21087,1,0,0:0:0:0:
329,192,21131,1,0,0:0:0:0:
402,192,21175,1,0,0:0:0:0:
36,192,21175,1,0,0:0:0:0:
475,192,21219,1,0,0:0:0:0:
109,192,21219,1,0,0:0:0:0:
182,192,21263,1,0,0:0:0:0:
256,192,21307,1,0,0:0:0:0:
36,192,21352,1,0,0:0:0:0:
329,192,21352,1,0,0:0:0:0:
475,192,21352,1,0,0:0:0:0:
36,192,21440,1,0,0:0:0:0:
475,192,21440,1,0,0:0:0:0:
329,192,21440,1,0,0:0:0:0:
109,192,21528,1,0,0:0:0:0:
402,192,21528,1,0,0:0:0:0:
475,192,21705,1,0,0:0:0:0:
109,192,21705,1,0,0:0:0:0:
402,192,21749,1,0,0:0:0:0:
36,192,21749,1,0,0:0:0:0:
329,192,21793,1,0,0:0:0:0:
256,192,21837,1,0,0:0:0:0:
182,192,21881,1,0,0:0:0:0:
109,192,21925,1,0,0:0:0:0:
475,192,21925,1,0,0:0:0:0:
36,192,21969,1,0,0:0:0:0:
402,192,21969,1,0,0:0:0:0:
329,192,22013,1,0,0:0:0:0:
256,192,22057,1,0,0:0:0:0:
182,192,22102,1,0,0:0:0:0:
109,192,22146,1,0,0:0:0:0:
475,192,22146,1,0,0:0:0:0:
36,192,22190,1,0,0:0:0:0:
402,192,22190,1,0,0:0:0:0:
329,192,22234,1,0,0:0:0:0:
256,192,22278,1,0,0:0:0:0:
182,192,22322,1,0,0:0:0:0:
109,192,22366,1,0,0:0:0:0:
475,192,22366,1,0,0:0:0:0:
36,192,22410,1,0,0:0:0:0:
402,192,22410,1,0,0:0:0:0:
329,192,22455,1,0,0:0:0:0:
256,192,22499,1,0,0:0:0:0:
182,192,22543,1,0,0:0:0:0:
109,192,22587,1,0,0:0:0:0:
475,192,22587,1,0,0:0:0:0:
36,192,22631,1,0,0:0:0:0:
402,192,22631,1,0,0:0:0:0:
329,192,22675,1,0,0:0:0:0:
256,192,22719,1,0,0:0:0:0:
475,192,22763,1,0,0:0:0:0:
182,192,22763,1,0,0:0:0:0:
36,192,22763,1,0,0:0:0:0:
36,192,22852,1,0,0:0:0:0:
475,192,22852,1,0,0:0:0:0:
182,192,22852,1,0,0:0:0:0:
109,192,22940,1,0,0:0:0:0:
402,192,22940,1,0,0:0:0:0:
329,192,22940,1,0,0:0:0:0:
256,192,23116,1,0,0:0:0:0:
329,192,23160,1,0,0:0:0:0:
402,192,23205,1,0,0:0:0:0:
182,192,23249,1,0,0:0:0:0:
475,192,23249,1,0,0:0:0:0:
109,192,23293,1,0,0:0:0:0:
36,192,23337,1,0,0:0:0:0:
475,192,23381,1,0,0:0:0:0:
402,192,23425,1,0,0:0:0:0:
329,192,23469,1,0,0:0:0:0:
256,192,23513,1,0,0:0:0:0:
182,192,23557,1,0,0:0:0:0:
109,192,23602,1,0,0:0:0:0:
329,192,23646,1,0,0:0:0:0:
36,192,23646,1,0,0:0:0:0:
402,192,23690,1,0,0:0:0:0:
475,192,23734,1,0,0:0:0:0:
36,192,23778,1,0,0:0:0:0:
109,192,23822,1,0,0:0:0:0:
182,192,23866,1,0,0:0:0:0:
256,192,23910,1,0,0:0:0:0:
329,192,23955,1,0,0:0:0:0:
402,192,23999,1,0,0:0:0:0:
475,192,24043,1,0,0:0:0:0:
256,192,24087,1,0,0:0:0:0:
182,192,24131,1,0,0:0:0:0:
329,192,24175,1,0,0:0:0:0:
36,192,24175,1,0,0:0:0:0:
109,192,24175,1,0,0:0:0:0:
329,192,24263,1,0,0:0:0:0:
36,192,24263,1,0,0:0:0:0:
109,192,24263,1,0,0:0:0:0:
182,192,24352,1,0,0:0:0:0:
475,192,24352,1,0,0:0:0:0:
402,192,24352,1,0,0:0:0:0:
256,192,24528,1,0,0:0:0:0:
182,192,24572,1,0,0:0:0:0:
109,192,24616,1,0,0:0:0:0:
329,192,24660,1,0,0:0:0:0:
36,192,24660,1,0,0:0:0:0:
402,192,24704,1,0,0:0:0:0:
475,192,24749,1,0,0:0:0:0:
36,192,24793,1,0,0:0:0:0:
109,192,24837,1,0,0:0:0:0:
182,192,24881,1,0,0:0:0:0:
256,192,24925,1,0,0:0:0:0:
329,192,24969,1,0,0:0:0:0:
402,192,25013,1,0,0:0:0:0:
182,192,25057,1,0,0:0:0:0:
475,192,25057,1,0,0:0:0:0:
109,192,25102,1,0,0:0:0:0:
36,192,25146,1,0,0:0:0:0:
475,192,25190,1,0,0:0:0:0:
402,192,25234,1,0,0:0:0:0:
329,192,25278,1,0,0:0:0:0:
256,192,25322,1,0,0:0:0:0:
182,192,25366,1,0,0:0:0:0:
109,192,25410,1,0,0:0:0:0:
36,192,25454,1,0,0:0:0:0:
256,192,25499,1,0,0:0:0:0:
329,192,25543,1,0,0:0:0:0:
182,192,25587,1,0,0:0:0:0:
475,192,25587,1,0,0:0:0:0:
402,192,25587,1,0,0:0:0:0:
475,192,25675,1,0,0:0:0:0:
402,192,25675,1,0,0:0:0:0:
182,192,25675,1,0,0:0:0:0:
329,192,25763,1,0,0:0:0:0:
109,192,25763,1,0,0:0:0:0:
36,192,25763,1,0,0:0:0:0:
256,192,25940,1,0,0:0:0:0:
182,192,25984,1,0,0:0:0:0:
329,192,25984,1,0,0:0:0:0:
109,192,26028,1,0,0:0:0:0:
402,192,26028,1,0,0:0:0:0:
36,192,26072,1,0,0:0:0:0:
475,192,26072,1,0,0:0:0:0:
256,192,26116,1,0,0:0:0:0:
329,192,26160,1,0,0:0:0:0:
182,192,26160,1,0,0:0:0:0:
402,192,26204,1,0,0:0:0:0:
109,192,26204,1,0,0:0:0:0:
36,192,26249,1,0,0:0:0:0:
475,192,26249,1,0,0:0:0:0:
256,192,26293,1,0,0:0:0:0:
329,192,26337,1,0,0:0:0:0:
182,192,26337,1,0,0:0:0:0:
402,192,26381,1,0,0:0:0:0:
109,192,26381,1,0,0:0:0:0:
475,192,26425,1,0,0:0:0:0:
36,192,26425,1,0,0:0:0:0:
256,192,26469,1,0,0:0:0:0:
182,192,26513,1,0,0:0:0:0:
329,192,26513,1,0,0:0:0:0:
109,192,26557,1,0,0:0:0:0:
402,192,26557,1,0,0:0:0:0:
36,192,26602,1,0,0:0:0:0:
475,192,26602,1,0,0:0:0:0:
256,192,26646,1,0,0:0:0:0:
329,192,26690,1,0,0:0:0:0:
182,192,26690,1,0,0:0:0:0:
402,192,26734,1,0,0:0:0:0:
109,192,26734,1,0,0:0:0:0:
36,192,26778,1,0,0:0:0:0:
475,192,26778,1,0,0:0:0:0:
256,192,26822,1,0,0:0:0:0:
329,192,26866,1,0,0:0:0:0:
182,192,26866,1,0,0:0:0:0:
402,192,26910,1,0,0:0:0:0:
109,192,26910,1,0,0:0:0:0:
36,192,26954,1,0,0:0:0:0:
475,192,26954,1,0,0:0:0:0:
256,192,26999,1,0,0:0:0:0:
182,192,26999,1,0,0:0:0:0:
329,192,26999,1,0,0:0:0:0:
182,192,27087,1,0,0:0:0:0:
329,192,27087,1,0,0:0:0:0:
256,192,27087,1,0,0:0:0:0:
109,192,27175,1,0,0:0:0:0:
402,192,27175,1,0,0:0:0:0:
475,192,27352,1,0,0:0:0:0:
36,192,27352,1,0,0:0:0:0:
402,192,27396,1,0,0:0:0:0:
109,192,27396,1,0,0:0:0:0:
329,192,27440,1,0,0:0:0:0:
182,192,27440,1,0,0:0:0:0:
256,192,27484,1,0,0:0:0:0:
475,192,27528,1,0,0:0:0:0:
36,192,27528,1,0,0:0:0:0:
402,192,27572,1,0,0:0:0:0:
109,192,27572,1,0,0:0:0:0:
329,192,27616,1,0,0:0:0:0:
182,192,27616,1,0,0:0:0:0:
256,192,27660,1,0,0:0:0:0:
475,192,27704,1,0,0:0:0:0:
36,192,27704,1,0,0:0:0:0:
402,192,27749,1,0,0:0:0:0:
109,192,27749,1,0,0:0:0:0:
329,192,27793,1,0,0:0:0:0:
182,192,27793,1,0,0:0:0:0:
256,192,27837,1,0,0:0:0:0:
475,192,27881,1,0,0:0:0:0:
36,192,27881,1,0,0:0:0:0:
402,192,27925,1,0,0:0:0:0:
109,192,27925,1,0,0:0:0:0:
329,192,27969,1,0,0:0:0:0:
182,192,27969,1,0,0:0:0:0:
256,192,28013,1,0,0:0:0:0:
475,192,28057,1,0,0:0:0:0:
36,192,28057,1,0,0:0:0:0:
402,192,28102,1,0,0:0:0:0:
109,192,28102,1,0,0:0:0:0:
329,192,28146,1,0,0:0:0:0:
182,192,28146,1,0,0:0:0:0:
256,192,28190,1,0,0:0:0:0:
475,192,28234,1,0,0:0:0:0:
36,192,28234,1,0,0:0:0:0:
402,192,28278,1,0,0:0:0:0:
109,192,28278,1,0,0:0:0:0:
329,192,28322,1,0,0:0:0:0:
182,192,28322,1,0,0:0:0:0:
256,192,28366,1,0,0:0:0:0:
36,192,28410,1,0,0:0:0:0:
475,192,28410,1,0,0:0:0:0:
36,192,28499,1,0,0:0:0:0:
475,192,28499,1,0,0:0:0:0:
109,192,28587,1,0,0:0:0:0:
182,192,28587,1,0,0:0:0:0:
329,192,28587,1,0,0:0:0:0:
402,192,28587,1,0,0:0:0:0:
256,192,28763,1,0,0:0:0:0:
329,192,28807,1,0,0:0:0:0:
402,192,28851,1,0,0:0:0:0:
182,192,28896,1,0,0:0:0:0:
475,192,28896,1,0,0:0:0:0:
109,192,28940,1,0,0:0:0:0:
36,192,28984,1,0,0:0:0:0:
475,192,29028,1,0,0:0:0:0:
402,192,29072,1,0,0:0:0:0:
329,192,29116,1,0,0:0:0:0:
256,192,29160,1,0,0:0:0:0:
182,192,29204,1,0,0:0:0:0:
109,192,29249,1,0,0:0:0:0:
329,192,29293,1,0,0:0:0:0:
36,192,29293,1,0,0:0:0:0:
402,192,29337,1,0,0:0:0:0:
475,192,29381,1,0,0:0:0:0:
36,192,29425,1,0,0:0:0:0:
109,192,29469,1,0,0:0:0:0:
182,192,29513,1,0,0:0:0:0:
256,192,29557,1,0,0:0:0:0:
329,192,29601,1,0,0:0:0:0:
402,192,29646,1,0,0:0:0:0:
475,192,29690,1,0,0:0:0:0:
256,192,29734,1,0,0:0:0:0:
182,192,29778,1,0,0:0:0:0:
329,192,29822,1,0,0:0:0:0:
36,192,29822,1,0,0:0:0:0:
109,192,29822,1,0,0:0:0:0:
329,192,29910,1,0,0:0:0:0:
36,192,29910,1,0,0:0:0:0:
109,192,29910,1,0,0:0:0:0:
182,192,29999,1,0,0:0:0:0:
475,192,29999,1,0,0:0:0:0:
402,192,29999,1,0,0:0:0:0:
256,192,30175,1,0,0:0:0:0:
182,192,30219,1,0,0:0:0:0:
109,192,30263,1,0,0:0:0:0:
329,192,30307,1,0,0:0:0:0:
36,192,30307,1,0,0:0:0:0:
402,192,30351,1,0,0:0:0:0:
475,192,30396,1,0,0:0:0:0:
36,192,30440,1,0,0:0:0:0:
109,192,30484,1,0,0:0:0:0:
182,192,30528,1,0,0:0:0:0:
256,192,30572,1,0,0:0:0:0:
329,192,30616,1,0,0:0:0:0:
402,192,30660,1,0,0:0:0:0:
182,192,30704,1,0,0:0:0:0:
475,192,30704,1,0,0:0:0:0:
109,192,30749,1,0,0:0:0:0:
36,192,30793,1,0,0:0:0:0:
475,192,30837,1,0,0:0:0:0:
402,192,30881,1,0,0:0:0:0:
329,192,30925,1,0,0:0:0:0:
256,192,30969,1,0,0:0:0:0:
182,192,31013,1,0,0:0:0:0:
109,192,31057,1,0,0:0:0:0:
36,192,31101,1,0,0:0:0:0:
256,192,31146,1,0,0:0:0:0:
329,192,31190,1,0,0:0:0:0:
182,192,31234,1,0,0:0:0:0:
475,192,31234,1,0,0:0:0:0:
402,192,31234,1,0,0:0:0:0:
475,192,31322,1,0,0:0:0:0:
402,192,31322,1,0,0:0:0:0:
182,192,31322,1,0,0:0:0:0:
329,192,31410,1,0,0:0:0:0:
109,192,31410,1,0,0:0:0:0:
36,192,31410,1,0,0:0:0:0:
36,192,31587,1,0,0:0:0:0:
402,192,31587,1,0,0:0:0:0:
109,192,31631,1,0,0:0:0:0:
475,192,31631,1,0,0:0:0:0:
182,192,31675,1,0,0:0:0:0:
256,192,31719,1,0,0:0:0:0:
329,192,31763,1,0,0:0:0:0:
402,192,31807,1,0,0:0:0:0:
36,192,31807,1,0,0:0:0:0:
475,192,31851,1,0,0:0:0:0:
109,192,31851,1,0,0:0:0:0:
182,192,31896,1,0,0:0:0:0:
256,192,31940,1,0,0:0:0:0:
329,192,31984,1,0,0:0:0:0:
402,192,32028,1,0,0:0:0:0:
36,192,32028,1,0,0:0:0:0:
475,192,32072,1,0,0:0:0:0:
109,192,32072,1,0,0:0:0:0:
182,192,32116,1,0,0:0:0:0:
256,192,32160,1,0,0:0:0:0:
329,192,32204,1,0,0:0:0:0:
402,192,32248,1,0,0:0:0:0:
36,192,32248,1,0,0:0:0:0:
475,192,32293,1,0,0:0:0:0:
109,192,32293,1,0,0:0:0:0:
182,192,32337,1,0,0:0:0:0:
256,192,32381,1,0,0:0:0:0:
329,192,32425,1,0,0:0:0:0:
402,192,32469,1,0,0:0:0:0:
36,192,32469,1,0,0:0:0:0:
475,192,32513,1,0,0:0:0:0:
109,192,32513,1,0,0:0:0:0:
182,192,32557,1,0,0:0:0:0:
256,192,32601,1,0,0:0:0:0:
329,192,32646,1,0,0:0:0:0:
475,192,32646,1,0,0:0:0:0:
36,192,32646,1,0,0:0:0:0:
329,192,32734,1,0,0:0:0:0:
475,192,32734,1,0,0:0:0:0:
36,192,32734,1,0,0:0:0:0:
402,192,32822,1,0,0:0:0:0:
109,192,32822,1,0,0:0:0:0:
182,192,32822,1,0,0:0:0:0:
475,192,32998,1,0,0:0:0:0:
109,192,32998,1,0,0:0:0:0:
402,192,33043,1,0,0:0:0:0:
36,192,33043,1,0,0:0:0:0:
329,192,33087,1,0,0:0:0:0:
256,192,33131,1,0,0:0:0:0:
182,192,33175,1,0,0:0:0:0:
109,192,33219,1,0,0:0:0:0:
475,192,33219,1,0,0:0:0:0:
36,192,33263,1,0,0:0:0:0:
402,192,33263,1,0,0:0:0:0:
329,192,33307,1,0,0:0:0:0:
256,192,33351,1,0,0:0:0:0:
182,192,33396,1,0,0:0:0:0:
109,192,33440,1,0,0:0:0:0:
475,192,33440,1,0,0:0:0:0:
36,192,33484,1,0,0:0:0:0:
402,192,33484,1,0,0:0:0:0:
329,192,33528,1,0,0:0:0:0:
256,192,33572,1,0,0:0:0:0:
182,192,33616,1,0,0:0:0:0:
109,192,33660,1,0,0:0:0:0:
475,192,33660,1,0,0:0:0:0:
36,192,33704,1,0,0:0:0:0:
402,192,33704,1,0,0:0:0:0:
329,192,33748,1,0,0:0:0:0:
256,192,33793,1,0,0:0:0:0:
182,192,33837,1,0,0:0:0:0:
109,192,33881,1,0,0:0:0:0:
475,192,33881,1,0,0:0:0:0:
36,192,33925,1,0,0:0:0:0:
402,192,33925,1,0,0:0:0:0:
329,192,33969,1,0,0:0:0:0:
256,192,34013,1,0,0:0:0:0:
475,192,34057,1,0,0:0:0:0:
36,192,34057,1,0,0:0:0:0:
182,192,34057,1,0,0:0:0:0:
475,192,34146,1,0,0:0:0:0:
36,192,34146,1,0,0:0:0:0:
182,192,34146,1,0,0:0:0:0:
329,192,34234,1,0,0:0:0:0:
402,192,34234,1,0,0:0:0:0:
109,192,34234,1,0,0:0:0:0:
256,192,34410,1,0,0:0:0:0:
329,192,34454,1,0,0:0:0:0:
402,192,34498,1,0,0:0:0:0:
475,192,34543,1,0,0:0:0:0:
182,192,34543,1,0,0:0:0:0:
109,192,34587,1,0,0:0:0:0:
36,192,34631,1,0,0:0:0:0:
475,192,34675,1,0,0:0:0:0:
402,192,34719,1,0,0:0:0:0:
329,192,34763,1,0,0:0:0:0:
256,192,34807,1,0,0:0:0:0:
182,192,34851,1,0,0:0:0:0:
109,192,34896,1,0,0:0:0:0:
36,192,34940,1,0,0:0:0:0:
329,192,34940,1,0,0:0:0:0:
402,192,34984,1,0,0:0:0:0:
475,192,35028,1,0,0:0:0:0:
36,192,35072,1,0,0:0:0:0:
109,192,35116,1,0,0:0:0:0:
182,192,35160,1,0,0:0:0:0:
256,192,35204,1,0,0:0:0:0:
329,192,35248,1,0,0:0:0:0:
402,192,35293,1,0,0:0:0:0:
475,192,35337,1,0,0:0:0:0:
256,192,35381,1,0,0:0:0:0:
182,192,35425,1,0,0:0:0:0:
109,192,35469,1,0,0:0:0:0:
36,192,35469,1,0,0:0:0:0:
329,192,35469,1,0,0:0:0:0:
109,192,35557,1,0,0:0:0:0:
36,192,35557,1,0,0:0:0:0:
329,192,35557,1,0,0:0:0:0:
402,192,35645,1,0,0:0:0:0:
475,192,35645,1,0,0:0:0:0:
182,192,35645,1,0,0:0:0:0:
256,192,35822,1,0,0:0:0:0:
182,192,35866,1,0,0:0:0:0:
109,192,35910,1,0,0:0:0:0:
36,192,35954,1,0,0:0:0:0:
329,192,35954,1,0,0:0:0:0:
402,192,35998,1,0,0:0:0:0:
475,192,36043,1,0,0:0:0:0:
36,192,36087,1,0,0:0:0:0:
109,192,36131,1,0,0:0:0:0:
182,192,36175,1,0,0:0:0:0:
256,192,36219,1,0,0:0:0:0:
329,192,36263,1,0,0:0:0:0:
402,192,36307,1,0,0:0:0:0:
475,192,36351,1,0,0:0:0:0:
182,192,36351,1,0,0:0:0:0:
109,192,36395,1,0,0:0:0:0:
36,192,36440,1,0,0:0:0:0:
475,192,36484,1,0,0:0:0:0:
402,192,36528,1,0,0:0:0:0:
329,192,36572,1,0,0:0:0:0:
256,192,36616,1,0,0:0:0:0:
182,192,36660,1,0,0:0:0:0:
109,192,36704,1,0,0:0:0:0:
36,192,36748,1,0,0:0:0:0:
256,192,36793,1,0,0:0:0:0:
329,192,36837,1,0,0:0:0:0:
402,192,36881,1,0,0:0:0:0:
475,192,36881,1,0,0:0:0:0:
182,192,36881,1,0,0:0:0:0:
182,192,36969,1,0,0:0:0:0:
402,192,36969,1,0,0:0:0:0:
475,192,36969,1,0,0:0:0:0:
36,192,37057,1,0,0:0:0:0:
109,192,37057,1,0,0:0:0:0:
329,192,37057,1,0,0:0:0:0:
256,192,37234,1,0,0:0:0:0:
329,192,37278,1,0,0:0:0:0:
182,192,37278,1,0,0:0:0:0:
402,192,37322,1,0,0:0:0:0:
109,192,37322,1,0,0:0:0:0:
475,192,37366,1,0,0:0:0:0:
36,192,37366,1,0,0:0:0:0:
256,192,37410,1,0,0:0:0:0:
182,192,37454,1,0,0:0:0:0:
329,192,37454,1,0,0:0:0:0:
109,192,37498,1,0,0:0:0:0:
402,192,37498,1,0,0:0:0:0:
475,192,37543,1,0,0:0:0:0:
36,192,37543,1,0,0:0:0:0:
256,192,37587,1,0,0:0:0:0:
182,192,37631,1,0,0:0:0:0:
329,192,37631,1,0,0:0:0:0:
109,192,37675,1,0,0:0:0:0:
402,192,37675,1,0,0:0:0:0:
36,192,37719,1,0,0:0:0:0:
475,192,37719,1,0,0:0:0:0:
256,192,37763,1,0,0:0:0:0:
329,192,37807,1,0,0:0:0:0:
182,192,37807,1,0,0:0:0:0:
402,192,37851,1,0,0:0:0:0:
109,192,37851,1,0,0:0:0:0:
475,192,37895,1,0,0:0:0:0:
36,192,37895,1,0,0:0:0:0:
256,192,37940,1,0,0:0:0:0:
182,192,37984,1,0,0:0:0:0:
329,192,37984,1,0,0:0:0:0:
109,192,38028,1,0,0:0:0:0:
402,192,38028,1,0,0:0:0:0:
475,192,38072,1,0,0:0:0:0:
36,192,38072,1,0,0:0:0:0:
256,192,38116,1,0,0:0:0:0:
182,192,38160,1,0,0:0:0:0:
329,192,38160,1,0,0:0:0:0:
109,192,38204,1,0,0:0:0:0:
402,192,38204,1,0,0:0:0:0:
475,192,38248,1,0,0:0:0:0:
36,192,38248,1,0,0:0:0:0:
329,192,38293,1,0,0:0:0:0:
182,192,38293,1,0,0:0:0:0:
256,192,38293,1,0,0:0:0:0:
256,192,38381,1,0,0:0:0:0:
329,192,38381,1,0,0:0:0:0:
182,192,38381,1,0,0:0:0:0:
402,192,38469,1,0,0:0:0:0:
109,192,38469,1,0,0:0:0:0:
36,192,38645,1,0,0:0:0:0:
475,192,38645,1,0,0:0:0:0:
109,192,38690,1,0,0:0:0:0:
402,192,38690,1,0,0:0:0:0:
182,192,38734,1,0,0:0:0:0:
329,192,38734,1,0,0:0:0:0:
256,192,38778,1,0,0:0:0:0:
36,192,38822,1,0,0:0:0:0:
475,192,38822,1,0,0:0:0:0:
109,192,38866,1,0,0:0:0:0:
402,192,38866,1,0,0:0:0:0:
182,192,38910,1,0,0:0:0:0:
329,192,38910,1,0,0:0:0:0:
256,192,38954,1,0,0:0:0:0:
36,192,38998,1,0,0:0:0:0:
475,192,38998,1,0,0:0:0:0:
109,192,39042,1,0,0:0:0:0:
402,192,39042,1,0,0:0:0:0:
182,192,39087,1,0,0:0:0:0:
329,192,39087,1,0,0:0:0:0:
256,192,39131,1,0,0:0:0:0:
36,192,39175,1,0,0:0:0:0:
475,192,39175,1,0,0:0:0:0:
109,192,39219,1,0,0:0:0:0:
402,192,39219,1,0,0:0:0:0:
182,192,39263,1,0,0:0:0:0:
329,192,39263,1,0,0:0:0:0:
256,192,39307,1,0,0:0:0:0:
36,192,39351,1,0,0:0:0:0:
475,192,39351,1,0,0:0:0:0:
109,192,39395,1,0,0:0:0:0:
402,192,39395,1,0,0:0:0:0:
182,192,39440,1,0,0:0:0:0:
329,192,39440,1,0,0:0:0:0:
256,192,39484,1,0,0:0:0:0:
36,192,39528,1,0,0:0:0:0:
475,192,39528,1,0,0:0:0:0:
109,192,39572,1,0,0:0:0:0:
402,192,39572,1,0,0:0:0:0:
182,192,39616,1,0,0:0:0:0:
329,192,39616,1,0,0:0:0:0:
256,192,39660,1,0,0:0:0:0:
36,192,39704,1,0,0:0:0:0:
109,192,39704,1,0,0:0:0:0:
402,192,39792,1,0,0:0:0:0:
475,192,39792,1,0,0:0:0:0:
109,192,39881,1,0,0:0:0:0:
182,192,39881,1,0,0:0:0:0:
329,192,39969,1,0,0:0:0:0:
402,192,39969,1,0,0:0:0:0:
36,192,40057,1,0,0:0:0:0:
182,192,40057,1,0,0:0:0:0:
329,192,40145,1,0,0:0:0:0:
475,192,40145,1,0,0:0:0:0:
109,192,40234,1,0,0:0:0:0:
36,192,40234,1,0,0:0:0:0:
402,192,40322,1,0,0:0:0:0:
475,192,40322,1,0,0:0:0:0:
182,192,40410,1,0,0:0:0:0:
109,192,40410,1,0,0:0:0:0:
402,192,40498,1,0,0:0:0:0:
329,192,40498,1,0,0:0:0:0:
36,192,40587,1,0,0:0:0:0:
182,192,40587,1,0,0:0:0:0:
475,192,40675,1,0,0:0:0:0:
329,192,40675,1,0,0:0:0:0:
256,192,40763,1,0,0:0:0:0:
182,192,40807,1,0,0:0:0:0:
109,192,40807,1,0,0:0:0:0:
36,192,40807,1,0,0:0:0:0:
329,192,40851,1,0,0:0:0:0:
402,192,40851,1,0,0:0:0:0:
475,192,40851,1,0,0:0:0:0:
182,192,40895,1,0,0:0:0:0:
109,192,40895,1,0,0:0:0:0:
36,192,40895,1,0,0:0:0:0:
329,192,40940,1,0,0:0:0:0:
402,192,40940,1,0,0:0:0:0:
475,192,40940,1,0,0:0:0:0:
182,192,40984,1,0,0:0:0:0:
109,192,40984,1,0,0:0:0:0:
36,192,40984,1,0,0:0:0:0:
329,192,41028,1,0,0:0:0:0:
402,192,41028,1,0,0:0:0:0:
475,192,41028,1,0,0:0:0:0:
182,192,41072,1,0,0:0:0:0:
109,192,41072,1,0,0:0:0:0:
36,192,41072,1,0,0:0:0:0:
256,192,41116,1,0,0:0:0:0:
329,192,41204,1,0,0:0:0:0:
475,192,41204,1,0,0:0:0:0:
182,192,41292,1,0,0:0:0:0:
36,192,41292,1,0,0:0:0:0:
329,192,41381,1,0,0:0:0:0:
402,192,41381,1,0,0:0:0:0:
109,192,41469,1,0,0:0:0:0:
182,192,41469,1,0,0:0:0:0:
402,192,41557,1,0,0:0:0:0:
475,192,41557,1,0,0:0:0:0:
109,192,41645,1,0,0:0:0:0:
36,192,41645,1,0,0:0:0:0:
402,192,41734,1,0,0:0:0:0:
475,192,41734,1,0,0:0:0:0:
182,192,41822,128,0,41998:0:0:0:0:
256,192,41822,128,0,41998:0:0:0:0:
329,192,41822,128,0,41998:0:0:0:0:
36,192,41998,1,0,0:0:0:0:
475,192,41998,1,0,0:0:0:0:
109,192,42042,1,0,0:0:0:0:
402,192,42042,1,0,0:0:0:0:
182,192,42087,1,0,0:0:0:0:
329,192,42087,1,0,0:0:0:0:
256,192,42131,1,0,0:0:0:0:
109,192,42175,1,0,0:0:0:0:
402,192,42175,1,0,0:0:0:0:
36,192,42219,1,0,0:0:0:0:
475,192,42219,1,0,0:0:0:0:
182,192,42263,1,0,0:0:0:0:
329,192,42263,1,0,0:0:0:0:
36,192,42351,1,0,0:0:0:0:
475,192,42351,1,0,0:0:0:0:
109,192,42439,1,0,0:0:0:0:
402,192,42439,1,0,0:0:0:0:
182,192,42528,1,0,0:0:0:0:
256,192,42528,1,0,0:0:0:0:
329,192,42528,1,0,0:0:0:0:
36,192,42704,1,0,0:0:0:0:
475,192,42704,1,0,0:0:0:0:
182,192,42704,1,0,0:0:0:0:
109,192,42792,1,0,0:0:0:0:
402,192,42792,1,0,0:0:0:0:
329,192,42792,1,0,0:0:0:0:
329,192,42969,1,0,0:0:0:0:
182,192,42969,1,0,0:0:0:0:
36,192,42969,1,0,0:0:0:0:
475,192,42969,1,0,0:0:0:0:
109,192,43145,1,0,0:0:0:0:
402,192,43145,1,0,0:0:0:0:
256,192,43145,1,0,0:0:0:0:
36,192,43322,1,0,0:0:0:0:
475,192,43322,1,0,0:0:0:0:
182,192,43322,1,0,0:0:0:0:
329,192,43322,1,0,0:0:0:0:
256,192,43498,1,0,0:0:0:0:
182,192,43498,1,0,0:0:0:0:
329,192,43498,1,0,0:0:0:0:
36,192,43675,128,0,43939:0:0:0:0:
109,192,43675,128,0,43939:0:0:0:0:
402,192,43675,128,0,43939:0:0:0:0:
475,192,43675,128,0,43939:0:0:0:0:
182,192,43939,1,0,0:0:0:0:
256,192,43939,1,0,0:0:0:0:
329,192,43939,1,0,0:0:0:0:
182,192,44116,1,0,0:0:0:0:
256,192,44116,1,0,0:0:0:0:
329,192,44116,1,0,0:0:0:0:
36,192,44292,1,0,0:0:0:0:
109,192,44292,1,0,0:0:0:0:
402,192,44381,1,0,0:0:0:0:
475,192,44381,1,0,0:0:0:0:
109,192,44469,1,0,0:0:0:0:
182,192,44469,1,0,0:0:0:0:
329,192,44557,1,0,0:0:0:0:
402,192,44557,1,0,0:0:0:0:
256,192,44645,1,0,0:0:0:0:
182,192,44689,1,0,0:0:0:0:
109,192,44689,1,0,0:0:0:0:
36,192,44689,1,0,0:0:0:0:
329,192,44734,1,0,0:0:0:0:
402,192,44734,1,0,0:0:0:0:
475,192,44734,1,0,0:0:0:0:
182,192,44778,1,0,0:0:0:0:
109,192,44778,1,0,0:0:0:0:
36,192,44778,1,0,0:0:0:0:
329,192,44822,1,0,0:0:0:0:
402,192,44822,1,0,0:0:0:0:
475,192,44822,1,0,0:0:0:0:
182,192,44866,1,0,0:0:0:0:
109,192,44866,1,0,0:0:0:0:
36,192,44866,1,0,0:0:0:0:
329,192,44910,1,0,0:0:0:0:
402,192,44910,1,0,0:0:0:0:
475,192,44910,1,0,0:0:0:0:
182,192,44954,1,0,0:0:0:0:
109,192,44954,1,0,0:0:0:0:
36,192,44954,1,0,0:0:0:0:
329,192,44998,1,0,0:0:0:0:
402,192,44998,1,0,0:0:0:0:
475,192,44998,1,0,0:0:0:0:
182,192,45042,1,0,0:0:0:0:
109,192,45042,1,0,0:0:0:0:
36,192,45042,1,0,0:0:0:0:
329,192,45087,1,0,0:0:0:0:
402,192,45087,1,0,0:0:0:0:
475,192,45087,1,0,0:0:0:0:
182,192,45131,1,0,0:0:0:0:
109,192,45131,1,0,0:0:0:0:
36,192,45131,1,0,0:0:0:0:
329,192,45175,1,0,0:0:0:0:
402,192,45175,1,0,0:0:0:0:
475,192,45175,1,0,0:0:0:0:
182,192,45219,1,0,0:0:0:0:
109,192,45219,1,0,0:0:0:0:
36,192,45219,1,0,0:0:0:0:
329,192,45263,1,0,0:0:0:0:
402,192,45263,1,0,0:0:0:0:
475,192,45263,1,0,0:0:0:0:
182,192,45307,1,0,0:0:0:0:
109,192,45307,1,0,0:0:0:0:
36,192,45307,1,0,0:0:0:0:
256,192,45351,1,0,0:0:0:0:
109,192,45439,1,0,0:0:0:0:
182,192,45439,1,0,0:0:0:0:
329,192,45528,1,0,0:0:0:0:
402,192,45528,1,0,0:0:0:0:
36,192,45616,1,0,0:0:0:0:
109,192,45616,1,0,0:0:0:0:
402,192,45704,1,0,0:0:0:0:
475,192,45704,1,0,0:0:0:0:
36,192,45792,1,0,0:0:0:0:
182,192,45792,1,0,0:0:0:0:
329,192,45881,1,0,0:0:0:0:
475,192,45881,1,0,0:0:0:0:
109,192,45969,1,0,0:0:0:0:
182,192,45969,1,0,0:0:0:0:
329,192,46057,1,0,0:0:0:0:
402,192,46057,1,0,0:0:0:0:
36,192,46145,1,0,0:0:0:0:
109,192,46145,1,0,0:0:0:0:
402,192,46234,1,0,0:0:0:0:
475,192,46234,1,0,0:0:0:0:
182,192,46234,1,0,0:0:0:0:
36,192,46322,1,0,0:0:0:0:
109,192,46366,1,0,0:0:0:0:
182,192,46410,1,0,0:0:0:0:
475,192,46410,1,0,0:0:0:0:
402,192,46454,1,0,0:0:0:0:
256,192,46454,1,0,0:0:0:0:
329,192,46498,1,0,0:0:0:0:
36,192,46498,1,0,0:0:0:0:
109,192,46542,1,0,0:0:0:0:
182,192,46586,1,0,0:0:0:0:
475,192,46586,1,0,0:0:0:0:
402,192,46631,1,0,0:0:0:0:
256,192,46631,1,0,0:0:0:0:
329,192,46675,1,0,0:0:0:0:
36,192,46675,1,0,0:0:0:0:
109,192,46719,1,0,0:0:0:0:
182,192,46763,1,0,0:0:0:0:
402,192,46763,1,0,0:0:0:0:
475,192,46763,1,0,0:0:0:0:
109,192,46851,1,0,0:0:0:0:
36,192,46851,1,0,0:0:0:0:
402,192,46939,1,0,0:0:0:0:
475,192,46939,1,0,0:0:0:0:
109,192,47028,1,0,0:0:0:0:
182,192,47028,1,0,0:0:0:0:
329,192,47116,1,0,0:0:0:0:
402,192,47116,1,0,0:0:0:0:
182,192,47204,1,0,0:0:0:0:
36,192,47204,1,0,0:0:0:0:
329,192,47292,1,0,0:0:0:0:
475,192,47292,1,0,0:0:0:0:
36,192,47381,1,0,0:0:0:0:
109,192,47381,1,0,0:0:0:0:
256,192,47469,1,0,0:0:0:0:
182,192,47469,1,0,0:0:0:0:
329,192,47469,1,0,0:0:0:0:
109,192,47601,1,0,0:0:0:0:
256,192,47601,1,0,0:0:0:0:
402,192,47601,1,0,0:0:0:0:
256,192,47734,1,0,0:0:0:0:
475,192,47734,128,0,47910:0:0:0:0:
36,192,47734,128,0,47910:0:0:0:0:
109,192,47910,1,0,0:0:0:0:
182,192,47954,1,0,0:0:0:0:
256,192,47998,1,0,0:0:0:0:
329,192,48042,1,0,0:0:0:0:
402,192,48086,1,0,0:0:0:0:
475,192,48131,1,0,0:0:0:0:
109,192,48175,1,0,0:0:0:0:
182,192,48175,1,0,0:0:0:0:
329,192,48263,1,0,0:0:0:0:
402,192,48263,1,0,0:0:0:0:
36,192,48351,1,0,0:0:0:0:
109,192,48351,1,0,0:0:0:0:
402,192,48439,1,0,0:0:0:0:
475,192,48439,1,0,0:0:0:0:
36,192,48528,1,0,0:0:0:0:
182,192,48528,1,0,0:0:0:0:
329,192,48616,1,0,0:0:0:0:
475,192,48616,1,0,0:0:0:0:
109,192,48704,1,0,0:0:0:0:
36,192,48704,1,0,0:0:0:0:
402,192,48792,1,0,0:0:0:0:
475,192,48792,1,0,0:0:0:0:
182,192,48881,1,0,0:0:0:0:
256,192,48881,1,0,0:0:0:0:
329,192,48881,1,0,0:0:0:0:
109,192,48969,1,0,0:0:0:0:
36,192,48969,1,0,0:0:0:0:
402,192,49057,1,0,0:0:0:0:
475,192,49057,1,0,0:0:0:0:
109,192,49145,1,0,0:0:0:0:
182,192,49145,1,0,0:0:0:0:
402,192,49233,1,0,0:0:0:0:
329,192,49233,1,0,0:0:0:0:
36,192,49322,1,0,0:0:0:0:
109,192,49322,1,0,0:0:0:0:
402,192,49410,1,0,0:0:0:0:
475,192,49410,1,0,0:0:0:0:
182,192,49498,1,0,0:0:0:0:
256,192,49498,1,0,0:0:0:0:
329,192,49498,1,0,0:0:0:0:
36,192,49586,1,0,0:0:0:0:
109,192,49586,1,0,0:0:0:0:
402,192,49586,1,0,0:0:0:0:
475,192,49586,1,0,0:0:0:0:
36,192,49675,1,0,0:0:0:0:
109,192,49675,1,0,0:0:0:0:
402,192,49675,1,0,0:0:0:0:
475,192,49675,1,0,0:0:0:0:
36,192,49763,1,0,0:0:0:0:
109,192,49763,1,0,0:0:0:0:
402,192,49763,1,0,0:0:0:0:
475,192,49763,1,0,0:0:0:0:
36,192,49851,1,0,0:0:0:0:
109,192,49851,1,0,0:0:0:0:
402,192,49851,1,0,0:0:0:0:
475,192,49851,1,0,0:0:0:0:
182,192,49939,1,0,0:0:0:0:
256,192,49939,1,0,0:0:0:0:
329,192,49939,1,0,0:0:0:0:
182,192,50028,1,0,0:0:0:0:
256,192,50028,1,0,0:0:0:0:
329,192,50028,1,0,0:0:0:0:
182,192,50116,1,0,0:0:0:0:
256,192,50116,1,0,0:0:0:0:
329,192,50116,1,0,0:0:0:0:
182,192,50204,1,0,0:0:0:0:
256,192,50204,1,0,0:0:0:0:
329,192,50204,1,0,0:0:0:0:
36,192,50292,1,0,0:0:0:0:
475,192,50292,1,0,0:0:0:0:
109,192,50336,1,0,0:0:0:0:
402,192,50336,1,0,0:0:0:0:
182,192,50381,1,0,0:0:0:0:
329,192,50381,1,0,0:0:0:0:
256,192,50425,1,0,0:0:0:0:
182,192,50469,1,0,0:0:0:0:
329,192,50469,1,0,0:0:0:0:
109,192,50513,1,0,0:0:0:0:
402,192,50513,1,0,0:0:0:0:
36,192,50557,1,0,0:0:0:0:
475,192,50557,1,0,0:0:0:0:
109,192,50601,1,0,0:0:0:0:
402,192,50601,1,0,0:0:0:0:
182,192,50645,1,0,0:0:0:0:
329,192,50645,1,0,0:0:0:0:
256,192,50689,1,0,0:0:0:0:
182,192,50733,1,0,0:0:0:0:
329,192,50733,1,0,0:0:0:0:
109,192,50778,1,0,0:0:0:0:
402,192,50778,1,0,0:0:0:0:
36,192,50822,1,0,0:0:0:0:
475,192,50822,1,0,0:0:0:0:
109,192,50866,1,0,0:0:0:0:
402,192,50866,1,0,0:0:0:0:
182,192,50910,1,0,0:0:0:0:
329,192,50910,1,0,0:0:0:0:
256,192,50954,1,0,0:0:0:0:
36,192,50998,1,0,0:0:0:0:
475,192,50998,1,0,0:0:0:0:
109,192,51086,1,0,0:0:0:0:
402,192,51086,1,0,0:0:0:0:
36,192,51175,1,0,0:0:0:0:
182,192,51175,1,0,0:0:0:0:
329,192,51175,1,0,0:0:0:0:
475,192,51175,1,0,0:0:0:0:
402,192,51263,1,0,0:0:0:0:
109,192,51263,1,0,0:0:0:0:
36,192,51351,1,0,0:0:0:0:
182,192,51351,1,0,0:0:0:0:
329,192,51351,1,0,0:0:0:0:
475,192,51351,1,0,0:0:0:0:
109,192,51439,1,0,0:0:0:0:
402,192,51439,1,0,0:0:0:0:
36,192,51528,1,0,0:0:0:0:
182,192,51528,1,0,0:0:0:0:
329,192,51528,1,0,0:0:0:0:
475,192,51528,1,0,0:0:0:0:
109,192,51616,1,0,0:0:0:0:
402,192,51616,1,0,0:0:0:0:
36,192,51704,1,0,0:0:0:0:
182,192,51704,1,0,0:0:0:0:
329,192,51704,1,0,0:0:0:0:
475,192,51704,1,0,0:0:0:0:
256,192,51704,1,0,0:0:0:0:
109,192,51792,1,0,0:0:0:0:
402,192,51792,1,0,0:0:0:0:
182,192,51881,1,0,0:0:0:0:
256,192,51881,1,0,0:0:0:0:
329,192,51881,1,0,0:0:0:0:
109,192,51969,1,0,0:0:0:0:
402,192,51969,1,0,0:0:0:0:
36,192,52057,1,0,0:0:0:0:
475,192,52057,1,0,0:0:0:0:
109,192,52145,1,0,0:0:0:0:
402,192,52145,1,0,0:0:0:0:
182,192,52233,1,0,0:0:0:0:
256,192,52233,1,0,0:0:0:0:
329,192,52233,1,0,0:0:0:0:
109,192,52322,1,0,0:0:0:0:
402,192,52322,1,0,0:0:0:0:
36,192,52410,1,0,0:0:0:0:
109,192,52454,1,0,0:0:0:0:
182,192,52498,1,0,0:0:0:0:
256,192,52542,1,0,0:0:0:0:
329,192,52586,1,0,0:0:0:0:
402,192,52631,1,0,0:0:0:0:
475,192,52675,1,0,0:0:0:0:
109,192,52763,128,0,53469:0:0:0:0:
182,192,52763,128,0,53469:0:0:0:0:
36,192,52763,128,0,53469:0:0:0:0:
256,192,52763,1,0,0:0:0:0:
329,192,52851,1,0,0:0:0:0:
402,192,52939,1,0,0:0:0:0:
475,192,52939,1,0,0:0:0:0:
329,192,53028,1,0,0:0:0:0:
256,192,53116,1,0,0:0:0:0:
329,192,53204,1,0,0:0:0:0:
402,192,53292,1,0,0:0:0:0:
475,192,53292,1,0,0:0:0:0:
329,192,53380,1,0,0:0:0:0:
256,192,53469,1,0,0:0:0:0:
109,192,53601,1,0,0:0:0:0:
36,192,53601,1,0,0:0:0:0:
329,192,53601,1,0,0:0:0:0:
402,192,53601,1,0,0:0:0:0:
475,192,53601,1,0,0:0:0:0:
402,192,53733,1,0,0:0:0:0:
475,192,53733,1,0,0:0:0:0:
182,192,53733,1,0,0:0:0:0:
109,192,53733,1,0,0:0:0:0:
36,192,53733,1,0,0:0:0:0:
256,192,53822,1,0,0:0:0:0:
36,192,53910,1,0,0:0:0:0:
109,192,53910,1,0,0:0:0:0:
402,192,53998,1,0,0:0:0:0:
475,192,53998,1,0,0:0:0:0:
36,192,54086,1,0,0:0:0:0:
109,192,54086,1,0,0:0:0:0:
256,192,54175,1,0,0:0:0:0:
329,192,54263,1,0,0:0:0:0:
402,192,54263,1,0,0:0:0:0:
109,192,54351,1,0,0:0:0:0:
182,192,54351,1,0,0:0:0:0:
329,192,54439,1,0,0:0:0:0:
402,192,54439,1,0,0:0:0:0:
256,192,54528,1,0,0:0:0:0:
36,192,54616,1,0,0:0:0:0:
182,192,54616,1,0,0:0:0:0:
329,192,54704,1,0,0:0:0:0:
475,192,54704,1,0,0:0:0:0:
36,192,54792,1,0,0:0:0:0:
182,192,54792,1,0,0:0:0:0:
256,192,54880,1,0,0:0:0:0:
329,192,54969,1,0,0:0:0:0:
475,192,54969,1,0,0:0:0:0:
182,192,55057,1,0,0:0:0:0:
36,192,55057,1,0,0:0:0:0:
329,192,55145,1,0,0:0:0:0:
475,192,55145,1,0,0:0:0:0:
36,192,55233,1,0,0:0:0:0:
402,192,55233,1,0,0:0:0:0:
182,192,55233,1,0,0:0:0:0:
36,192,55410,1,0,0:0:0:0:
402,192,55410,1,0,0:0:0:0:
182,192,55410,1,0,0:0:0:0:
109,192,55586,1,0,0:0:0:0:
402,192,55586,1,0,0:0:0:0:
329,192,55675,1,0,0:0:0:0:
182,192,55675,1,0,0:0:0:0:
109,192,55763,1,0,0:0:0:0:
402,192,55763,1,0,0:0:0:0:
182,192,55851,1,0,0:0:0:0:
329,192,55851,1,0,0:0:0:0:
256,192,55939,1,0,0:0:0:0:
329,192,55983,1,0,0:0:0:0:
402,192,56028,1,0,0:0:0:0:
36,192,56028,1,0,0:0:0:0:
475,192,56072,1,0,0:0:0:0:
109,192,56072,1,0,0:0:0:0:
182,192,56116,1,0,0:0:0:0:
256,192,56160,1,0,0:0:0:0:
329,192,56204,1,0,0:0:0:0:
402,192,56248,1,0,0:0:0:0:
36,192,56248,1,0,0:0:0:0:
475,192,56292,1,0,0:0:0:0:
109,192,56292,1,0,0:0:0:0:
182,192,56336,1,0,0:0:0:0:
256,192,56380,1,0,0:0:0:0:
329,192,56425,1,0,0:0:0:0:
402,192,56469,1,0,0:0:0:0:
36,192,56469,1,0,0:0:0:0:
475,192,56513,1,0,0:0:0:0:
109,192,56513,1,0,0:0:0:0:
182,192,56557,1,0,0:0:0:0:
256,192,56601,1,0,0:0:0:0:
329,192,56645,1,0,0:0:0:0:
36,192,56645,1,0,0:0:0:0:
475,192,56645,1,0,0:0:0:0:
36,192,56822,1,0,0:0:0:0:
475,192,56822,1,0,0:0:0:0:
182,192,56822,1,0,0:0:0:0:
329,192,56822,1,0,0:0:0:0:
36,192,56998,1,0,0:0:0:0:
475,192,56998,1,0,0:0:0:0:
182,192,56998,1,0,0:0:0:0:
329,192,56998,1,0,0:0:0:0:
36,192,57175,1,0,0:0:0:0:
475,192,57175,1,0,0:0:0:0:
329,192,57175,1,0,0:0:0:0:
182,192,57175,1,0,0:0:0:0:
36,192,57351,128,0,57616:0:0:0:0:
475,192,57351,128,0,57616:0:0:0:0:
109,192,57351,1,0,0:0:0:0:
182,192,57351,1,0,0:0:0:0:
256,192,57439,1,0,0:0:0:0:
329,192,57439,1,0,0:0:0:0:
402,192,57439,1,0,0:0:0:0:
109,192,57527,1,0,0:0:0:0:
182,192,57527,1,0,0:0:0:0:
329,192,57616,1,0,0:0:0:0:
402,192,57616,1,0,0:0:0:0:
36,192,57704,128,0,57969:0:0:0:0:
475,192,57704,128,0,57969:0:0:0:0:
109,192,57704,1,0,0:0:0:0:
182,192,57704,1,0,0:0:0:0:
256,192,57704,1,0,0:0:0:0:
329,192,57792,1,0,0:0:0:0:
402,192,57792,1,0,0:0:0:0:
109,192,57880,1,0,0:0:0:0:
182,192,57880,1,0,0:0:0:0:
329,192,57969,1,0,0:0:0:0:
256,192,57969,1,0,0:0:0:0:
109,192,58057,128,0,58322:0:0:0:0:
402,192,58057,128,0,58322:0:0:0:0:
182,192,58057,1,0,0:0:0:0:
475,192,58057,1,0,0:0:0:0:
256,192,58145,1,0,0:0:0:0:
329,192,58233,1,0,0:0:0:0:
36,192,58233,1,0,0:0:0:0:
256,192,58322,1,0,0:0:0:0:
109,192,58410,128,0,58675:0:0:0:0:
402,192,58410,128,0,58675:0:0:0:0:
182,192,58410,1,0,0:0:0:0:
475,192,58410,1,0,0:0:0:0:
256,192,58498,1,0,0:0:0:0:
329,192,58586,1,0,0:0:0:0:
36,192,58586,1,0,0:0:0:0:
256,192,58675,1,0,0:0:0:0:
182,192,58763,128,0,59027:0:0:0:0:
329,192,58763,128,0,59027:0:0:0:0:
109,192,58763,1,0,0:0:0:0:
36,192,58763,1,0,0:0:0:0:
256,192,58851,1,0,0:0:0:0:
402,192,58939,1,0,0:0:0:0:
475,192,58939,1,0,0:0:0:0:
256,192,59027,1,0,0:0:0:0:
182,192,59116,128,0,59380:0:0:0:0:
329,192,59116,128,0,59380:0:0:0:0:
109,192,59116,1,0,0:0:0:0:
36,192,59116,1,0,0:0:0:0:
256,192,59204,1,0,0:0:0:0:
402,192,59292,1,0,0:0:0:0:
475,192,59292,1,0,0:0:0:0:
256,192,59380,1,0,0:0:0:0:
36,192,59469,128,0,60174:0:0:0:0:
475,192,59469,128,0,60174:0:0:0:0:
109,192,59469,1,0,0:0:0:0:
402,192,59469,1,0,0:0:0:0:
182,192,59557,1,0,0:0:0:0:
329,192,59557,1,0,0:0:0:0:
109,192,59645,1,0,0:0:0:0:
402,192,59645,1,0,0:0:0:0:
182,192,59733,1,0,0:0:0:0:
329,192,59733,1,0,0:0:0:0:
109,192,59822,1,0,0:0:0:0:
402,192,59822,1,0,0:0:0:0:
182,192,59910,1,0,0:0:0:0:
329,192,59910,1,0,0:0:0:0:
109,192,59998,1,0,0:0:0:0:
402,192,59998,1,0,0:0:0:0:
182,192,60086,1,0,0:0:0:0:
329,192,60086,1,0,0:0:0:0:
109,192,60174,1,0,0:0:0:0:
256,192,60174,1,0,0:0:0:0:
402,192,60174,1,0,0:0:0:0:
182,192,60263,1,0,0:0:0:0:
329,192,60263,1,0,0:0:0:0:
109,192,60351,1,0,0:0:0:0:
402,192,60351,1,0,0:0:0:0:
36,192,60439,1,0,0:0:0:0:
475,192,60439,1,0,0:0:0:0:
109,192,60527,1,0,0:0:0:0:
402,192,60527,1,0,0:0:0:0:
182,192,60616,1,0,0:0:0:0:
329,192,60616,1,0,0:0:0:0:
36,192,60704,1,0,0:0:0:0:
475,192,60704,1,0,0:0:0:0:
182,192,60792,1,0,0:0:0:0:
329,192,60792,1,0,0:0:0:0:
36,192,60880,1,0,0:0:0:0:
402,192,60880,1,0,0:0:0:0:
109,192,60924,1,0,0:0:0:0:
475,192,60924,1,0,0:0:0:0:
182,192,60969,1,0,0:0:0:0:
256,192,61013,1,0,0:0:0:0:
329,192,61057,1,0,0:0:0:0:
402,192,61101,1,0,0:0:0:0:
36,192,61101,1,0,0:0:0:0:
475,192,61145,1,0,0:0:0:0:
109,192,61145,1,0,0:0:0:0:
182,192,61189,1,0,0:0:0:0:
256,192,61233,1,0,0:0:0:0:
329,192,61277,1,0,0:0:0:0:
402,192,61322,1,0,0:0:0:0:
36,192,61322,1,0,0:0:0:0:
475,192,61366,1,0,0:0:0:0:
109,192,61366,1,0,0:0:0:0:
182,192,61410,1,0,0:0:0:0:
256,192,61454,1,0,0:0:0:0:
329,192,61498,1,0,0:0:0:0:
402,192,61542,1,0,0:0:0:0:
475,192,61586,1,0,0:0:0:0:
109,192,61586,1,0,0:0:0:0:
402,192,61630,1,0,0:0:0:0:
36,192,61630,1,0,0:0:0:0:
329,192,61674,1,0,0:0:0:0:
256,192,61719,1,0,0:0:0:0:
182,192,61763,1,0,0:0:0:0:
109,192,61807,1,0,0:0:0:0:
475,192,61807,1,0,0:0:0:0:
36,192,61851,1,0,0:0:0:0:
402,192,61851,1,0,0:0:0:0:
329,192,61895,1,0,0:0:0:0:
256,192,61939,1,0,0:0:0:0:
182,192,61983,1,0,0:0:0:0:
109,192,62027,1,0,0:0:0:0:
475,192,62027,1,0,0:0:0:0:
36,192,62072,1,0,0:0:0:0:
402,192,62072,1,0,0:0:0:0:
329,192,62116,1,0,0:0:0:0:
256,192,62160,1,0,0:0:0:0:
182,192,62204,1,0,0:0:0:0:
109,192,62248,1,0,0:0:0:0:
475,192,62292,1,0,0:0:0:0:
256,192,62292,1,0,0:0:0:0:
36,192,62292,1,0,0:0:0:0:
109,192,62380,1,0,0:0:0:0:
402,192,62380,1,0,0:0:0:0:
36,192,62469,1,0,0:0:0:0:
182,192,62469,1,0,0:0:0:0:
329,192,62469,1,0,0:0:0:0:
475,192,62469,1,0,0:0:0:0:
402,192,62557,1,0,0:0:0:0:
109,192,62557,1,0,0:0:0:0:
36,192,62645,1,0,0:0:0:0:
182,192,62645,1,0,0:0:0:0:
329,192,62645,1,0,0:0:0:0:
475,192,62645,1,0,0:0:0:0:
109,192,62733,1,0,0:0:0:0:
402,192,62733,1,0,0:0:0:0:
36,192,62822,1,0,0:0:0:0:
182,192,62822,1,0,0:0:0:0:
329,192,62822,1,0,0:0:0:0:
475,192,62822,1,0,0:0:0:0:
109,192,62910,1,0,0:0:0:0:
402,192,62910,1,0,0:0:0:0:
36,192,62998,1,0,0:0:0:0:
182,192,62998,1,0,0:0:0:0:
329,192,62998,1,0,0:0:0:0:
475,192,62998,1,0,0:0:0:0:
256,192,62998,1,0,0:0:0:0:
109,192,63086,1,0,0:0:0:0:
402,192,63086,1,0,0:0:0:0:
182,192,63174,1,0,0:0:0:0:
256,192,63174,1,0,0:0:0:0:
329,192,63174,1,0,0:0:0:0:
109,192,63263,1,0,0:0:0:0:
402,192,63263,1,0,0:0:0:0:
36,192,63351,1,0,0:0:0:0:
475,192,63351,1,0,0:0:0:0:
109,192,63439,1,0,0:0:0:0:
402,192,63439,1,0,0:0:0:0:
182,192,63527,1,0,0:0:0:0:
256,192,63527,1,0,0:0:0:0:
329,192,63527,1,0,0:0:0:0:
109,192,63616,1,0,0:0:0:0:
402,192,63616,1,0,0:0:0:0:
36,192,63704,1,0,0:0:0:0:
109,192,63748,1,0,0:0:0:0:
182,192,63792,1,0,0:0:0:0:
256,192,63836,1,0,0:0:0:0:
329,192,63880,1,0,0:0:0:0:
402,192,63924,1,0,0:0:0:0:
475,192,63969,1,0,0:0:0:0:
109,192,64057,128,0,64763:0:0:0:0:
182,192,64057,128,0,64763:0:0:0:0:
36,192,64057,128,0,64763:0:0:0:0:
256,192,64057,1,0,0:0:0:0:
329,192,64145,1,0,0:0:0:0:
402,192,64233,1,0,0:0:0:0:
475,192,64233,1,0,0:0:0:0:
329,192,64321,1,0,0:0:0:0:
256,192,64410,1,0,0:0:0:0:
329,192,64498,1,0,0:0:0:0:
402,192,64586,1,0,0:0:0:0:
475,192,64586,1,0,0:0:0:0:
329,192,64674,1,0,0:0:0:0:
256,192,64763,1,0,0:0:0:0:
109,192,64895,1,0,0:0:0:0:
36,192,64895,1,0,0:0:0:0:
329,192,64895,1,0,0:0:0:0:
402,192,64895,1,0,0:0:0:0:
475,192,64895,1,0,0:0:0:0:
402,192,65027,1,0,0:0:0:0:
475,192,65027,1,0,0:0:0:0:
182,192,65027,1,0,0:0:0:0:
109,192,65027,1,0,0:0:0:0:
36,192,65027,1,0,0:0:0:0:
256,192,65116,1,0,0:0:0:0:
36,192,65204,1,0,0:0:0:0:
109,192,65204,1,0,0:0:0:0:
402,192,65292,1,0,0:0:0:0:
475,192,65292,1,0,0:0:0:0:
36,192,65380,1,0,0:0:0:0:
109,192,65380,1,0,0:0:0:0:
256,192,65469,1,0,0:0:0:0:
329,192,65557,1,0,0:0:0:0:
402,192,65557,1,0,0:0:0:0:
109,192,65645,1,0,0:0:0:0:
182,192,65645,1,0,0:0:0:0:
329,192,65733,1,0,0:0:0:0:
402,192,65733,1,0,0:0:0:0:
256,192,65821,1,0,0:0:0:0:
36,192,65910,1,0,0:0:0:0:
182,192,65910,1,0,0:0:0:0:
329,192,65998,1,0,0:0:0:0:
475,192,65998,1,0,0:0:0:0:
36,192,66086,1,0,0:0:0:0:
182,192,66086,1,0,0:0:0:0:
256,192,66174,1,0,0:0:0:0:
329,192,66263,1,0,0:0:0:0:
475,192,66263,1,0,0:0:0:0:
182,192,66351,1,0,0:0:0:0:
36,192,66351,1,0,0:0:0:0:
329,192,66439,1,0,0:0:0:0:
475,192,66439,1,0,0:0:0:0:
36,192,66527,1,0,0:0:0:0:
402,192,66527,1,0,0:0:0:0:
182,192,66527,1,0,0:0:0:0:
36,192,66704,1,0,0:0:0:0:
402,192,66704,1,0,0:0:0:0:
182,192,66704,1,0,0:0:0:0:
109,192,66880,1,0,0:0:0:0:
402,192,66880,1,0,0:0:0:0:
329,192,66968,1,0,0:0:0:0:
182,192,66968,1,0,0:0:0:0:
109,192,67057,1,0,0:0:0:0:
402,192,67057,1,0,0:0:0:0:
182,192,67145,1,0,0:0:0:0:
329,192,67145,1,0,0:0:0:0:
256,192,67233,1,0,0:0:0:0:
329,192,67277,1,0,0:0:0:0:
402,192,67321,1,0,0:0:0:0:
36,192,67321,1,0,0:0:0:0:
475,192,67366,1,0,0:0:0:0:
109,192,67366,1,0,0:0:0:0:
182,192,67410,1,0,0:0:0:0:
256,192,67454,1,0,0:0:0:0:
329,192,67498,1,0,0:0:0:0:
402,192,67542,1,0,0:0:0:0:
36,192,67542,1,0,0:0:0:0:
475,192,67586,1,0,0:0:0:0:
109,192,67586,1,0,0:0:0:0:
182,192,67630,1,0,0:0:0:0:
256,192,67674,1,0,0:0:0:0:
329,192,67718,1,0,0:0:0:0:
402,192,67763,1,0,0:0:0:0:
36,192,67763,1,0,0:0:0:0:
475,192,67807,1,0,0:0:0:0:
109,192,67807,1,0,0:0:0:0:
182,192,67851,1,0,0:0:0:0:
256,192,67895,1,0,0:0:0:0:
329,192,67939,1,0,0:0:0:0:
36,192,67939,1,0,0:0:0:0:
475,192,67939,1,0,0:0:0:0:
36,192,68116,1,0,0:0:0:0:
475,192,68116,1,0,0:0:0:0:
182,192,68116,1,0,0:0:0:0:
329,192,68116,1,0,0:0:0:0:
36,192,68292,1,0,0:0:0:0:
475,192,68292,1,0,0:0:0:0:
182,192,68292,1,0,0:0:0:0:
329,192,68292,1,0,0:0:0:0:
36,192,68468,1,0,0:0:0:0:
475,192,68468,1,0,0:0:0:0:
329,192,68468,1,0,0:0:0:0:
182,192,68468,1,0,0:0:0:0:
36,192,68645,128,0,68910:0:0:0:0:
475,192,68645,128,0,68910:0:0:0:0:
109,192,68645,1,0,0:0:0:0:
182,192,68645,1,0,0:0:0:0:
256,192,68733,1,0,0:0:0:0:
329,192,68733,1,0,0:0:0:0:
402,192,68733,1,0,0:0:0:0:
109,192,68821,1,0,0:0:0:0:
182,192,68821,1,0,0:0:0:0:
329,192,68910,1,0,0:0:0:0:
402,192,68910,1,0,0:0:0:0:
36,192,68998,128,0,69263:0:0:0:0:
475,192,68998,128,0,69263:0:0:0:0:
109,192,68998,1,0,0:0:0:0:
182,192,68998,1,0,0:0:0:0:
256,192,68998,1,0,0:0:0:0:
329,192,69086,1,0,0:0:0:0:
402,192,69086,1,0,0:0:0:0:
109,192,69174,1,0,0:0:0:0:
182,192,69174,1,0,0:0:0:0:
329,192,69263,1,0,0:0:0:0:
256,192,69263,1,0,0:0:0:0:
109,192,69351,128,0,69616:0:0:0:0:
402,192,69351,128,0,69616:0:0:0:0:
182,192,69351,1,0,0:0:0:0:
475,192,69351,1,0,0:0:0:0:
256,192,69439,1,0,0:0:0:0:
329,192,69527,1,0,0:0:0:0:
36,192,69527,1,0,0:0:0:0:
256,192,69616,1,0,0:0:0:0:
109,192,69704,128,0,69968:0:0:0:0:
402,192,69704,128,0,69968:0:0:0:0:
182,192,69704,1,0,0:0:0:0:
475,192,69704,1,0,0:0:0:0:
256,192,69792,1,0,0:0:0:0:
329,192,69880,1,0,0:0:0:0:
36,192,69880,1,0,0:0:0:0:
256,192,69968,1,0,0:0:0:0:
182,192,70057,128,0,70321:0:0:0:0:
329,192,70057,128,0,70321:0:0:0:0:
109,192,70057,1,0,0:0:0:0:
36,192,70057,1,0,0:0:0:0:
256,192,70145,1,0,0:0:0:0:
402,192,70233,1,0,0:0:0:0:
475,192,70233,1,0,0:0:0:0:
256,192,70321,1,0,0:0:0:0:
182,192,70410,128,0,70674:0:0:0:0:
329,192,70410,128,0,70674:0:0:0:0:
109,192,70410,1,0,0:0:0:0:
36,192,70410,1,0,0:0:0:0:
256,192,70498,1,0,0:0:0:0:
402,192,70586,1,0,0:0:0:0:
475,192,70586,1,0,0:0:0:0:
256,192,70674,1,0,0:0:0:0:
36,192,70763,128,0,71468:0:0:0:0:
475,192,70763,128,0,71468:0:0:0:0:
109,192,70763,1,0,0:0:0:0:
402,192,70763,1,0,0:0:0:0:
182,192,70851,1,0,0:0:0:0:
329,192,70851,1,0,0:0:0:0:
109,192,70939,1,0,0:0:0:0:
402,192,70939,1,0,0:0:0:0:
182,192,71027,1,0,0:0:0:0:
329,192,71027,1,0,0:0:0:0:
109,192,71115,1,0,0:0:0:0:
402,192,71115,1,0,0:0:0:0:
182,192,71204,1,0,0:0:0:0:
329,192,71204,1,0,0:0:0:0:
109,192,71292,1,0,0:0:0:0:
402,192,71292,1,0,0:0:0:0:
182,192,71380,1,0,0:0:0:0:
329,192,71380,1,0,0:0:0:0:
109,192,71468,1,0,0:0:0:0:
256,192,71468,1,0,0:0:0:0:
402,192,71468,1,0,0:0:0:0:
182,192,71557,1,0,0:0:0:0:
329,192,71557,1,0,0:0:0:0:
109,192,71645,1,0,0:0:0:0:
402,192,71645,1,0,0:0:0:0:
36,192,71733,1,0,0:0:0:0:
475,192,71733,1,0,0:0:0:0:
109,192,71821,1,0,0:0:0:0:
402,192,71821,1,0,0:0:0:0:
182,192,71910,1,0,0:0:0:0:
329,192,71910,1,0,0:0:0:0:
36,192,71998,1,0,0:0:0:0:
475,192,71998,1,0,0:0:0:0:
182,192,72086,1,0,0:0:0:0:
329,192,72086,1,0,0:0:0:0:
36,192,72174,1,0,0:0:0:0:
402,192,72174,1,0,0:0:0:0:
109,192,72218,1,0,0:0:0:0:
475,192,72218,1,0,0:0:0:0:
182,192,72263,1,0,0:0:0:0:
256,192,72307,1,0,0:0:0:0:
329,192,72351,1,0,0:0:0:0:
402,192,72395,1,0,0:0:0:0:
36,192,72395,1,0,0:0:0:0:
475,192,72439,1,0,0:0:0:0:
109,192,72439,1,0,0:0:0:0:
182,192,72483,1,0,0:0:0:0:
256,192,72527,1,0,0:0:0:0:
329,192,72571,1,0,0:0:0:0:
402,192,72615,1,0,0:0:0:0:
36,192,72615,1,0,0:0:0:0:
475,192,72660,1,0,0:0:0:0:
109,192,72660,1,0,0:0:0:0:
182,192,72704,1,0,0:0:0:0:
256,192,72748,1,0,0:0:0:0:
329,192,72792,1,0,0:0:0:0:
402,192,72836,1,0,0:0:0:0:
475,192,72880,1,0,0:0:0:0:
109,192,72880,1,0,0:0:0:0:
402,192,72924,1,0,0:0:0:0:
36,192,72924,1,0,0:0:0:0:
329,192,72968,1,0,0:0:0:0:
256,192,73013,1,0,0:0:0:0:
182,192,73057,1,0,0:0:0:0:
109,192,73101,1,0,0:0:0:0:
475,192,73101,1,0,0:0:0:0:
36,192,73145,1,0,0:0:0:0:
402,192,73145,1,0,0:0:0:0:
329,192,73189,1,0,0:0:0:0:
256,192,73233,1,0,0:0:0:0:
182,192,73277,1,0,0:0:0:0:
109,192,73321,1,0,0:0:0:0:
475,192,73321,1,0,0:0:0:0:
36,192,73365,1,0,0:0:0:0:
402,192,73365,1,0,0:0:0:0:
329,192,73410,1,0,0:0:0:0:
256,192,73454,1,0,0:0:0:0:
182,192,73498,1,0,0:0:0:0:
109,192,73542,1,0,0:0:0:0:
36,192,73586,1,0,0:0:0:0:
475,192,73586,1,0,0:0:0:0:
256,192,73586,1,0,0:0:0:0:
402,192,73586,1,0,0:0:0:0:
402,192,73762,1,0,0:0:0:0:
475,192,73762,1,0,0:0:0:0:
256,192,73762,1,0,0:0:0:0:
36,192,73762,1,0,0:0:0:0:
36,192,73939,1,0,0:0:0:0:
256,192,73939,1,0,0:0:0:0:
402,192,73939,1,0,0:0:0:0:
475,192,73939,1,0,0:0:0:0:
36,192,74115,1,0,0:0:0:0:
256,192,74115,1,0,0:0:0:0:
402,192,74115,1,0,0:0:0:0:
475,192,74115,1,0,0:0:0:0:
36,192,74292,1,0,0:0:0:0:
256,192,74292,1,0,0:0:0:0:
402,192,74292,1,0,0:0:0:0:
109,192,74292,1,0,0:0:0:0:
402,192,74468,1,0,0:0:0:0:
256,192,74468,1,0,0:0:0:0:
36,192,74468,1,0,0:0:0:0:
109,192,74468,1,0,0:0:0:0:
36,192,74645,1,0,0:0:0:0:
256,192,74645,1,0,0:0:0:0:
402,192,74645,1,0,0:0:0:0:
109,192,74645,1,0,0:0:0:0:
256,192,74821,1,0,0:0:0:0:
36,192,74821,1,0,0:0:0:0:
402,192,74821,1,0,0:0:0:0:
109,192,74821,1,0,0:0:0:0:
329,192,74998,1,0,0:0:0:0:
402,192,74998,1,0,0:0:0:0:
182,192,74998,1,0,0:0:0:0:
109,192,74998,1,0,0:0:0:0:
109,192,75174,1,0,0:0:0:0:
182,192,75174,1,0,0:0:0:0:
329,192,75174,1,0,0:0:0:0:
402,192,75174,1,0,0:0:0:0:
109,192,75351,1,0,0:0:0:0:
182,192,75351,1,0,0:0:0:0:
329,192,75351,1,0,0:0:0:0:
402,192,75351,1,0,0:0:0:0:
109,192,75527,1,0,0:0:0:0:
182,192,75527,1,0,0:0:0:0:
329,192,75527,1,0,0:0:0:0:
402,192,75527,1,0,0:0:0:0:
36,192,75704,1,0,0:0:0:0:
109,192,75704,1,0,0:0:0:0:
402,192,75704,1,0,0:0:0:0:
475,192,75704,1,0,0:0:0:0:
36,192,75880,1,0,0:0:0:0:
109,192,75880,1,0,0:0:0:0:
402,192,75880,1,0,0:0:0:0:
475,192,75880,1,0,0:0:0:0:
36,192,76057,1,0,0:0:0:0:
109,192,76057,1,0,0:0:0:0:
402,192,76057,1,0,0:0:0:0:
475,192,76057,1,0,0:0:0:0:
36,192,76233,1,0,0:0:0:0:
109,192,76233,1,0,0:0:0:0:
402,192,76233,1,0,0:0:0:0:
475,192,76233,1,0,0:0:0:0:
182,192,76410,1,0,0:0:0:0:
256,192,76410,1,0,0:0:0:0:
329,192,76410,1,0,0:0:0:0:
36,192,76410,1,0,0:0:0:0:
182,192,76586,1,0,0:0:0:0:
256,192,76586,1,0,0:0:0:0:
329,192,76586,1,0,0:0:0:0:
36,192,76586,1,0,0:0:0:0:
182,192,76762,1,0,0:0:0:0:
256,192,76762,1,0,0:0:0:0:
329,192,76762,1,0,0:0:0:0:
36,192,76762,1,0,0:0:0:0:
182,192,76939,1,0,0:0:0:0:
256,192,76939,1,0,0:0:0:0:
329,192,76939,1,0,0:0:0:0:
36,192,76939,1,0,0:0:0:0:
182,192,77115,1,0,0:0:0:0:
256,192,77115,1,0,0:0:0:0:
329,192,77115,1,0,0:0:0:0:
475,192,77115,1,0,0:0:0:0:
182,192,77292,1,0,0:0:0:0:
256,192,77292,1,0,0:0:0:0:
329,192,77292,1,0,0:0:0:0:
475,192,77292,1,0,0:0:0:0:
182,192,77468,1,0,0:0:0:0:
256,192,77468,1,0,0:0:0:0:
329,192,77468,1,0,0:0:0:0:
475,192,77468,1,0,0:0:0:0:
329,192,77645,1,0,0:0:0:0:
256,192,77645,1,0,0:0:0:0:
182,192,77645,1,0,0:0:0:0:
475,192,77645,1,0,0:0:0:0:
182,192,77821,1,0,0:0:0:0:
256,192,77821,1,0,0:0:0:0:
329,192,77821,1,0,0:0:0:0:
109,192,77821,1,0,0:0:0:0:
182,192,77998,1,0,0:0:0:0:
256,192,77998,1,0,0:0:0:0:
329,192,77998,1,0,0:0:0:0:
109,192,77998,1,0,0:0:0:0:
256,192,78174,1,0,0:0:0:0:
182,192,78174,1,0,0:0:0:0:
329,192,78174,1,0,0:0:0:0:
109,192,78174,1,0,0:0:0:0:
182,192,78351,1,0,0:0:0:0:
256,192,78351,1,0,0:0:0:0:
329,192,78351,1,0,0:0:0:0:
109,192,78351,1,0,0:0:0:0:
182,192,78527,1,0,0:0:0:0:
256,192,78527,1,0,0:0:0:0:
329,192,78527,1,0,0:0:0:0:
402,192,78527,1,0,0:0:0:0:
182,192,78704,1,0,0:0:0:0:
256,192,78704,1,0,0:0:0:0:
329,192,78704,1,0,0:0:0:0:
402,192,78704,1,0,0:0:0:0:
182,192,78880,1,0,0:0:0:0:
256,192,78880,1,0,0:0:0:0:
329,192,78880,1,0,0:0:0:0:
402,192,78880,1,0,0:0:0:0:
182,192,79057,1,0,0:0:0:0:
256,192,79057,1,0,0:0:0:0:
329,192,79057,1,0,0:0:0:0:
402,192,79057,1,0,0:0:0:0:
256,192,79233,1,0,0:0:0:0:
402,192,79233,1,0,0:0:0:0:
36,192,79233,1,0,0:0:0:0:
475,192,79233,1,0,0:0:0:0:
256,192,79409,1,0,0:0:0:0:
36,192,79409,1,0,0:0:0:0:
402,192,79409,1,0,0:0:0:0:
475,192,79409,1,0,0:0:0:0:
402,192,79586,1,0,0:0:0:0:
475,192,79586,1,0,0:0:0:0:
36,192,79586,1,0,0:0:0:0:
256,192,79586,1,0,0:0:0:0:
402,192,79762,1,0,0:0:0:0:
475,192,79762,1,0,0:0:0:0:
36,192,79762,1,0,0:0:0:0:
256,192,79762,1,0,0:0:0:0:
402,192,79939,1,0,0:0:0:0:
109,192,79939,1,0,0:0:0:0:
36,192,79939,1,0,0:0:0:0:
256,192,79939,1,0,0:0:0:0:
36,192,80115,1,0,0:0:0:0:
109,192,80115,1,0,0:0:0:0:
402,192,80115,1,0,0:0:0:0:
256,192,80115,1,0,0:0:0:0:
402,192,80292,1,0,0:0:0:0:
109,192,80292,1,0,0:0:0:0:
36,192,80292,1,0,0:0:0:0:
256,192,80292,1,0,0:0:0:0:
402,192,80468,1,0,0:0:0:0:
109,192,80468,1,0,0:0:0:0:
256,192,80468,1,0,0:0:0:0:
36,192,80468,1,0,0:0:0:0:
182,192,80645,1,0,0:0:0:0:
109,192,80645,1,0,0:0:0:0:
329,192,80645,1,0,0:0:0:0:
402,192,80645,1,0,0:0:0:0:
329,192,80821,1,0,0:0:0:0:
402,192,80821,1,0,0:0:0:0:
109,192,80821,1,0,0:0:0:0:
182,192,80821,1,0,0:0:0:0:
329,192,80998,1,0,0:0:0:0:
402,192,80998,1,0,0:0:0:0:
109,192,80998,1,0,0:0:0:0:
182,192,80998,1,0,0:0:0:0:
329,192,81174,1,0,0:0:0:0:
402,192,81174,1,0,0:0:0:0:
109,192,81174,1,0,0:0:0:0:
182,192,81174,1,0,0:0:0:0:
402,192,81351,1,0,0:0:0:0:
475,192,81351,1,0,0:0:0:0:
36,192,81351,1,0,0:0:0:0:
109,192,81351,1,0,0:0:0:0:
402,192,81527,1,0,0:0:0:0:
475,192,81527,1,0,0:0:0:0:
36,192,81527,1,0,0:0:0:0:
109,192,81527,1,0,0:0:0:0:
402,192,81704,1,0,0:0:0:0:
475,192,81704,1,0,0:0:0:0:
36,192,81704,1,0,0:0:0:0:
109,192,81704,1,0,0:0:0:0:
402,192,81880,1,0,0:0:0:0:
475,192,81880,1,0,0:0:0:0:
36,192,81880,1,0,0:0:0:0:
109,192,81880,1,0,0:0:0:0:
329,192,82056,1,0,0:0:0:0:
36,192,82056,1,0,0:0:0:0:
182,192,82056,1,0,0:0:0:0:
256,192,82056,1,0,0:0:0:0:
329,192,82233,1,0,0:0:0:0:
36,192,82233,1,0,0:0:0:0:
182,192,82233,1,0,0:0:0:0:
256,192,82233,1,0,0:0:0:0:
329,192,82409,1,0,0:0:0:0:
36,192,82409,1,0,0:0:0:0:
182,192,82409,1,0,0:0:0:0:
256,192,82409,1,0,0:0:0:0:
329,192,82586,1,0,0:0:0:0:
36,192,82586,1,0,0:0:0:0:
182,192,82586,1,0,0:0:0:0:
256,192,82586,1,0,0:0:0:0:
329,192,82762,1,0,0:0:0:0:
475,192,82762,1,0,0:0:0:0:
182,192,82762,1,0,0:0:0:0:
256,192,82762,1,0,0:0:0:0:
329,192,82939,1,0,0:0:0:0:
475,192,82939,1,0,0:0:0:0:
182,192,82939,1,0,0:0:0:0:
256,192,82939,1,0,0:0:0:0:
329,192,83115,1,0,0:0:0:0:
475,192,83115,1,0,0:0:0:0:
182,192,83115,1,0,0:0:0:0:
256,192,83115,1,0,0:0:0:0:
182,192,83292,1,0,0:0:0:0:
475,192,83292,1,0,0:0:0:0:
329,192,83292,1,0,0:0:0:0:
256,192,83292,1,0,0:0:0:0:
329,192,83468,1,0,0:0:0:0:
109,192,83468,1,0,0:0:0:0:
182,192,83468,1,0,0:0:0:0:
256,192,83468,1,0,0:0:0:0:
329,192,83645,1,0,0:0:0:0:
109,192,83645,1,0,0:0:0:0:
182,192,83645,1,0,0:0:0:0:
256,192,83645,1,0,0:0:0:0:
329,192,83821,1,0,0:0:0:0:
109,192,83821,1,0,0:0:0:0:
256,192,83821,1,0,0:0:0:0:
182,192,83821,1,0,0:0:0:0:
329,192,83998,1,0,0:0:0:0:
109,192,83998,1,0,0:0:0:0:
182,192,83998,1,0,0:0:0:0:
256,192,83998,1,0,0:0:0:0:
329,192,84174,1,0,0:0:0:0:
402,192,84174,1,0,0:0:0:0:
182,192,84174,1,0,0:0:0:0:
256,192,84174,1,0,0:0:0:0:
329,192,84351,1,0,0:0:0:0:
402,192,84351,1,0,0:0:0:0:
182,192,84351,1,0,0:0:0:0:
256,192,84351,1,0,0:0:0:0:
329,192,84527,1,0,0:0:0:0:
402,192,84527,1,0,0:0:0:0:
182,192,84527,1,0,0:0:0:0:
256,192,84527,1,0,0:0:0:0:
329,192,84703,1,0,0:0:0:0:
402,192,84703,1,0,0:0:0:0:
182,192,84703,1,0,0:0:0:0:
256,192,84703,1,0,0:0:0:0:
36,192,84880,128,0,84968:0:0:0:0:
109,192,84880,128,0,84968:0:0:0:0:
182,192,84880,128,0,84968:0:0:0:0:
256,192,84880,128,0,84968:0:0:0:0:
329,192,84880,128,0,84968:0:0:0:0:
36,192,85056,128,0,85145:0:0:0:0:
109,192,85056,128,0,85145:0:0:0:0:
182,192,85056,128,0,85145:0:0:0:0:
256,192,85056,128,0,85145:0:0:0:0:
329,192,85056,128,0,85145:0:0:0:0:
256,192,85233,128,0,85321:0:0:0:0:
329,192,85233,128,0,85321:0:0:0:0:
182,192,85233,128,0,85321:0:0:0:0:
36,192,85233,128,0,85321:0:0:0:0:
109,192,85233,128,0,85321:0:0:0:0:
36,192,85409,128,0,85498:0:0:0:0:
109,192,85409,128,0,85498:0:0:0:0:
182,192,85409,128,0,85498:0:0:0:0:
256,192,85409,128,0,85498:0:0:0:0:
329,192,85409,128,0,85498:0:0:0:0:
182,192,85586,128,0,85674:0:0:0:0:
256,192,85586,128,0,85674:0:0:0:0:
109,192,85586,128,0,85674:0:0:0:0:
36,192,85586,128,0,85674:0:0:0:0:
329,192,85586,128,0,85674:0:0:0:0:
109,192,85762,128,0,85851:0:0:0:0:
256,192,85762,128,0,85851:0:0:0:0:
329,192,85762,128,0,85851:0:0:0:0:
36,192,85762,128,0,85851:0:0:0:0:
182,192,85762,128,0,85851:0:0:0:0:
182,192,85939,128,0,86027:0:0:0:0:
402,192,85939,128,0,86027:0:0:0:0:
256,192,85939,128,0,86027:0:0:0:0:
329,192,85939,128,0,86027:0:0:0:0:
475,192,85939,128,0,86027:0:0:0:0:
182,192,86115,128,0,86203:0:0:0:0:
329,192,86115,128,0,86203:0:0:0:0:
256,192,86115,128,0,86203:0:0:0:0:
475,192,86115,128,0,86203:0:0:0:0:
402,192,86115,128,0,86203:0:0:0:0:
36,192,86292,128,0,86380:0:0:0:0:
109,192,86292,128,0,86380:0:0:0:0:
256,192,86292,128,0,86380:0:0:0:0:
402,192,86292,128,0,86380:0:0:0:0:
475,192,86292,128,0,86380:0:0:0:0:
36,192,86468,128,0,86556:0:0:0:0:
256,192,86468,128,0,86556:0:0:0:0:
402,192,86468,128,0,86556:0:0:0:0:
475,192,86468,128,0,86556:0:0:0:0:
109,192,86468,128,0,86556:0:0:0:0:
475,192,86645,128,0,86733:0:0:0:0:
109,192,86645,128,0,86733:0:0:0:0:
402,192,86645,128,0,86733:0:0:0:0:
36,192,86645,128,0,86733:0:0:0:0:
256,192,86645,128,0,86733:0:0:0:0:
36,192,86821,128,0,86909:0:0:0:0:
256,192,86821,128,0,86909:0:0:0:0:
402,192,86821,128,0,86909:0:0:0:0:
475,192,86821,128,0,86909:0:0:0:0:
109,192,86821,128,0,86909:0:0:0:0:
329,192,86998,128,0,87086:0:0:0:0:
109,192,86998,128,0,87086:0:0:0:0:
402,192,86998,128,0,87086:0:0:0:0:
182,192,86998,128,0,87086:0:0:0:0:
256,192,86998,128,0,87086:0:0:0:0:
256,192,87174,128,0,87262:0:0:0:0:
402,192,87174,128,0,87262:0:0:0:0:
182,192,87174,128,0,87262:0:0:0:0:
329,192,87174,128,0,87262:0:0:0:0:
109,192,87174,128,0,87262:0:0:0:0:
329,192,87351,128,0,87439:0:0:0:0:
109,192,87351,128,0,87439:0:0:0:0:
182,192,87351,128,0,87439:0:0:0:0:
256,192,87351,128,0,87439:0:0:0:0:
402,192,87351,128,0,87439:0:0:0:0:
256,192,87527,128,0,87615:0:0:0:0:
402,192,87527,128,0,87615:0:0:0:0:
182,192,87527,128,0,87615:0:0:0:0:
329,192,87527,128,0,87615:0:0:0:0:
109,192,87527,128,0,87615:0:0:0:0:
182,192,87703,1,0,0:0:0:0:
36,192,87703,1,0,0:0:0:0:
329,192,87792,1,0,0:0:0:0:
475,192,87792,1,0,0:0:0:0:
256,192,87792,1,0,0:0:0:0:
36,192,87880,1,0,0:0:0:0:
182,192,87880,1,0,0:0:0:0:
329,192,87968,1,0,0:0:0:0:
475,192,87968,1,0,0:0:0:0:
256,192,87968,1,0,0:0:0:0:
36,192,88056,1,0,0:0:0:0:
182,192,88056,1,0,0:0:0:0:
329,192,88145,1,0,0:0:0:0:
475,192,88145,1,0,0:0:0:0:
256,192,88145,1,0,0:0:0:0:
36,192,88233,1,0,0:0:0:0:
182,192,88233,1,0,0:0:0:0:
329,192,88321,1,0,0:0:0:0:
475,192,88321,1,0,0:0:0:0:
256,192,88321,1,0,0:0:0:0:
36,192,88409,1,0,0:0:0:0:
182,192,88409,1,0,0:0:0:0:
329,192,88498,1,0,0:0:0:0:
475,192,88498,1,0,0:0:0:0:
256,192,88498,1,0,0:0:0:0:
36,192,88586,1,0,0:0:0:0:
182,192,88586,1,0,0:0:0:0:
329,192,88674,1,0,0:0:0:0:
475,192,88674,1,0,0:0:0:0:
256,192,88674,1,0,0:0:0:0:
36,192,88762,1,0,0:0:0:0:
182,192,88762,1,0,0:0:0:0:
329,192,88850,1,0,0:0:0:0:
475,192,88850,1,0,0:0:0:0:
256,192,88850,1,0,0:0:0:0:
36,192,88939,1,0,0:0:0:0:
182,192,88939,1,0,0:0:0:0:
475,192,89027,1,0,0:0:0:0:
329,192,89027,1,0,0:0:0:0:
256,192,89027,1,0,0:0:0:0:
329,192,89115,1,0,0:0:0:0:
475,192,89115,1,0,0:0:0:0:
182,192,89203,1,0,0:0:0:0:
36,192,89203,1,0,0:0:0:0:
256,192,89203,1,0,0:0:0:0:
329,192,89292,1,0,0:0:0:0:
475,192,89292,1,0,0:0:0:0:
182,192,89380,1,0,0:0:0:0:
36,192,89380,1,0,0:0:0:0:
256,192,89380,1,0,0:0:0:0:
475,192,89468,1,0,0:0:0:0:
329,192,89468,1,0,0:0:0:0:
182,192,89556,1,0,0:0:0:0:
36,192,89556,1,0,0:0:0:0:
256,192,89556,1,0,0:0:0:0:
329,192,89645,1,0,0:0:0:0:
475,192,89645,1,0,0:0:0:0:
182,192,89733,1,0,0:0:0:0:
36,192,89733,1,0,0:0:0:0:
256,192,89733,1,0,0:0:0:0:
329,192,89821,1,0,0:0:0:0:
475,192,89821,1,0,0:0:0:0:
182,192,89909,1,0,0:0:0:0:
36,192,89909,1,0,0:0:0:0:
256,192,89909,1,0,0:0:0:0:
329,192,89998,1,0,0:0:0:0:
475,192,89998,1,0,0:0:0:0:
182,192,90086,1,0,0:0:0:0:
36,192,90086,1,0,0:0:0:0:
256,192,90086,1,0,0:0:0:0:
329,192,90174,1,0,0:0:0:0:
475,192,90174,1,0,0:0:0:0:
182,192,90262,1,0,0:0:0:0:
36,192,90262,1,0,0:0:0:0:
256,192,90262,1,0,0:0:0:0:
329,192,90350,1,0,0:0:0:0:
475,192,90350,1,0,0:0:0:0:
182,192,90439,1,0,0:0:0:0:
36,192,90439,1,0,0:0:0:0:
256,192,90439,1,0,0:0:0:0:
256,192,90527,128,0,90615:0:0:0:0:
329,192,90527,128,0,90615:0:0:0:0:
182,192,90527,128,0,90615:0:0:0:0:
36,192,90527,128,0,90615:0:0:0:0:
109,192,90527,128,0,90615:0:0:0:0:
256,192,90703,128,0,90792:0:0:0:0:
329,192,90703,128,0,90792:0:0:0:0:
182,192,90703,128,0,90792:0:0:0:0:
36,192,90703,128,0,90792:0:0:0:0:
109,192,90703,128,0,90792:0:0:0:0:
36,192,90880,128,0,90968:0:0:0:0:
109,192,90880,128,0,90968:0:0:0:0:
182,192,90880,128,0,90968:0:0:0:0:
256,192,90880,128,0,90968:0:0:0:0:
329,192,90880,128,0,90968:0:0:0:0:
256,192,91056,128,0,91145:0:0:0:0:
329,192,91056,128,0,91145:0:0:0:0:
182,192,91056,128,0,91145:0:0:0:0:
36,192,91056,128,0,91145:0:0:0:0:
109,192,91056,128,0,91145:0:0:0:0:
36,192,91233,128,0,91321:0:0:0:0:
329,192,91233,128,0,91321:0:0:0:0:
109,192,91233,128,0,91321:0:0:0:0:
182,192,91233,128,0,91321:0:0:0:0:
256,192,91233,128,0,91321:0:0:0:0:
36,192,91409,128,0,91497:0:0:0:0:
182,192,91409,128,0,91497:0:0:0:0:
329,192,91409,128,0,91497:0:0:0:0:
109,192,91409,128,0,91497:0:0:0:0:
256,192,91409,128,0,91497:0:0:0:0:
329,192,91586,128,0,91674:0:0:0:0:
475,192,91586,128,0,91674:0:0:0:0:
256,192,91586,128,0,91674:0:0:0:0:
182,192,91586,128,0,91674:0:0:0:0:
402,192,91586,128,0,91674:0:0:0:0:
475,192,91762,128,0,91850:0:0:0:0:
402,192,91762,128,0,91850:0:0:0:0:
256,192,91762,128,0,91850:0:0:0:0:
182,192,91762,128,0,91850:0:0:0:0:
329,192,91762,128,0,91850:0:0:0:0:
402,192,91939,128,0,92027:0:0:0:0:
475,192,91939,128,0,92027:0:0:0:0:
256,192,91939,128,0,92027:0:0:0:0:
36,192,91939,128,0,92027:0:0:0:0:
109,192,91939,128,0,92027:0:0:0:0:
475,192,92115,128,0,92203:0:0:0:0:
109,192,92115,128,0,92203:0:0:0:0:
402,192,92115,128,0,92203:0:0:0:0:
36,192,92115,128,0,92203:0:0:0:0:
256,192,92115,128,0,92203:0:0:0:0:
36,192,92292,128,0,92380:0:0:0:0:
256,192,92292,128,0,92380:0:0:0:0:
402,192,92292,128,0,92380:0:0:0:0:
475,192,92292,128,0,92380:0:0:0:0:
109,192,92292,128,0,92380:0:0:0:0:
475,192,92468,128,0,92556:0:0:0:0:
109,192,92468,128,0,92556:0:0:0:0:
402,192,92468,128,0,92556:0:0:0:0:
36,192,92468,128,0,92556:0:0:0:0:
256,192,92468,128,0,92556:0:0:0:0:
182,192,92645,128,0,92733:0:0:0:0:
256,192,92645,128,0,92733:0:0:0:0:
402,192,92645,128,0,92733:0:0:0:0:
329,192,92645,128,0,92733:0:0:0:0:
109,192,92645,128,0,92733:0:0:0:0:
329,192,92821,128,0,92909:0:0:0:0:
109,192,92821,128,0,92909:0:0:0:0:
182,192,92821,128,0,92909:0:0:0:0:
256,192,92821,128,0,92909:0:0:0:0:
402,192,92821,128,0,92909:0:0:0:0:
256,192,92997,128,0,93086:0:0:0:0:
402,192,92997,128,0,93086:0:0:0:0:
182,192,92997,128,0,93086:0:0:0:0:
329,192,92997,128,0,93086:0:0:0:0:
109,192,92997,128,0,93086:0:0:0:0:
329,192,93174,128,0,93262:0:0:0:0:
109,192,93174,128,0,93262:0:0:0:0:
182,192,93174,128,0,93262:0:0:0:0:
256,192,93174,128,0,93262:0:0:0:0:
402,192,93174,128,0,93262:0:0:0:0:
36,192,93350,1,0,0:0:0:0:
109,192,93350,1,0,0:0:0:0:
475,192,93350,1,0,0:0:0:0:
402,192,93350,1,0,0:0:0:0:
182,192,93439,1,0,0:0:0:0:
256,192,93439,1,0,0:0:0:0:
329,192,93439,1,0,0:0:0:0:
36,192,93527,1,0,0:0:0:0:
109,192,93527,1,0,0:0:0:0:
402,192,93527,1,0,0:0:0:0:
475,192,93527,1,0,0:0:0:0:
182,192,93615,1,0,0:0:0:0:
256,192,93615,1,0,0:0:0:0:
329,192,93615,1,0,0:0:0:0:
36,192,93703,1,0,0:0:0:0:
475,192,93703,1,0,0:0:0:0:
109,192,93703,1,0,0:0:0:0:
402,192,93703,1,0,0:0:0:0:
182,192,93792,1,0,0:0:0:0:
329,192,93792,1,0,0:0:0:0:
256,192,93792,1,0,0:0:0:0:
36,192,93880,1,0,0:0:0:0:
402,192,93880,1,0,0:0:0:0:
109,192,93880,1,0,0:0:0:0:
475,192,93880,1,0,0:0:0:0:
329,192,93968,1,0,0:0:0:0:
182,192,93968,1,0,0:0:0:0:
256,192,93968,1,0,0:0:0:0:
109,192,94056,1,0,0:0:0:0:
402,192,94056,1,0,0:0:0:0:
36,192,94056,1,0,0:0:0:0:
475,192,94056,1,0,0:0:0:0:
256,192,94145,1,0,0:0:0:0:
329,192,94145,1,0,0:0:0:0:
182,192,94145,1,0,0:0:0:0:
109,192,94233,1,0,0:0:0:0:
475,192,94233,1,0,0:0:0:0:
36,192,94233,1,0,0:0:0:0:
402,192,94233,1,0,0:0:0:0:
256,192,94321,1,0,0:0:0:0:
182,192,94321,1,0,0:0:0:0:
329,192,94321,1,0,0:0:0:0:
36,192,94409,1,0,0:0:0:0:
475,192,94409,1,0,0:0:0:0:
109,192,94409,1,0,0:0:0:0:
402,192,94409,1,0,0:0:0:0:
182,192,94497,1,0,0:0:0:0:
329,192,94497,1,0,0:0:0:0:
256,192,94497,1,0,0:0:0:0:
36,192,94586,1,0,0:0:0:0:
402,192,94586,1,0,0:0:0:0:
109,192,94586,1,0,0:0:0:0:
475,192,94586,1,0,0:0:0:0:
329,192,94674,1,0,0:0:0:0:
182,192,94674,1,0,0:0:0:0:
256,192,94674,1,0,0:0:0:0:
182,192,94762,1,0,0:0:0:0:
256,192,94762,1,0,0:0:0:0:
329,192,94762,1,0,0:0:0:0:
109,192,94850,1,0,0:0:0:0:
402,192,94850,1,0,0:0:0:0:
36,192,94850,1,0,0:0:0:0:
475,192,94850,1,0,0:0:0:0:
256,192,94939,1,0,0:0:0:0:
329,192,94939,1,0,0:0:0:0:
182,192,94939,1,0,0:0:0:0:
109,192,95027,1,0,0:0:0:0:
475,192,95027,1,0,0:0:0:0:
36,192,95027,1,0,0:0:0:0:
402,192,95027,1,0,0:0:0:0:
256,192,95115,1,0,0:0:0:0:
182,192,95115,1,0,0:0:0:0:
329,192,95115,1,0,0:0:0:0:
36,192,95203,1,0,0:0:0:0:
475,192,95203,1,0,0:0:0:0:
109,192,95203,1,0,0:0:0:0:
402,192,95203,1,0,0:0:0:0:
182,192,95292,1,0,0:0:0:0:
329,192,95292,1,0,0:0:0:0:
256,192,95292,1,0,0:0:0:0:
36,192,95380,1,0,0:0:0:0:
402,192,95380,1,0,0:0:0:0:
109,192,95380,1,0,0:0:0:0:
475,192,95380,1,0,0:0:0:0:
329,192,95468,1,0,0:0:0:0:
182,192,95468,1,0,0:0:0:0:
256,192,95468,1,0,0:0:0:0:
109,192,95556,1,0,0:0:0:0:
402,192,95556,1,0,0:0:0:0:
36,192,95556,1,0,0:0:0:0:
475,192,95556,1,0,0:0:0:0:
256,192,95644,1,0,0:0:0:0:
329,192,95644,1,0,0:0:0:0:
182,192,95644,1,0,0:0:0:0:
109,192,95733,1,0,0:0:0:0:
475,192,95733,1,0,0:0:0:0:
36,192,95733,1,0,0:0:0:0:
402,192,95733,1,0,0:0:0:0:
256,192,95821,1,0,0:0:0:0:
182,192,95821,1,0,0:0:0:0:
329,192,95821,1,0,0:0:0:0:
36,192,95909,1,0,0:0:0:0:
475,192,95909,1,0,0:0:0:0:
109,192,95909,1,0,0:0:0:0:
402,192,95909,1,0,0:0:0:0:
182,192,95997,1,0,0:0:0:0:
329,192,95997,1,0,0:0:0:0:
256,192,95997,1,0,0:0:0:0:
36,192,96086,1,0,0:0:0:0:
402,192,96086,1,0,0:0:0:0:
109,192,96086,1,0,0:0:0:0:
475,192,96086,1,0,0:0:0:0:
256,192,96174,128,0,96262:0:0:0:0:
329,192,96174,128,0,96262:0:0:0:0:
182,192,96174,128,0,96262:0:0:0:0:
36,192,96174,128,0,96262:0:0:0:0:
109,192,96174,128,0,96262:0:0:0:0:
256,192,96350,128,0,96439:0:0:0:0:
329,192,96350,128,0,96439:0:0:0:0:
182,192,96350,128,0,96439:0:0:0:0:
36,192,96350,128,0,96439:0:0:0:0:
109,192,96350,128,0,96439:0:0:0:0:
36,192,96527,128,0,96615:0:0:0:0:
109,192,96527,128,0,96615:0:0:0:0:
182,192,96527,128,0,96615:0:0:0:0:
256,192,96527,128,0,96615:0:0:0:0:
329,192,96527,128,0,96615:0:0:0:0:
256,192,96703,128,0,96792:0:0:0:0:
329,192,96703,128,0,96792:0:0:0:0:
182,192,96703,128,0,96792:0:0:0:0:
36,192,96703,128,0,96792:0:0:0:0:
109,192,96703,128,0,96792:0:0:0:0:
36,192,96880,128,0,96968:0:0:0:0:
329,192,96880,128,0,96968:0:0:0:0:
109,192,96880,128,0,96968:0:0:0:0:
182,192,96880,128,0,96968:0:0:0:0:
256,192,96880,128,0,96968:0:0:0:0:
36,192,97056,128,0,97144:0:0:0:0:
182,192,97056,128,0,97144:0:0:0:0:
329,192,97056,128,0,97144:0:0:0:0:
109,192,97056,128,0,97144:0:0:0:0:
256,192,97056,128,0,97144:0:0:0:0:
329,192,97233,128,0,97321:0:0:0:0:
475,192,97233,128,0,97321:0:0:0:0:
256,192,97233,128,0,97321:0:0:0:0:
182,192,97233,128,0,97321:0:0:0:0:
402,192,97233,128,0,97321:0:0:0:0:
475,192,97409,128,0,97497:0:0:0:0:
402,192,97409,128,0,97497:0:0:0:0:
256,192,97409,128,0,97497:0:0:0:0:
182,192,97409,128,0,97497:0:0:0:0:
329,192,97409,128,0,97497:0:0:0:0:
402,192,97586,128,0,97674:0:0:0:0:
475,192,97586,128,0,97674:0:0:0:0:
256,192,97586,128,0,97674:0:0:0:0:
36,192,97586,128,0,97674:0:0:0:0:
109,192,97586,128,0,97674:0:0:0:0:
475,192,97762,128,0,97850:0:0:0:0:
109,192,97762,128,0,97850:0:0:0:0:
402,192,97762,128,0,97850:0:0:0:0:
36,192,97762,128,0,97850:0:0:0:0:
256,192,97762,128,0,97850:0:0:0:0:
36,192,97939,128,0,98027:0:0:0:0:
256,192,97939,128,0,98027:0:0:0:0:
402,192,97939,128,0,98027:0:0:0:0:
475,192,97939,128,0,98027:0:0:0:0:
109,192,97939,128,0,98027:0:0:0:0:
475,192,98115,128,0,98203:0:0:0:0:
109,192,98115,128,0,98203:0:0:0:0:
402,192,98115,128,0,98203:0:0:0:0:
36,192,98115,128,0,98203:0:0:0:0:
256,192,98115,128,0,98203:0:0:0:0:
182,192,98291,128,0,98380:0:0:0:0:
256,192,98291,128,0,98380:0:0:0:0:
402,192,98291,128,0,98380:0:0:0:0:
329,192,98291,128,0,98380:0:0:0:0:
109,192,98291,128,0,98380:0:0:0:0:
329,192,98468,128,0,98556:0:0:0:0:
109,192,98468,128,0,98556:0:0:0:0:
182,192,98468,128,0,98556:0:0:0:0:
256,192,98468,128,0,98556:0:0:0:0:
402,192,98468,128,0,98556:0:0:0:0:
256,192,98644,128,0,98733:0:0:0:0:
402,192,98644,128,0,98733:0:0:0:0:
182,192,98644,128,0,98733:0:0:0:0:
329,192,98644,128,0,98733:0:0:0:0:
109,192,98644,128,0,98733:0:0:0:0:
329,192,98821,128,0,98909:0:0:0:0:
109,192,98821,128,0,98909:0:0:0:0:
182,192,98821,128,0,98909:0:0:0:0:
256,192,98821,128,0,98909:0:0:0:0:
402,192,98821,128,0,98909:0:0:0:0:
36,192,98997,1,0,0:0:0:0:
182,192,98997,1,0,0:0:0:0:
256,192,99086,1,0,0:0:0:0:
475,192,99086,1,0,0:0:0:0:
329,192,99086,1,0,0:0:0:0:
182,192,99174,1,0,0:0:0:0:
36,192,99174,1,0,0:0:0:0:
256,192,99262,1,0,0:0:0:0:
475,192,99262,1,0,0:0:0:0:
329,192,99262,1,0,0:0:0:0:
182,192,99350,1,0,0:0:0:0:
36,192,99350,1,0,0:0:0:0:
256,192,99439,1,0,0:0:0:0:
475,192,99439,1,0,0:0:0:0:
329,192,99439,1,0,0:0:0:0:
182,192,99527,1,0,0:0:0:0:
36,192,99527,1,0,0:0:0:0:
256,192,99615,1,0,0:0:0:0:
475,192,99615,1,0,0:0:0:0:
329,192,99615,1,0,0:0:0:0:
182,192,99703,1,0,0:0:0:0:
36,192,99703,1,0,0:0:0:0:
256,192,99791,1,0,0:0:0:0:
475,192,99791,1,0,0:0:0:0:
329,192,99791,1,0,0:0:0:0:
182,192,99880,1,0,0:0:0:0:
36,192,99880,1,0,0:0:0:0:
256,192,99968,1,0,0:0:0:0:
475,192,99968,1,0,0:0:0:0:
329,192,99968,1,0,0:0:0:0:
182,192,100056,1,0,0:0:0:0:
36,192,100056,1,0,0:0:0:0:
256,192,100144,1,0,0:0:0:0:
475,192,100144,1,0,0:0:0:0:
329,192,100144,1,0,0:0:0:0:
182,192,100233,1,0,0:0:0:0:
36,192,100233,1,0,0:0:0:0:
256,192,100321,1,0,0:0:0:0:
329,192,100321,1,0,0:0:0:0:
475,192,100321,1,0,0:0:0:0:
475,192,100409,1,0,0:0:0:0:
329,192,100409,1,0,0:0:0:0:
256,192,100497,1,0,0:0:0:0:
36,192,100497,1,0,0:0:0:0:
182,192,100497,1,0,0:0:0:0:
475,192,100586,1,0,0:0:0:0:
329,192,100586,1,0,0:0:0:0:
256,192,100674,1,0,0:0:0:0:
36,192,100674,1,0,0:0:0:0:
182,192,100674,1,0,0:0:0:0:
329,192,100762,1,0,0:0:0:0:
475,192,100762,1,0,0:0:0:0:
256,192,100850,1,0,0:0:0:0:
36,192,100850,1,0,0:0:0:0:
182,192,100850,1,0,0:0:0:0:
475,192,100939,1,0,0:0:0:0:
329,192,100939,1,0,0:0:0:0:
256,192,101027,1,0,0:0:0:0:
36,192,101027,1,0,0:0:0:0:
182,192,101027,1,0,0:0:0:0:
475,192,101115,1,0,0:0:0:0:
329,192,101115,1,0,0:0:0:0:
256,192,101203,1,0,0:0:0:0:
36,192,101203,1,0,0:0:0:0:
182,192,101203,1,0,0:0:0:0:
475,192,101291,1,0,0:0:0:0:
329,192,101291,1,0,0:0:0:0:
256,192,101380,1,0,0:0:0:0:
36,192,101380,1,0,0:0:0:0:
182,192,101380,1,0,0:0:0:0:
475,192,101468,1,0,0:0:0:0:
329,192,101468,1,0,0:0:0:0:
256,192,101556,1,0,0:0:0:0:
36,192,101556,1,0,0:0:0:0:
182,192,101556,1,0,0:0:0:0:
475,192,101644,1,0,0:0:0:0:
329,192,101644,1,0,0:0:0:0:
256,192,101733,1,0,0:0:0:0:
36,192,101733,1,0,0:0:0:0:
182,192,101733,1,0,0:0:0:0:
36,192,101821,128,0,101909:0:0:0:0:
109,192,101821,128,0,101909:0:0:0:0:
182,192,101821,128,0,101909:0:0:0:0:
256,192,101821,128,0,101909:0:0:0:0:
329,192,101821,128,0,101909:0:0:0:0:
36,192,101997,128,0,102086:0:0:0:0:
109,192,101997,128,0,102086:0:0:0:0:
182,192,101997,128,0,102086:0:0:0:0:
256,192,101997,128,0,102086:0:0:0:0:
329,192,101997,128,0,102086:0:0:0:0:
256,192,102174,128,0,102262:0:0:0:0:
329,192,102174,128,0,102262:0:0:0:0:
182,192,102174,128,0,102262:0:0:0:0:
36,192,102174,128,0,102262:0:0:0:0:
109,192,102174,128,0,102262:0:0:0:0:
36,192,102350,128,0,102438:0:0:0:0:
109,192,102350,128,0,102438:0:0:0:0:
182,192,102350,128,0,102438:0:0:0:0:
256,192,102350,128,0,102438:0:0:0:0:
329,192,102350,128,0,102438:0:0:0:0:
182,192,102527,128,0,102615:0:0:0:0:
256,192,102527,128,0,102615:0:0:0:0:
109,192,102527,128,0,102615:0:0:0:0:
36,192,102527,128,0,102615:0:0:0:0:
329,192,102527,128,0,102615:0:0:0:0:
109,192,102703,128,0,102791:0:0:0:0:
256,192,102703,128,0,102791:0:0:0:0:
329,192,102703,128,0,102791:0:0:0:0:
36,192,102703,128,0,102791:0:0:0:0:
182,192,102703,128,0,102791:0:0:0:0:
182,192,102880,128,0,102968:0:0:0:0:
402,192,102880,128,0,102968:0:0:0:0:
256,192,102880,128,0,102968:0:0:0:0:
329,192,102880,128,0,102968:0:0:0:0:
475,192,102880,128,0,102968:0:0:0:0:
182,192,103056,128,0,103144:0:0:0:0:
329,192,103056,128,0,103144:0:0:0:0:
256,192,103056,128,0,103144:0:0:0:0:
475,192,103056,128,0,103144:0:0:0:0:
402,192,103056,128,0,103144:0:0:0:0:
36,192,103233,128,0,103321:0:0:0:0:
109,192,103233,128,0,103321:0:0:0:0:
256,192,103233,128,0,103321:0:0:0:0:
402,192,103233,128,0,103321:0:0:0:0:
475,192,103233,128,0,103321:0:0:0:0:
36,192,103409,128,0,103497:0:0:0:0:
256,192,103409,128,0,103497:0:0:0:0:
402,192,103409,128,0,103497:0:0:0:0:
475,192,103409,128,0,103497:0:0:0:0:
109,192,103409,128,0,103497:0:0:0:0:
475,192,103586,128,0,103674:0:0:0:0:
109,192,103586,128,0,103674:0:0:0:0:
402,192,103586,128,0,103674:0:0:0:0:
36,192,103586,128,0,103674:0:0:0:0:
256,192,103586,128,0,103674:0:0:0:0:
36,192,103762,128,0,103850:0:0:0:0:
256,192,103762,128,0,103850:0:0:0:0:
402,192,103762,128,0,103850:0:0:0:0:
475,192,103762,128,0,103850:0:0:0:0:
109,192,103762,128,0,103850:0:0:0:0:
329,192,103938,128,0,104027:0:0:0:0:
109,192,103938,128,0,104027:0:0:0:0:
402,192,103938,128,0,104027:0:0:0:0:
182,192,103938,128,0,104027:0:0:0:0:
256,192,103938,128,0,104027:0:0:0:0:
256,192,104115,128,0,104203:0:0:0:0:
402,192,104115,128,0,104203:0:0:0:0:
182,192,104115,128,0,104203:0:0:0:0:
329,192,104115,128,0,104203:0:0:0:0:
109,192,104115,128,0,104203:0:0:0:0:
329,192,104291,128,0,104380:0:0:0:0:
109,192,104291,128,0,104380:0:0:0:0:
182,192,104291,128,0,104380:0:0:0:0:
256,192,104291,128,0,104380:0:0:0:0:
402,192,104291,128,0,104380:0:0:0:0:
256,192,104468,128,0,104556:0:0:0:0:
402,192,104468,128,0,104556:0:0:0:0:
182,192,104468,128,0,104556:0:0:0:0:
329,192,104468,128,0,104556:0:0:0:0:
109,192,104468,128,0,104556:0:0:0:0:
475,192,104644,1,0,0:0:0:0:
402,192,104644,1,0,0:0:0:0:
36,192,104644,1,0,0:0:0:0:
109,192,104644,1,0,0:0:0:0:
329,192,104733,1,0,0:0:0:0:
256,192,104733,1,0,0:0:0:0:
182,192,104733,1,0,0:0:0:0:
402,192,104821,1,0,0:0:0:0:
475,192,104821,1,0,0:0:0:0:
36,192,104821,1,0,0:0:0:0:
109,192,104821,1,0,0:0:0:0:
329,192,104909,1,0,0:0:0:0:
256,192,104909,1,0,0:0:0:0:
182,192,104909,1,0,0:0:0:0:
109,192,104997,1,0,0:0:0:0:
402,192,104997,1,0,0:0:0:0:
36,192,104997,1,0,0:0:0:0:
475,192,104997,1,0,0:0:0:0:
256,192,105086,1,0,0:0:0:0:
329,192,105086,1,0,0:0:0:0:
182,192,105086,1,0,0:0:0:0:
109,192,105174,1,0,0:0:0:0:
475,192,105174,1,0,0:0:0:0:
36,192,105174,1,0,0:0:0:0:
402,192,105174,1,0,0:0:0:0:
256,192,105262,1,0,0:0:0:0:
182,192,105262,1,0,0:0:0:0:
329,192,105262,1,0,0:0:0:0:
36,192,105350,1,0,0:0:0:0:
475,192,105350,1,0,0:0:0:0:
109,192,105350,1,0,0:0:0:0:
402,192,105350,1,0,0:0:0:0:
182,192,105438,1,0,0:0:0:0:
329,192,105438,1,0,0:0:0:0:
256,192,105438,1,0,0:0:0:0:
36,192,105527,1,0,0:0:0:0:
402,192,105527,1,0,0:0:0:0:
109,192,105527,1,0,0:0:0:0:
475,192,105527,1,0,0:0:0:0:
329,192,105615,1,0,0:0:0:0:
182,192,105615,1,0,0:0:0:0:
256,192,105615,1,0,0:0:0:0:
109,192,105703,1,0,0:0:0:0:
402,192,105703,1,0,0:0:0:0:
36,192,105703,1,0,0:0:0:0:
475,192,105703,1,0,0:0:0:0:
256,192,105791,1,0,0:0:0:0:
329,192,105791,1,0,0:0:0:0:
182,192,105791,1,0,0:0:0:0:
109,192,105880,1,0,0:0:0:0:
475,192,105880,1,0,0:0:0:0:
36,192,105880,1,0,0:0:0:0:
402,192,105880,1,0,0:0:0:0:
256,192,105968,1,0,0:0:0:0:
182,192,105968,1,0,0:0:0:0:
329,192,105968,1,0,0:0:0:0:
329,192,106056,1,0,0:0:0:0:
256,192,106056,1,0,0:0:0:0:
182,192,106056,1,0,0:0:0:0:
36,192,106144,1,0,0:0:0:0:
475,192,106144,1,0,0:0:0:0:
109,192,106144,1,0,0:0:0:0:
402,192,106144,1,0,0:0:0:0:
182,192,106233,1,0,0:0:0:0:
329,192,106233,1,0,0:0:0:0:
256,192,106233,1,0,0:0:0:0:
36,192,106321,1,0,0:0:0:0:
402,192,106321,1,0,0:0:0:0:
109,192,106321,1,0,0:0:0:0:
475,192,106321,1,0,0:0:0:0:
329,192,106409,1,0,0:0:0:0:
182,192,106409,1,0,0:0:0:0:
256,192,106409,1,0,0:0:0:0:
109,192,106497,1,0,0:0:0:0:
402,192,106497,1,0,0:0:0:0:
36,192,106497,1,0,0:0:0:0:
475,192,106497,1,0,0:0:0:0:
256,192,106585,1,0,0:0:0:0:
329,192,106585,1,0,0:0:0:0:
182,192,106585,1,0,0:0:0:0:
109,192,106674,1,0,0:0:0:0:
475,192,106674,1,0,0:0:0:0:
36,192,106674,1,0,0:0:0:0:
402,192,106674,1,0,0:0:0:0:
256,192,106762,1,0,0:0:0:0:
182,192,106762,1,0,0:0:0:0:
329,192,106762,1,0,0:0:0:0:
36,192,106850,1,0,0:0:0:0:
475,192,106850,1,0,0:0:0:0:
109,192,106850,1,0,0:0:0:0:
402,192,106850,1,0,0:0:0:0:
182,192,106938,1,0,0:0:0:0:
329,192,106938,1,0,0:0:0:0:
256,192,106938,1,0,0:0:0:0:
36,192,107027,1,0,0:0:0:0:
402,192,107027,1,0,0:0:0:0:
109,192,107027,1,0,0:0:0:0:
475,192,107027,1,0,0:0:0:0:
329,192,107115,1,0,0:0:0:0:
182,192,107115,1,0,0:0:0:0:
256,192,107115,1,0,0:0:0:0:
109,192,107203,1,0,0:0:0:0:
402,192,107203,1,0,0:0:0:0:
36,192,107203,1,0,0:0:0:0:
475,192,107203,1,0,0:0:0:0:
256,192,107291,1,0,0:0:0:0:
329,192,107291,1,0,0:0:0:0:
182,192,107291,1,0,0:0:0:0:
109,192,107380,1,0,0:0:0:0:
475,192,107380,1,0,0:0:0:0:
36,192,107380,1,0,0:0:0:0:
402,192,107380,1,0,0:0:0:0:
182,192,107468,1,0,0:0:0:0:
402,192,107556,1,0,0:0:0:0:
109,192,107644,1,0,0:0:0:0:
256,192,107821,1,0,0:0:0:0:
36,192,108085,1,0,0:0:0:0:
182,192,108262,1,0,0:0:0:0:
402,192,108438,1,0,0:0:0:0:
109,192,108615,1,0,0:0:0:0:
329,192,108703,1,0,0:0:0:0:
475,192,108791,1,0,0:0:0:0:
329,192,109056,1,0,0:0:0:0:
182,192,109056,1,0,0:0:0:0:
402,192,109232,1,0,0:0:0:0:
109,192,109232,1,0,0:0:0:0:
475,192,109497,1,0,0:0:0:0:
182,192,109497,1,0,0:0:0:0:
36,192,109497,1,0,0:0:0:0:
109,192,109674,1,0,0:0:0:0:
329,192,109674,1,0,0:0:0:0:
475,192,109850,1,0,0:0:0:0:
182,192,109850,1,0,0:0:0:0:
402,192,110027,1,0,0:0:0:0:
109,192,110027,1,0,0:0:0:0:
329,192,110115,1,0,0:0:0:0:
182,192,110115,1,0,0:0:0:0:
256,192,110203,1,0,0:0:0:0:
182,192,110291,1,0,0:0:0:0:
109,192,110291,1,0,0:0:0:0:
36,192,110291,1,0,0:0:0:0:
182,192,110380,1,0,0:0:0:0:
109,192,110380,1,0,0:0:0:0:
36,192,110380,1,0,0:0:0:0:
475,192,110468,1,0,0:0:0:0:
402,192,110468,1,0,0:0:0:0:
329,192,110468,1,0,0:0:0:0:
256,192,110644,1,0,0:0:0:0:
329,192,110688,1,0,0:0:0:0:
402,192,110732,1,0,0:0:0:0:
182,192,110777,1,0,0:0:0:0:
475,192,110777,1,0,0:0:0:0:
109,192,110821,1,0,0:0:0:0:
36,192,110865,1,0,0:0:0:0:
475,192,110909,1,0,0:0:0:0:
402,192,110953,1,0,0:0:0:0:
329,192,110997,1,0,0:0:0:0:
256,192,111041,1,0,0:0:0:0:
182,192,111085,1,0,0:0:0:0:
109,192,111130,1,0,0:0:0:0:
329,192,111174,1,0,0:0:0:0:
36,192,111174,1,0,0:0:0:0:
402,192,111218,1,0,0:0:0:0:
475,192,111262,1,0,0:0:0:0:
36,192,111306,1,0,0:0:0:0:
109,192,111350,1,0,0:0:0:0:
182,192,111394,1,0,0:0:0:0:
256,192,111438,1,0,0:0:0:0:
329,192,111482,1,0,0:0:0:0:
402,192,111527,1,0,0:0:0:0:
475,192,111571,1,0,0:0:0:0:
256,192,111615,1,0,0:0:0:0:
182,192,111659,1,0,0:0:0:0:
329,192,111703,1,0,0:0:0:0:
36,192,111703,1,0,0:0:0:0:
109,192,111703,1,0,0:0:0:0:
329,192,111791,1,0,0:0:0:0:
36,192,111791,1,0,0:0:0:0:
109,192,111791,1,0,0:0:0:0:
182,192,111880,1,0,0:0:0:0:
475,192,111880,1,0,0:0:0:0:
402,192,111880,1,0,0:0:0:0:
256,192,112056,1,0,0:0:0:0:
182,192,112100,1,0,0:0:0:0:
109,192,112144,1,0,0:0:0:0:
329,192,112188,1,0,0:0:0:0:
36,192,112188,1,0,0:0:0:0:
402,192,112232,1,0,0:0:0:0:
475,192,112277,1,0,0:0:0:0:
36,192,112321,1,0,0:0:0:0:
109,192,112365,1,0,0:0:0:0:
182,192,112409,1,0,0:0:0:0:
256,192,112453,1,0,0:0:0:0:
329,192,112497,1,0,0:0:0:0:
402,192,112541,1,0,0:0:0:0:
182,192,112585,1,0,0:0:0:0:
475,192,112585,1,0,0:0:0:0:
109,192,112629,1,0,0:0:0:0:
36,192,112674,1,0,0:0:0:0:
475,192,112718,1,0,0:0:0:0:
402,192,112762,1,0,0:0:0:0:
329,192,112806,1,0,0:0:0:0:
256,192,112850,1,0,0:0:0:0:
182,192,112894,1,0,0:0:0:0:
109,192,112938,1,0,0:0:0:0:
36,192,112982,1,0,0:0:0:0:
256,192,113027,1,0,0:0:0:0:
329,192,113071,1,0,0:0:0:0:
182,192,113115,1,0,0:0:0:0:
475,192,113115,1,0,0:0:0:0:
402,192,113115,1,0,0:0:0:0:
475,192,113203,1,0,0:0:0:0:
402,192,113203,1,0,0:0:0:0:
182,192,113203,1,0,0:0:0:0:
329,192,113291,1,0,0:0:0:0:
109,192,113291,1,0,0:0:0:0:
36,192,113291,1,0,0:0:0:0:
402,192,113468,1,0,0:0:0:0:
36,192,113468,1,0,0:0:0:0:
475,192,113512,1,0,0:0:0:0:
109,192,113512,1,0,0:0:0:0:
182,192,113556,1,0,0:0:0:0:
256,192,113600,1,0,0:0:0:0:
329,192,113644,1,0,0:0:0:0:
36,192,113688,1,0,0:0:0:0:
402,192,113688,1,0,0:0:0:0:
109,192,113732,1,0,0:0:0:0:
475,192,113732,1,0,0:0:0:0:
182,192,113777,1,0,0:0:0:0:
256,192,113821,1,0,0:0:0:0:
329,192,113865,1,0,0:0:0:0:
36,192,113909,1,0,0:0:0:0:
402,192,113909,1,0,0:0:0:0:
109,192,113953,1,0,0:0:0:0:
475,192,113953,1,0,0:0:0:0:
182,192,113997,1,0,0:0:0:0:
256,192,114041,1,0,0:0:0:0:
329,192,114085,1,0,0:0:0:0:
36,192,114129,1,0,0:0:0:0:
402,192,114129,1,0,0:0:0:0:
109,192,114174,1,0,0:0:0:0:
475,192,114174,1,0,0:0:0:0:
182,192,114218,1,0,0:0:0:0:
256,192,114262,1,0,0:0:0:0:
329,192,114306,1,0,0:0:0:0:
36,192,114350,1,0,0:0:0:0:
402,192,114350,1,0,0:0:0:0:
109,192,114394,1,0,0:0:0:0:
475,192,114394,1,0,0:0:0:0:
182,192,114438,1,0,0:0:0:0:
256,192,114482,1,0,0:0:0:0:
475,192,114527,1,0,0:0:0:0:
329,192,114527,1,0,0:0:0:0:
36,192,114527,1,0,0:0:0:0:
329,192,114615,1,0,0:0:0:0:
475,192,114615,1,0,0:0:0:0:
36,192,114615,1,0,0:0:0:0:
402,192,114703,1,0,0:0:0:0:
109,192,114703,1,0,0:0:0:0:
109,192,114879,1,0,0:0:0:0:
475,192,114879,1,0,0:0:0:0:
36,192,114924,1,0,0:0:0:0:
402,192,114924,1,0,0:0:0:0:
329,192,114968,1,0,0:0:0:0:
256,192,115012,1,0,0:0:0:0:
182,192,115056,1,0,0:0:0:0:
475,192,115100,1,0,0:0:0:0:
109,192,115100,1,0,0:0:0:0:
402,192,115144,1,0,0:0:0:0:
36,192,115144,1,0,0:0:0:0:
329,192,115188,1,0,0:0:0:0:
256,192,115232,1,0,0:0:0:0:
182,192,115277,1,0,0:0:0:0:
475,192,115321,1,0,0:0:0:0:
109,192,115321,1,0,0:0:0:0:
402,192,115365,1,0,0:0:0:0:
36,192,115365,1,0,0:0:0:0:
329,192,115409,1,0,0:0:0:0:
256,192,115453,1,0,0:0:0:0:
182,192,115497,1,0,0:0:0:0:
475,192,115541,1,0,0:0:0:0:
109,192,115541,1,0,0:0:0:0:
402,192,115585,1,0,0:0:0:0:
36,192,115585,1,0,0:0:0:0:
329,192,115629,1,0,0:0:0:0:
256,192,115674,1,0,0:0:0:0:
182,192,115718,1,0,0:0:0:0:
475,192,115762,1,0,0:0:0:0:
109,192,115762,1,0,0:0:0:0:
402,192,115806,1,0,0:0:0:0:
36,192,115806,1,0,0:0:0:0:
329,192,115850,1,0,0:0:0:0:
256,192,115894,1,0,0:0:0:0:
36,192,115938,1,0,0:0:0:0:
182,192,115938,1,0,0:0:0:0:
475,192,115938,1,0,0:0:0:0:
182,192,116026,1,0,0:0:0:0:
475,192,116026,1,0,0:0:0:0:
36,192,116026,1,0,0:0:0:0:
329,192,116115,1,0,0:0:0:0:
402,192,116115,1,0,0:0:0:0:
109,192,116115,1,0,0:0:0:0:
256,192,116291,1,0,0:0:0:0:
329,192,116335,1,0,0:0:0:0:
402,192,116379,1,0,0:0:0:0:
475,192,116424,1,0,0:0:0:0:
182,192,116424,1,0,0:0:0:0:
109,192,116468,1,0,0:0:0:0:
36,192,116512,1,0,0:0:0:0:
475,192,116556,1,0,0:0:0:0:
402,192,116600,1,0,0:0:0:0:
329,192,116644,1,0,0:0:0:0:
256,192,116688,1,0,0:0:0:0:
182,192,116732,1,0,0:0:0:0:
109,192,116776,1,0,0:0:0:0:
36,192,116821,1,0,0:0:0:0:
329,192,116821,1,0,0:0:0:0:
402,192,116865,1,0,0:0:0:0:
475,192,116909,1,0,0:0:0:0:
36,192,116953,1,0,0:0:0:0:
109,192,116997,1,0,0:0:0:0:
182,192,117041,1,0,0:0:0:0:
256,192,117085,1,0,0:0:0:0:
329,192,117129,1,0,0:0:0:0:
402,192,117174,1,0,0:0:0:0:
475,192,117218,1,0,0:0:0:0:
256,192,117262,1,0,0:0:0:0:
182,192,117306,1,0,0:0:0:0:
109,192,117350,1,0,0:0:0:0:
36,192,117350,1,0,0:0:0:0:
329,192,117350,1,0,0:0:0:0:
109,192,117438,1,0,0:0:0:0:
36,192,117438,1,0,0:0:0:0:
329,192,117438,1,0,0:0:0:0:
402,192,117526,1,0,0:0:0:0:
475,192,117526,1,0,0:0:0:0:
182,192,117526,1,0,0:0:0:0:
256,192,117703,1,0,0:0:0:0:
182,192,117747,1,0,0:0:0:0:
109,192,117791,1,0,0:0:0:0:
36,192,117835,1,0,0:0:0:0:
329,192,117835,1,0,0:0:0:0:
402,192,117879,1,0,0:0:0:0:
475,192,117924,1,0,0:0:0:0:
36,192,117968,1,0,0:0:0:0:
109,192,118012,1,0,0:0:0:0:
182,192,118056,1,0,0:0:0:0:
256,192,118100,1,0,0:0:0:0:
329,192,118144,1,0,0:0:0:0:
402,192,118188,1,0,0:0:0:0:
475,192,118232,1,0,0:0:0:0:
182,192,118232,1,0,0:0:0:0:
109,192,118276,1,0,0:0:0:0:
36,192,118321,1,0,0:0:0:0:
475,192,118365,1,0,0:0:0:0:
402,192,118409,1,0,0:0:0:0:
329,192,118453,1,0,0:0:0:0:
256,192,118497,1,0,0:0:0:0:
182,192,118541,1,0,0:0:0:0:
109,192,118585,1,0,0:0:0:0:
36,192,118629,1,0,0:0:0:0:
256,192,118674,1,0,0:0:0:0:
329,192,118718,1,0,0:0:0:0:
402,192,118762,1,0,0:0:0:0:
475,192,118762,1,0,0:0:0:0:
182,192,118762,1,0,0:0:0:0:
182,192,118850,1,0,0:0:0:0:
402,192,118850,1,0,0:0:0:0:
475,192,118850,1,0,0:0:0:0:
36,192,118938,1,0,0:0:0:0:
109,192,118938,1,0,0:0:0:0:
329,192,118938,1,0,0:0:0:0:
256,192,119115,1,0,0:0:0:0:
329,192,119159,1,0,0:0:0:0:
182,192,119159,1,0,0:0:0:0:
402,192,119203,1,0,0:0:0:0:
109,192,119203,1,0,0:0:0:0:
475,192,119247,1,0,0:0:0:0:
36,192,119247,1,0,0:0:0:0:
256,192,119291,1,0,0:0:0:0:
182,192,119335,1,0,0:0:0:0:
329,192,119335,1,0,0:0:0:0:
109,192,119379,1,0,0:0:0:0:
402,192,119379,1,0,0:0:0:0:
475,192,119423,1,0,0:0:0:0:
36,192,119423,1,0,0:0:0:0:
256,192,119468,1,0,0:0:0:0:
182,192,119512,1,0,0:0:0:0:
329,192,119512,1,0,0:0:0:0:
109,192,119556,1,0,0:0:0:0:
402,192,119556,1,0,0:0:0:0:
36,192,119600,1,0,0:0:0:0:
475,192,119600,1,0,0:0:0:0:
256,192,119644,1,0,0:0:0:0:
329,192,119688,1,0,0:0:0:0:
182,192,119688,1,0,0:0:0:0:
402,192,119732,1,0,0:0:0:0:
109,192,119732,1,0,0:0:0:0:
475,192,119776,1,0,0:0:0:0:
36,192,119776,1,0,0:0:0:0:
256,192,119821,1,0,0:0:0:0:
182,192,119865,1,0,0:0:0:0:
329,192,119865,1,0,0:0:0:0:
109,192,119909,1,0,0:0:0:0:
402,192,119909,1,0,0:0:0:0:
475,192,119953,1,0,0:0:0:0:
36,192,119953,1,0,0:0:0:0:
256,192,119997,1,0,0:0:0:0:
182,192,120041,1,0,0:0:0:0:
329,192,120041,1,0,0:0:0:0:
109,192,120085,1,0,0:0:0:0:
402,192,120085,1,0,0:0:0:0:
475,192,120129,1,0,0:0:0:0:
36,192,120129,1,0,0:0:0:0:
329,192,120173,1,0,0:0:0:0:
182,192,120173,1,0,0:0:0:0:
256,192,120173,1,0,0:0:0:0:
256,192,120262,1,0,0:0:0:0:
329,192,120262,1,0,0:0:0:0:
182,192,120262,1,0,0:0:0:0:
402,192,120350,1,0,0:0:0:0:
109,192,120350,1,0,0:0:0:0:
36,192,120526,1,0,0:0:0:0:
475,192,120526,1,0,0:0:0:0:
109,192,120571,1,0,0:0:0:0:
402,192,120571,1,0,0:0:0:0:
182,192,120615,1,0,0:0:0:0:
329,192,120615,1,0,0:0:0:0:
256,192,120659,1,0,0:0:0:0:
36,192,120703,1,0,0:0:0:0:
475,192,120703,1,0,0:0:0:0:
109,192,120747,1,0,0:0:0:0:
402,192,120747,1,0,0:0:0:0:
182,192,120791,1,0,0:0:0:0:
329,192,120791,1,0,0:0:0:0:
256,192,120835,1,0,0:0:0:0:
36,192,120879,1,0,0:0:0:0:
475,192,120879,1,0,0:0:0:0:
109,192,120923,1,0,0:0:0:0:
402,192,120923,1,0,0:0:0:0:
182,192,120968,1,0,0:0:0:0:
329,192,120968,1,0,0:0:0:0:
256,192,121012,1,0,0:0:0:0:
36,192,121056,1,0,0:0:0:0:
475,192,121056,1,0,0:0:0:0:
109,192,121100,1,0,0:0:0:0:
402,192,121100,1,0,0:0:0:0:
182,192,121144,1,0,0:0:0:0:
329,192,121144,1,0,0:0:0:0:
256,192,121188,1,0,0:0:0:0:
36,192,121232,1,0,0:0:0:0:
475,192,121232,1,0,0:0:0:0:
109,192,121276,1,0,0:0:0:0:
402,192,121276,1,0,0:0:0:0:
182,192,121321,1,0,0:0:0:0:
329,192,121321,1,0,0:0:0:0:
256,192,121365,1,0,0:0:0:0:
36,192,121409,1,0,0:0:0:0:
475,192,121409,1,0,0:0:0:0:
109,192,121453,1,0,0:0:0:0:
402,192,121453,1,0,0:0:0:0:
182,192,121497,1,0,0:0:0:0:
329,192,121497,1,0,0:0:0:0:
256,192,121541,1,0,0:0:0:0:
109,192,121585,1,0,0:0:0:0:
36,192,121585,1,0,0:0:0:0:
475,192,121673,1,0,0:0:0:0:
402,192,121673,1,0,0:0:0:0:
182,192,121762,1,0,0:0:0:0:
109,192,121762,1,0,0:0:0:0:
402,192,121850,1,0,0:0:0:0:
329,192,121850,1,0,0:0:0:0:
182,192,121938,1,0,0:0:0:0:
36,192,121938,1,0,0:0:0:0:
475,192,122026,1,0,0:0:0:0:
329,192,122026,1,0,0:0:0:0:
36,192,122115,1,0,0:0:0:0:
109,192,122115,1,0,0:0:0:0:
475,192,122203,1,0,0:0:0:0:
402,192,122203,1,0,0:0:0:0:
109,192,122291,1,0,0:0:0:0:
182,192,122291,1,0,0:0:0:0:
329,192,122379,1,0,0:0:0:0:
402,192,122379,1,0,0:0:0:0:
182,192,122468,1,0,0:0:0:0:
36,192,122468,1,0,0:0:0:0:
329,192,122556,1,0,0:0:0:0:
475,192,122556,1,0,0:0:0:0:
256,192,122644,1,0,0:0:0:0:
36,192,122688,1,0,0:0:0:0:
109,192,122688,1,0,0:0:0:0:
182,192,122688,1,0,0:0:0:0:
475,192,122732,1,0,0:0:0:0:
402,192,122732,1,0,0:0:0:0:
329,192,122732,1,0,0:0:0:0:
36,192,122776,1,0,0:0:0:0:
109,192,122776,1,0,0:0:0:0:
182,192,122776,1,0,0:0:0:0:
475,192,122820,1,0,0:0:0:0:
402,192,122820,1,0,0:0:0:0:
329,192,122820,1,0,0:0:0:0:
36,192,122865,1,0,0:0:0:0:
109,192,122865,1,0,0:0:0:0:
182,192,122865,1,0,0:0:0:0:
475,192,122909,1,0,0:0:0:0:
402,192,122909,1,0,0:0:0:0:
329,192,122909,1,0,0:0:0:0:
36,192,122953,1,0,0:0:0:0:
109,192,122953,1,0,0:0:0:0:
182,192,122953,1,0,0:0:0:0:
256,192,122997,1,0,0:0:0:0:
475,192,123085,1,0,0:0:0:0:
329,192,123085,1,0,0:0:0:0:
36,192,123173,1,0,0:0:0:0:
182,192,123173,1,0,0:0:0:0:
402,192,123262,1,0,0:0:0:0:
329,192,123262,1,0,0:0:0:0:
182,192,123350,1,0,0:0:0:0:
109,192,123350,1,0,0:0:0:0:
475,192,123438,1,0,0:0:0:0:
402,192,123438,1,0,0:0:0:0:
36,192,123526,1,0,0:0:0:0:
109,192,123526,1,0,0:0:0:0:
475,192,123615,1,0,0:0:0:0:
402,192,123615,1,0,0:0:0:0:
329,192,123703,128,0,123879:0:0:0:0:
256,192,123703,128,0,123879:0:0:0:0:
182,192,123703,128,0,123879:0:0:0:0:
475,192,123879,1,0,0:0:0:0:
36,192,123879,1,0,0:0:0:0:
402,192,123923,1,0,0:0:0:0:
109,192,123923,1,0,0:0:0:0:
329,192,123968,1,0,0:0:0:0:
182,192,123968,1,0,0:0:0:0:
256,192,124012,1,0,0:0:0:0:
402,192,124056,1,0,0:0:0:0:
109,192,124056,1,0,0:0:0:0:
475,192,124100,1,0,0:0:0:0:
36,192,124100,1,0,0:0:0:0:
329,192,124144,1,0,0:0:0:0:
182,192,124144,1,0,0:0:0:0:
475,192,124232,1,0,0:0:0:0:
36,192,124232,1,0,0:0:0:0:
402,192,124320,1,0,0:0:0:0:
109,192,124320,1,0,0:0:0:0:
329,192,124409,1,0,0:0:0:0:
256,192,124409,1,0,0:0:0:0:
182,192,124409,1,0,0:0:0:0:
182,192,124585,1,0,0:0:0:0:
475,192,124585,1,0,0:0:0:0:
36,192,124585,1,0,0:0:0:0:
329,192,124673,1,0,0:0:0:0:
402,192,124673,1,0,0:0:0:0:
109,192,124673,1,0,0:0:0:0:
36,192,124850,1,0,0:0:0:0:
475,192,124850,1,0,0:0:0:0:
329,192,124850,1,0,0:0:0:0:
182,192,124850,1,0,0:0:0:0:
256,192,125026,1,0,0:0:0:0:
402,192,125026,1,0,0:0:0:0:
109,192,125026,1,0,0:0:0:0:
182,192,125203,1,0,0:0:0:0:
329,192,125203,1,0,0:0:0:0:
36,192,125203,1,0,0:0:0:0:
475,192,125203,1,0,0:0:0:0:
329,192,125379,1,0,0:0:0:0:
182,192,125379,1,0,0:0:0:0:
256,192,125379,1,0,0:0:0:0:
402,192,125556,128,0,125820:0:0:0:0:
475,192,125556,128,0,125820:0:0:0:0:
36,192,125556,128,0,125820:0:0:0:0:
109,192,125556,128,0,125820:0:0:0:0:
329,192,125820,1,0,0:0:0:0:
256,192,125820,1,0,0:0:0:0:
182,192,125820,1,0,0:0:0:0:
329,192,125997,1,0,0:0:0:0:
256,192,125997,1,0,0:0:0:0:
182,192,125997,1,0,0:0:0:0:
109,192,126173,1,0,0:0:0:0:
36,192,126173,1,0,0:0:0:0:
475,192,126262,1,0,0:0:0:0:
402,192,126262,1,0,0:0:0:0:
182,192,126350,1,0,0:0:0:0:
109,192,126350,1,0,0:0:0:0:
402,192,126438,1,0,0:0:0:0:
329,192,126438,1,0,0:0:0:0:
256,192,126526,1,0,0:0:0:0:
36,192,126570,1,0,0:0:0:0:
109,192,126570,1,0,0:0:0:0:
182,192,126570,1,0,0:0:0:0:
475,192,126615,1,0,0:0:0:0:
402,192,126615,1,0,0:0:0:0:
329,192,126615,1,0,0:0:0:0:
36,192,126659,1,0,0:0:0:0:
109,192,126659,1,0,0:0:0:0:
182,192,126659,1,0,0:0:0:0:
475,192,126703,1,0,0:0:0:0:
402,192,126703,1,0,0:0:0:0:
329,192,126703,1,0,0:0:0:0:
36,192,126747,1,0,0:0:0:0:
109,192,126747,1,0,0:0:0:0:
182,192,126747,1,0,0:0:0:0:
475,192,126791,1,0,0:0:0:0:
402,192,126791,1,0,0:0:0:0:
329,192,126791,1,0,0:0:0:0:
36,192,126835,1,0,0:0:0:0:
109,192,126835,1,0,0:0:0:0:
182,192,126835,1,0,0:0:0:0:
475,192,126879,1,0,0:0:0:0:
402,192,126879,1,0,0:0:0:0:
329,192,126879,1,0,0:0:0:0:
36,192,126923,1,0,0:0:0:0:
109,192,126923,1,0,0:0:0:0:
182,192,126923,1,0,0:0:0:0:
475,192,126967,1,0,0:0:0:0:
402,192,126967,1,0,0:0:0:0:
329,192,126967,1,0,0:0:0:0:
36,192,127012,1,0,0:0:0:0:
109,192,127012,1,0,0:0:0:0:
182,192,127012,1,0,0:0:0:0:
475,192,127056,1,0,0:0:0:0:
402,192,127056,1,0,0:0:0:0:
329,192,127056,1,0,0:0:0:0:
36,192,127100,1,0,0:0:0:0:
109,192,127100,1,0,0:0:0:0:
182,192,127100,1,0,0:0:0:0:
475,192,127144,1,0,0:0:0:0:
402,192,127144,1,0,0:0:0:0:
329,192,127144,1,0,0:0:0:0:
36,192,127188,1,0,0:0:0:0:
109,192,127188,1,0,0:0:0:0:
182,192,127188,1,0,0:0:0:0:
256,192,127232,1,0,0:0:0:0:
182,192,127320,1,0,0:0:0:0:
109,192,127320,1,0,0:0:0:0:
402,192,127409,1,0,0:0:0:0:
329,192,127409,1,0,0:0:0:0:
109,192,127497,1,0,0:0:0:0:
36,192,127497,1,0,0:0:0:0:
475,192,127585,1,0,0:0:0:0:
402,192,127585,1,0,0:0:0:0:
182,192,127673,1,0,0:0:0:0:
36,192,127673,1,0,0:0:0:0:
475,192,127762,1,0,0:0:0:0:
329,192,127762,1,0,0:0:0:0:
182,192,127850,1,0,0:0:0:0:
109,192,127850,1,0,0:0:0:0:
402,192,127938,1,0,0:0:0:0:
329,192,127938,1,0,0:0:0:0:
109,192,128026,1,0,0:0:0:0:
36,192,128026,1,0,0:0:0:0:
182,192,128115,1,0,0:0:0:0:
475,192,128115,1,0,0:0:0:0:
402,192,128115,1,0,0:0:0:0:
36,192,128203,1,0,0:0:0:0:
109,192,128247,1,0,0:0:0:0:
475,192,128291,1,0,0:0:0:0:
182,192,128291,1,0,0:0:0:0:
256,192,128335,1,0,0:0:0:0:
402,192,128335,1,0,0:0:0:0:
36,192,128379,1,0,0:0:0:0:
329,192,128379,1,0,0:0:0:0:
109,192,128423,1,0,0:0:0:0:
475,192,128467,1,0,0:0:0:0:
182,192,128467,1,0,0:0:0:0:
256,192,128512,1,0,0:0:0:0:
402,192,128512,1,0,0:0:0:0:
36,192,128556,1,0,0:0:0:0:
329,192,128556,1,0,0:0:0:0:
109,192,128600,1,0,0:0:0:0:
475,192,128644,1,0,0:0:0:0:
402,192,128644,1,0,0:0:0:0:
182,192,128644,1,0,0:0:0:0:
36,192,128732,1,0,0:0:0:0:
109,192,128732,1,0,0:0:0:0:
475,192,128820,1,0,0:0:0:0:
402,192,128820,1,0,0:0:0:0:
182,192,128909,1,0,0:0:0:0:
109,192,128909,1,0,0:0:0:0:
402,192,128997,1,0,0:0:0:0:
329,192,128997,1,0,0:0:0:0:
36,192,129085,1,0,0:0:0:0:
182,192,129085,1,0,0:0:0:0:
475,192,129173,1,0,0:0:0:0:
329,192,129173,1,0,0:0:0:0:
109,192,129262,1,0,0:0:0:0:
36,192,129262,1,0,0:0:0:0:
329,192,129350,1,0,0:0:0:0:
182,192,129350,1,0,0:0:0:0:
256,192,129350,1,0,0:0:0:0:
402,192,129482,1,0,0:0:0:0:
256,192,129482,1,0,0:0:0:0:
109,192,129482,1,0,0:0:0:0:
36,192,129615,128,0,129791:0:0:0:0:
475,192,129615,128,0,129791:0:0:0:0:
256,192,129615,1,0,0:0:0:0:
109,192,129791,1,0,0:0:0:0:
182,192,129835,1,0,0:0:0:0:
256,192,129879,1,0,0:0:0:0:
329,192,129923,1,0,0:0:0:0:
402,192,129967,1,0,0:0:0:0:
475,192,130012,1,0,0:0:0:0:
182,192,130056,1,0,0:0:0:0:
109,192,130056,1,0,0:0:0:0:
402,192,130144,1,0,0:0:0:0:
329,192,130144,1,0,0:0:0:0:
109,192,130232,1,0,0:0:0:0:
36,192,130232,1,0,0:0:0:0:
475,192,130320,1,0,0:0:0:0:
402,192,130320,1,0,0:0:0:0:
182,192,130409,1,0,0:0:0:0:
36,192,130409,1,0,0:0:0:0:
475,192,130497,1,0,0:0:0:0:
329,192,130497,1,0,0:0:0:0:
36,192,130585,1,0,0:0:0:0:
109,192,130585,1,0,0:0:0:0:
475,192,130673,1,0,0:0:0:0:
402,192,130673,1,0,0:0:0:0:
329,192,130762,1,0,0:0:0:0:
256,192,130762,1,0,0:0:0:0:
182,192,130762,1,0,0:0:0:0:
36,192,130850,1,0,0:0:0:0:
109,192,130850,1,0,0:0:0:0:
475,192,130938,1,0,0:0:0:0:
402,192,130938,1,0,0:0:0:0:
182,192,131026,1,0,0:0:0:0:
109,192,131026,1,0,0:0:0:0:
329,192,131114,1,0,0:0:0:0:
402,192,131114,1,0,0:0:0:0:
109,192,131203,1,0,0:0:0:0:
36,192,131203,1,0,0:0:0:0:
475,192,131291,1,0,0:0:0:0:
402,192,131291,1,0,0:0:0:0:
329,192,131379,1,0,0:0:0:0:
256,192,131379,1,0,0:0:0:0:
182,192,131379,1,0,0:0:0:0:
402,192,131467,1,0,0:0:0:0:
475,192,131467,1,0,0:0:0:0:
36,192,131467,1,0,0:0:0:0:
109,192,131467,1,0,0:0:0:0:
402,192,131556,1,0,0:0:0:0:
475,192,131556,1,0,0:0:0:0:
36,192,131556,1,0,0:0:0:0:
109,192,131556,1,0,0:0:0:0:
402,192,131644,1,0,0:0:0:0:
475,192,131644,1,0,0:0:0:0:
36,192,131644,1,0,0:0:0:0:
109,192,131644,1,0,0:0:0:0:
402,192,131732,1,0,0:0:0:0:
475,192,131732,1,0,0:0:0:0:
36,192,131732,1,0,0:0:0:0:
109,192,131732,1,0,0:0:0:0:
329,192,131820,1,0,0:0:0:0:
256,192,131820,1,0,0:0:0:0:
182,192,131820,1,0,0:0:0:0:
329,192,131909,1,0,0:0:0:0:
256,192,131909,1,0,0:0:0:0:
182,192,131909,1,0,0:0:0:0:
329,192,131997,1,0,0:0:0:0:
256,192,131997,1,0,0:0:0:0:
182,192,131997,1,0,0:0:0:0:
329,192,132085,1,0,0:0:0:0:
256,192,132085,1,0,0:0:0:0:
182,192,132085,1,0,0:0:0:0:
475,192,132173,1,0,0:0:0:0:
36,192,132173,1,0,0:0:0:0:
402,192,132217,1,0,0:0:0:0:
109,192,132217,1,0,0:0:0:0:
329,192,132262,1,0,0:0:0:0:
182,192,132262,1,0,0:0:0:0:
256,192,132306,1,0,0:0:0:0:
329,192,132350,1,0,0:0:0:0:
182,192,132350,1,0,0:0:0:0:
402,192,132394,1,0,0:0:0:0:
109,192,132394,1,0,0:0:0:0:
475,192,132438,1,0,0:0:0:0:
36,192,132438,1,0,0:0:0:0:
402,192,132482,1,0,0:0:0:0:
109,192,132482,1,0,0:0:0:0:
329,192,132526,1,0,0:0:0:0:
182,192,132526,1,0,0:0:0:0:
256,192,132570,1,0,0:0:0:0:
329,192,132614,1,0,0:0:0:0:
182,192,132614,1,0,0:0:0:0:
402,192,132659,1,0,0:0:0:0:
109,192,132659,1,0,0:0:0:0:
475,192,132703,1,0,0:0:0:0:
36,192,132703,1,0,0:0:0:0:
402,192,132747,1,0,0:0:0:0:
109,192,132747,1,0,0:0:0:0:
329,192,132791,1,0,0:0:0:0:
182,192,132791,1,0,0:0:0:0:
256,192,132835,1,0,0:0:0:0:
475,192,132879,1,0,0:0:0:0:
36,192,132879,1,0,0:0:0:0:
402,192,132967,1,0,0:0:0:0:
109,192,132967,1,0,0:0:0:0:
329,192,133056,1,0,0:0:0:0:
475,192,133056,1,0,0:0:0:0:
36,192,133056,1,0,0:0:0:0:
182,192,133056,1,0,0:0:0:0:
109,192,133144,1,0,0:0:0:0:
402,192,133144,1,0,0:0:0:0:
329,192,133232,1,0,0:0:0:0:
475,192,133232,1,0,0:0:0:0:
36,192,133232,1,0,0:0:0:0:
182,192,133232,1,0,0:0:0:0:
402,192,133320,1,0,0:0:0:0:
109,192,133320,1,0,0:0:0:0:
329,192,133409,1,0,0:0:0:0:
475,192,133409,1,0,0:0:0:0:
36,192,133409,1,0,0:0:0:0:
182,192,133409,1,0,0:0:0:0:
402,192,133497,1,0,0:0:0:0:
109,192,133497,1,0,0:0:0:0:
475,192,133585,1,0,0:0:0:0:
256,192,133585,1,0,0:0:0:0:
329,192,133585,1,0,0:0:0:0:
36,192,133585,1,0,0:0:0:0:
182,192,133585,1,0,0:0:0:0:
402,192,133673,1,0,0:0:0:0:
109,192,133673,1,0,0:0:0:0:
329,192,133761,1,0,0:0:0:0:
256,192,133761,1,0,0:0:0:0:
182,192,133761,1,0,0:0:0:0:
402,192,133850,1,0,0:0:0:0:
109,192,133850,1,0,0:0:0:0:
475,192,133938,1,0,0:0:0:0:
36,192,133938,1,0,0:0:0:0:
402,192,134026,1,0,0:0:0:0:
109,192,134026,1,0,0:0:0:0:
329,192,134114,1,0,0:0:0:0:
256,192,134114,1,0,0:0:0:0:
182,192,134114,1,0,0:0:0:0:
402,192,134203,1,0,0:0:0:0:
109,192,134203,1,0,0:0:0:0:
36,192,134291,1,0,0:0:0:0:
109,192,134335,1,0,0:0:0:0:
182,192,134379,1,0,0:0:0:0:
256,192,134423,1,0,0:0:0:0:
329,192,134467,1,0,0:0:0:0:
402,192,134511,1,0,0:0:0:0:
475,192,134556,1,0,0:0:0:0:
36,192,134644,128,0,135350:0:0:0:0:
256,192,134644,1,0,0:0:0:0:
109,192,134644,128,0,135350:0:0:0:0:
182,192,134644,128,0,135350:0:0:0:0:
329,192,134732,1,0,0:0:0:0:
475,192,134820,1,0,0:0:0:0:
402,192,134820,1,0,0:0:0:0:
329,192,134909,1,0,0:0:0:0:
256,192,134997,1,0,0:0:0:0:
329,192,135085,1,0,0:0:0:0:
475,192,135173,1,0,0:0:0:0:
402,192,135173,1,0,0:0:0:0:
329,192,135261,1,0,0:0:0:0:
256,192,135350,1,0,0:0:0:0:
402,192,135482,1,0,0:0:0:0:
475,192,135482,1,0,0:0:0:0:
329,192,135482,1,0,0:0:0:0:
109,192,135482,1,0,0:0:0:0:
36,192,135482,1,0,0:0:0:0:
109,192,135614,1,0,0:0:0:0:
36,192,135614,1,0,0:0:0:0:
182,192,135614,1,0,0:0:0:0:
402,192,135614,1,0,0:0:0:0:
475,192,135614,1,0,0:0:0:0:
256,192,135703,1,0,0:0:0:0:
109,192,135791,1,0,0:0:0:0:
36,192,135791,1,0,0:0:0:0:
475,192,135879,1,0,0:0:0:0:
402,192,135879,1,0,0:0:0:0:
109,192,135967,1,0,0:0:0:0:
36,192,135967,1,0,0:0:0:0:
256,192,136056,1,0,0:0:0:0:
402,192,136144,1,0,0:0:0:0:
329,192,136144,1,0,0:0:0:0:
182,192,136232,1,0,0:0:0:0:
109,192,136232,1,0,0:0:0:0:
402,192,136320,1,0,0:0:0:0:
329,192,136320,1,0,0:0:0:0:
256,192,136409,1,0,0:0:0:0:
182,192,136497,1,0,0:0:0:0:
36,192,136497,1,0,0:0:0:0:
475,192,136585,1,0,0:0:0:0:
329,192,136585,1,0,0:0:0:0:
182,192,136673,1,0,0:0:0:0:
36,192,136673,1,0,0:0:0:0:
256,192,136761,1,0,0:0:0:0:
475,192,136850,1,0,0:0:0:0:
329,192,136850,1,0,0:0:0:0:
36,192,136938,1,0,0:0:0:0:
182,192,136938,1,0,0:0:0:0:
475,192,137026,1,0,0:0:0:0:
329,192,137026,1,0,0:0:0:0:
182,192,137114,1,0,0:0:0:0:
402,192,137114,1,0,0:0:0:0:
36,192,137114,1,0,0:0:0:0:
182,192,137291,1,0,0:0:0:0:
402,192,137291,1,0,0:0:0:0:
36,192,137291,1,0,0:0:0:0:
402,192,137467,1,0,0:0:0:0:
109,192,137467,1,0,0:0:0:0:
182,192,137556,1,0,0:0:0:0:
329,192,137556,1,0,0:0:0:0:
402,192,137644,1,0,0:0:0:0:
109,192,137644,1,0,0:0:0:0:
329,192,137732,1,0,0:0:0:0:
182,192,137732,1,0,0:0:0:0:
256,192,137820,1,0,0:0:0:0:
329,192,137864,1,0,0:0:0:0:
36,192,137908,1,0,0:0:0:0:
402,192,137908,1,0,0:0:0:0:
109,192,137953,1,0,0:0:0:0:
475,192,137953,1,0,0:0:0:0:
182,192,137997,1,0,0:0:0:0:
256,192,138041,1,0,0:0:0:0:
329,192,138085,1,0,0:0:0:0:
36,192,138129,1,0,0:0:0:0:
402,192,138129,1,0,0:0:0:0:
109,192,138173,1,0,0:0:0:0:
475,192,138173,1,0,0:0:0:0:
182,192,138217,1,0,0:0:0:0:
256,192,138261,1,0,0:0:0:0:
329,192,138306,1,0,0:0:0:0:
36,192,138350,1,0,0:0:0:0:
402,192,138350,1,0,0:0:0:0:
109,192,138394,1,0,0:0:0:0:
475,192,138394,1,0,0:0:0:0:
182,192,138438,1,0,0:0:0:0:
256,192,138482,1,0,0:0:0:0:
475,192,138526,1,0,0:0:0:0:
36,192,138526,1,0,0:0:0:0:
329,192,138526,1,0,0:0:0:0:
182,192,138703,1,0,0:0:0:0:
329,192,138703,1,0,0:0:0:0:
36,192,138703,1,0,0:0:0:0:
475,192,138703,1,0,0:0:0:0:
182,192,138879,1,0,0:0:0:0:
329,192,138879,1,0,0:0:0:0:
36,192,138879,1,0,0:0:0:0:
475,192,138879,1,0,0:0:0:0:
329,192,139056,1,0,0:0:0:0:
182,192,139056,1,0,0:0:0:0:
36,192,139056,1,0,0:0:0:0:
475,192,139056,1,0,0:0:0:0:
109,192,139232,1,0,0:0:0:0:
182,192,139232,1,0,0:0:0:0:
36,192,139232,128,0,139497:0:0:0:0:
475,192,139232,128,0,139497:0:0:0:0:
402,192,139320,1,0,0:0:0:0:
329,192,139320,1,0,0:0:0:0:
256,192,139320,1,0,0:0:0:0:
182,192,139408,1,0,0:0:0:0:
109,192,139408,1,0,0:0:0:0:
402,192,139497,1,0,0:0:0:0:
329,192,139497,1,0,0:0:0:0:
182,192,139585,1,0,0:0:0:0:
256,192,139585,1,0,0:0:0:0:
109,192,139585,1,0,0:0:0:0:
36,192,139585,128,0,139850:0:0:0:0:
475,192,139585,128,0,139850:0:0:0:0:
402,192,139673,1,0,0:0:0:0:
329,192,139673,1,0,0:0:0:0:
182,192,139761,1,0,0:0:0:0:
109,192,139761,1,0,0:0:0:0:
256,192,139850,1,0,0:0:0:0:
329,192,139850,1,0,0:0:0:0:
182,192,139938,1,0,0:0:0:0:
475,192,139938,1,0,0:0:0:0:
109,192,139938,128,0,140203:0:0:0:0:
402,192,139938,128,0,140203:0:0:0:0:
256,192,140026,1,0,0:0:0:0:
36,192,140114,1,0,0:0:0:0:
329,192,140114,1,0,0:0:0:0:
256,192,140203,1,0,0:0:0:0:
182,192,140291,1,0,0:0:0:0:
475,192,140291,1,0,0:0:0:0:
109,192,140291,128,0,140555:0:0:0:0:
402,192,140291,128,0,140555:0:0:0:0:
256,192,140379,1,0,0:0:0:0:
36,192,140467,1,0,0:0:0:0:
329,192,140467,1,0,0:0:0:0:
256,192,140555,1,0,0:0:0:0:
109,192,140644,1,0,0:0:0:0:
36,192,140644,1,0,0:0:0:0:
182,192,140644,128,0,140908:0:0:0:0:
329,192,140644,128,0,140908:0:0:0:0:
256,192,140732,1,0,0:0:0:0:
475,192,140820,1,0,0:0:0:0:
402,192,140820,1,0,0:0:0:0:
256,192,140908,1,0,0:0:0:0:
109,192,140997,1,0,0:0:0:0:
36,192,140997,1,0,0:0:0:0:
182,192,140997,128,0,141261:0:0:0:0:
329,192,140997,128,0,141261:0:0:0:0:
256,192,141085,1,0,0:0:0:0:
475,192,141173,1,0,0:0:0:0:
402,192,141173,1,0,0:0:0:0:
256,192,141261,1,0,0:0:0:0:
109,192,141350,1,0,0:0:0:0:
402,192,141350,1,0,0:0:0:0:
36,192,141350,128,0,142055:0:0:0:0:
475,192,141350,128,0,142055:0:0:0:0:
329,192,141438,1,0,0:0:0:0:
182,192,141438,1,0,0:0:0:0:
402,192,141526,1,0,0:0:0:0:
109,192,141526,1,0,0:0:0:0:
329,192,141614,1,0,0:0:0:0:
182,192,141614,1,0,0:0:0:0:
402,192,141703,1,0,0:0:0:0:
109,192,141703,1,0,0:0:0:0:
329,192,141791,1,0,0:0:0:0:
182,192,141791,1,0,0:0:0:0:
402,192,141879,1,0,0:0:0:0:
109,192,141879,1,0,0:0:0:0:
329,192,141967,1,0,0:0:0:0:
182,192,141967,1,0,0:0:0:0:
402,192,142055,1,0,0:0:0:0:
256,192,142055,1,0,0:0:0:0:
109,192,142055,1,0,0:0:0:0:
329,192,142144,1,0,0:0:0:0:
182,192,142144,1,0,0:0:0:0:
402,192,142232,1,0,0:0:0:0:
109,192,142232,1,0,0:0:0:0:
475,192,142320,1,0,0:0:0:0:
36,192,142320,1,0,0:0:0:0:
402,192,142408,1,0,0:0:0:0:
109,192,142408,1,0,0:0:0:0:
329,192,142497,1,0,0:0:0:0:
182,192,142497,1,0,0:0:0:0:
475,192,142585,1,0,0:0:0:0:
36,192,142585,1,0,0:0:0:0:
329,192,142673,1,0,0:0:0:0:
182,192,142673,1,0,0:0:0:0:
402,192,142761,1,0,0:0:0:0:
36,192,142761,1,0,0:0:0:0:
475,192,142805,1,0,0:0:0:0:
109,192,142805,1,0,0:0:0:0:
182,192,142850,1,0,0:0:0:0:
256,192,142894,1,0,0:0:0:0:
329,192,142938,1,0,0:0:0:0:
36,192,142982,1,0,0:0:0:0:
402,192,142982,1,0,0:0:0:0:
109,192,143026,1,0,0:0:0:0:
475,192,143026,1,0,0:0:0:0:
182,192,143070,1,0,0:0:0:0:
256,192,143114,1,0,0:0:0:0:
329,192,143158,1,0,0:0:0:0:
36,192,143203,1,0,0:0:0:0:
402,192,143203,1,0,0:0:0:0:
109,192,143247,1,0,0:0:0:0:
475,192,143247,1,0,0:0:0:0:
182,192,143291,1,0,0:0:0:0:
256,192,143335,1,0,0:0:0:0:
329,192,143379,1,0,0:0:0:0:
402,192,143423,1,0,0:0:0:0:
109,192,143467,1,0,0:0:0:0:
475,192,143467,1,0,0:0:0:0:
36,192,143511,1,0,0:0:0:0:
402,192,143511,1,0,0:0:0:0:
329,192,143555,1,0,0:0:0:0:
256,192,143600,1,0,0:0:0:0:
182,192,143644,1,0,0:0:0:0:
475,192,143688,1,0,0:0:0:0:
109,192,143688,1,0,0:0:0:0:
402,192,143732,1,0,0:0:0:0:
36,192,143732,1,0,0:0:0:0:
329,192,143776,1,0,0:0:0:0:
256,192,143820,1,0,0:0:0:0:
182,192,143864,1,0,0:0:0:0:
475,192,143908,1,0,0:0:0:0:
109,192,143908,1,0,0:0:0:0:
402,192,143952,1,0,0:0:0:0:
36,192,143952,1,0,0:0:0:0:
329,192,143997,1,0,0:0:0:0:
256,192,144041,1,0,0:0:0:0:
182,192,144085,1,0,0:0:0:0:
109,192,144129,1,0,0:0:0:0:
36,192,144173,1,0,0:0:0:0:
256,192,144173,1,0,0:0:0:0:
475,192,144173,1,0,0:0:0:0:
402,192,144261,1,0,0:0:0:0:
109,192,144261,1,0,0:0:0:0:
329,192,144350,1,0,0:0:0:0:
475,192,144350,1,0,0:0:0:0:
36,192,144350,1,0,0:0:0:0:
182,192,144350,1,0,0:0:0:0:
109,192,144438,1,0,0:0:0:0:
402,192,144438,1,0,0:0:0:0:
329,192,144526,1,0,0:0:0:0:
475,192,144526,1,0,0:0:0:0:
36,192,144526,1,0,0:0:0:0:
182,192,144526,1,0,0:0:0:0:
402,192,144614,1,0,0:0:0:0:
109,192,144614,1,0,0:0:0:0:
329,192,144702,1,0,0:0:0:0:
475,192,144702,1,0,0:0:0:0:
36,192,144702,1,0,0:0:0:0:
182,192,144702,1,0,0:0:0:0:
402,192,144791,1,0,0:0:0:0:
109,192,144791,1,0,0:0:0:0:
475,192,144879,1,0,0:0:0:0:
256,192,144879,1,0,0:0:0:0:
329,192,144879,1,0,0:0:0:0:
36,192,144879,1,0,0:0:0:0:
182,192,144879,1,0,0:0:0:0:
402,192,144967,1,0,0:0:0:0:
109,192,144967,1,0,0:0:0:0:
329,192,145055,1,0,0:0:0:0:
256,192,145055,1,0,0:0:0:0:
182,192,145055,1,0,0:0:0:0:
402,192,145144,1,0,0:0:0:0:
109,192,145144,1,0,0:0:0:0:
475,192,145232,1,0,0:0:0:0:
36,192,145232,1,0,0:0:0:0:
402,192,145320,1,0,0:0:0:0:
109,192,145320,1,0,0:0:0:0:
329,192,145408,1,0,0:0:0:0:
256,192,145408,1,0,0:0:0:0:
182,192,145408,1,0,0:0:0:0:
402,192,145497,1,0,0:0:0:0:
109,192,145497,1,0,0:0:0:0:
36,192,145585,1,0,0:0:0:0:
109,192,145629,1,0,0:0:0:0:
182,192,145673,1,0,0:0:0:0:
256,192,145717,1,0,0:0:0:0:
329,192,145761,1,0,0:0:0:0:
402,192,145805,1,0,0:0:0:0:
475,192,145850,1,0,0:0:0:0:
36,192,145938,128,0,146644:0:0:0:0:
256,192,145938,1,0,0:0:0:0:
109,192,145938,128,0,146644:0:0:0:0:
182,192,145938,128,0,146644:0:0:0:0:
329,192,146026,1,0,0:0:0:0:
475,192,146114,1,0,0:0:0:0:
402,192,146114,1,0,0:0:0:0:
329,192,146202,1,0,0:0:0:0:
256,192,146291,1,0,0:0:0:0:
329,192,146379,1,0,0:0:0:0:
475,192,146467,1,0,0:0:0:0:
402,192,146467,1,0,0:0:0:0:
329,192,146555,1,0,0:0:0:0:
256,192,146644,1,0,0:0:0:0:
402,192,146776,1,0,0:0:0:0:
475,192,146776,1,0,0:0:0:0:
329,192,146776,1,0,0:0:0:0:
109,192,146776,1,0,0:0:0:0:
36,192,146776,1,0,0:0:0:0:
109,192,146908,1,0,0:0:0:0:
36,192,146908,1,0,0:0:0:0:
182,192,146908,1,0,0:0:0:0:
402,192,146908,1,0,0:0:0:0:
475,192,146908,1,0,0:0:0:0:
256,192,146997,1,0,0:0:0:0:
109,192,147085,1,0,0:0:0:0:
36,192,147085,1,0,0:0:0:0:
475,192,147173,1,0,0:0:0:0:
402,192,147173,1,0,0:0:0:0:
109,192,147261,1,0,0:0:0:0:
36,192,147261,1,0,0:0:0:0:
256,192,147349,1,0,0:0:0:0:
402,192,147438,1,0,0:0:0:0:
329,192,147438,1,0,0:0:0:0:
182,192,147526,1,0,0:0:0:0:
109,192,147526,1,0,0:0:0:0:
402,192,147614,1,0,0:0:0:0:
329,192,147614,1,0,0:0:0:0:
256,192,147702,1,0,0:0:0:0:
182,192,147791,1,0,0:0:0:0:
36,192,147791,1,0,0:0:0:0:
475,192,147879,1,0,0:0:0:0:
329,192,147879,1,0,0:0:0:0:
182,192,147967,1,0,0:0:0:0:
36,192,147967,1,0,0:0:0:0:
256,192,148055,1,0,0:0:0:0:
475,192,148144,1,0,0:0:0:0:
329,192,148144,1,0,0:0:0:0:
36,192,148232,1,0,0:0:0:0:
182,192,148232,1,0,0:0:0:0:
475,192,148320,1,0,0:0:0:0:
329,192,148320,1,0,0:0:0:0:
182,192,148408,1,0,0:0:0:0:
402,192,148408,1,0,0:0:0:0:
36,192,148408,1,0,0:0:0:0:
182,192,148585,1,0,0:0:0:0:
402,192,148585,1,0,0:0:0:0:
36,192,148585,1,0,0:0:0:0:
402,192,148761,1,0,0:0:0:0:
109,192,148761,1,0,0:0:0:0:
182,192,148849,1,0,0:0:0:0:
329,192,148849,1,0,0:0:0:0:
402,192,148938,1,0,0:0:0:0:
109,192,148938,1,0,0:0:0:0:
329,192,149026,1,0,0:0:0:0:
182,192,149026,1,0,0:0:0:0:
256,192,149114,1,0,0:0:0:0:
329,192,149158,1,0,0:0:0:0:
36,192,149202,1,0,0:0:0:0:
402,192,149202,1,0,0:0:0:0:
109,192,149247,1,0,0:0:0:0:
475,192,149247,1,0,0:0:0:0:
182,192,149291,1,0,0:0:0:0:
256,192,149335,1,0,0:0:0:0:
329,192,149379,1,0,0:0:0:0:
36,192,149423,1,0,0:0:0:0:
402,192,149423,1,0,0:0:0:0:
109,192,149467,1,0,0:0:0:0:
475,192,149467,1,0,0:0:0:0:
182,192,149511,1,0,0:0:0:0:
256,192,149555,1,0,0:0:0:0:
329,192,149599,1,0,0:0:0:0:
36,192,149644,1,0,0:0:0:0:
402,192,149644,1,0,0:0:0:0:
109,192,149688,1,0,0:0:0:0:
475,192,149688,1,0,0:0:0:0:
182,192,149732,1,0,0:0:0:0:
256,192,149776,1,0,0:0:0:0:
475,192,149820,1,0,0:0:0:0:
36,192,149820,1,0,0:0:0:0:
329,192,149820,1,0,0:0:0:0:
182,192,149997,1,0,0:0:0:0:
329,192,149997,1,0,0:0:0:0:
36,192,149997,1,0,0:0:0:0:
475,192,149997,1,0,0:0:0:0:
182,192,150173,1,0,0:0:0:0:
329,192,150173,1,0,0:0:0:0:
36,192,150173,1,0,0:0:0:0:
475,192,150173,1,0,0:0:0:0:
329,192,150349,1,0,0:0:0:0:
182,192,150349,1,0,0:0:0:0:
36,192,150349,1,0,0:0:0:0:
475,192,150349,1,0,0:0:0:0:
109,192,150526,1,0,0:0:0:0:
182,192,150526,1,0,0:0:0:0:
36,192,150526,128,0,150791:0:0:0:0:
475,192,150526,128,0,150791:0:0:0:0:
402,192,150614,1,0,0:0:0:0:
329,192,150614,1,0,0:0:0:0:
256,192,150614,1,0,0:0:0:0:
182,192,150702,1,0,0:0:0:0:
109,192,150702,1,0,0:0:0:0:
402,192,150791,1,0,0:0:0:0:
329,192,150791,1,0,0:0:0:0:
182,192,150879,1,0,0:0:0:0:
256,192,150879,1,0,0:0:0:0:
109,192,150879,1,0,0:0:0:0:
36,192,150879,128,0,151144:0:0:0:0:
475,192,150879,128,0,151144:0:0:0:0:
402,192,150967,1,0,0:0:0:0:
329,192,150967,1,0,0:0:0:0:
182,192,151055,1,0,0:0:0:0:
109,192,151055,1,0,0:0:0:0:
256,192,151144,1,0,0:0:0:0:
329,192,151144,1,0,0:0:0:0:
182,192,151232,1,0,0:0:0:0:
475,192,151232,1,0,0:0:0:0:
109,192,151232,128,0,151496:0:0:0:0:
402,192,151232,128,0,151496:0:0:0:0:
256,192,151320,1,0,0:0:0:0:
36,192,151408,1,0,0:0:0:0:
329,192,151408,1,0,0:0:0:0:
256,192,151496,1,0,0:0:0:0:
182,192,151585,1,0,0:0:0:0:
475,192,151585,1,0,0:0:0:0:
109,192,151585,128,0,151849:0:0:0:0:
402,192,151585,128,0,151849:0:0:0:0:
256,192,151673,1,0,0:0:0:0:
36,192,151761,1,0,0:0:0:0:
329,192,151761,1,0,0:0:0:0:
256,192,151849,1,0,0:0:0:0:
109,192,151938,1,0,0:0:0:0:
36,192,151938,1,0,0:0:0:0:
182,192,151938,128,0,152202:0:0:0:0:
329,192,151938,128,0,152202:0:0:0:0:
256,192,152026,1,0,0:0:0:0:
475,192,152114,1,0,0:0:0:0:
402,192,152114,1,0,0:0:0:0:
256,192,152202,1,0,0:0:0:0:
109,192,152291,1,0,0:0:0:0:
36,192,152291,1,0,0:0:0:0:
182,192,152291,128,0,152555:0:0:0:0:
329,192,152291,128,0,152555:0:0:0:0:
256,192,152379,1,0,0:0:0:0:
475,192,152467,1,0,0:0:0:0:
402,192,152467,1,0,0:0:0:0:
256,192,152555,1,0,0:0:0:0:
109,192,152644,1,0,0:0:0:0:
402,192,152644,1,0,0:0:0:0:
36,192,152644,128,0,153349:0:0:0:0:
475,192,152644,128,0,153349:0:0:0:0:
329,192,152732,1,0,0:0:0:0:
182,192,152732,1,0,0:0:0:0:
402,192,152820,1,0,0:0:0:0:
109,192,152820,1,0,0:0:0:0:
329,192,152908,1,0,0:0:0:0:
182,192,152908,1,0,0:0:0:0:
402,192,152996,1,0,0:0:0:0:
109,192,152996,1,0,0:0:0:0:
329,192,153085,1,0,0:0:0:0:
182,192,153085,1,0,0:0:0:0:
402,192,153173,1,0,0:0:0:0:
109,192,153173,1,0,0:0:0:0:
329,192,153261,1,0,0:0:0:0:
182,192,153261,1,0,0:0:0:0:
402,192,153349,1,0,0:0:0:0:
256,192,153349,1,0,0:0:0:0:
109,192,153349,1,0,0:0:0:0:
329,192,153438,1,0,0:0:0:0:
182,192,153438,1,0,0:0:0:0:
402,192,153526,1,0,0:0:0:0:
109,192,153526,1,0,0:0:0:0:
475,192,153614,1,0,0:0:0:0:
36,192,153614,1,0,0:0:0:0:
402,192,153702,1,0,0:0:0:0:
109,192,153702,1,0,0:0:0:0:
329,192,153791,1,0,0:0:0:0:
182,192,153791,1,0,0:0:0:0:
475,192,153879,1,0,0:0:0:0:
36,192,153879,1,0,0:0:0:0:
329,192,153967,1,0,0:0:0:0:
182,192,153967,1,0,0:0:0:0:
402,192,154055,1,0,0:0:0:0:
36,192,154055,1,0,0:0:0:0:
475,192,154099,1,0,0:0:0:0:
109,192,154099,1,0,0:0:0:0:
182,192,154144,1,0,0:0:0:0:
256,192,154188,1,0,0:0:0:0:
329,192,154232,1,0,0:0:0:0:
36,192,154276,1,0,0:0:0:0:
402,192,154276,1,0,0:0:0:0:
109,192,154320,1,0,0:0:0:0:
475,192,154320,1,0,0:0:0:0:
182,192,154364,1,0,0:0:0:0:
256,192,154408,1,0,0:0:0:0:
329,192,154452,1,0,0:0:0:0:
36,192,154496,1,0,0:0:0:0:
402,192,154496,1,0,0:0:0:0:
109,192,154541,1,0,0:0:0:0:
475,192,154541,1,0,0:0:0:0:
182,192,154585,1,0,0:0:0:0:
256,192,154629,1,0,0:0:0:0:
329,192,154673,1,0,0:0:0:0:
402,192,154717,1,0,0:0:0:0:
109,192,154761,1,0,0:0:0:0:
475,192,154761,1,0,0:0:0:0:
36,192,154805,1,0,0:0:0:0:
402,192,154805,1,0,0:0:0:0:
329,192,154849,1,0,0:0:0:0:
256,192,154893,1,0,0:0:0:0:
182,192,154938,1,0,0:0:0:0:
475,192,154982,1,0,0:0:0:0:
109,192,154982,1,0,0:0:0:0:
402,192,155026,1,0,0:0:0:0:
36,192,155026,1,0,0:0:0:0:
329,192,155070,1,0,0:0:0:0:
256,192,155114,1,0,0:0:0:0:
182,192,155158,1,0,0:0:0:0:
475,192,155202,1,0,0:0:0:0:
109,192,155202,1,0,0:0:0:0:
402,192,155246,1,0,0:0:0:0:
36,192,155246,1,0,0:0:0:0:
329,192,155291,1,0,0:0:0:0:
256,192,155335,1,0,0:0:0:0:
182,192,155379,1,0,0:0:0:0:
109,192,155423,1,0,0:0:0:0:
256,192,155467,1,0,0:0:0:0:
402,192,155467,1,0,0:0:0:0:
36,192,155467,1,0,0:0:0:0:
475,192,155467,1,0,0:0:0:0:
256,192,155643,1,0,0:0:0:0:
36,192,155643,1,0,0:0:0:0:
402,192,155643,1,0,0:0:0:0:
475,192,155643,1,0,0:0:0:0:
402,192,155820,1,0,0:0:0:0:
475,192,155820,1,0,0:0:0:0:
36,192,155820,1,0,0:0:0:0:
256,192,155820,1,0,0:0:0:0:
402,192,155996,1,0,0:0:0:0:
475,192,155996,1,0,0:0:0:0:
36,192,155996,1,0,0:0:0:0:
256,192,155996,1,0,0:0:0:0:
402,192,156173,1,0,0:0:0:0:
109,192,156173,1,0,0:0:0:0:
36,192,156173,1,0,0:0:0:0:
256,192,156173,1,0,0:0:0:0:
36,192,156349,1,0,0:0:0:0:
109,192,156349,1,0,0:0:0:0:
402,192,156349,1,0,0:0:0:0:
256,192,156349,1,0,0:0:0:0:
402,192,156526,1,0,0:0:0:0:
109,192,156526,1,0,0:0:0:0:
36,192,156526,1,0,0:0:0:0:
256,192,156526,1,0,0:0:0:0:
402,192,156702,1,0,0:0:0:0:
109,192,156702,1,0,0:0:0:0:
256,192,156702,1,0,0:0:0:0:
36,192,156702,1,0,0:0:0:0:
182,192,156879,1,0,0:0:0:0:
109,192,156879,1,0,0:0:0:0:
329,192,156879,1,0,0:0:0:0:
402,192,156879,1,0,0:0:0:0:
329,192,157055,1,0,0:0:0:0:
402,192,157055,1,0,0:0:0:0:
109,192,157055,1,0,0:0:0:0:
182,192,157055,1,0,0:0:0:0:
329,192,157232,1,0,0:0:0:0:
402,192,157232,1,0,0:0:0:0:
109,192,157232,1,0,0:0:0:0:
182,192,157232,1,0,0:0:0:0:
329,192,157408,1,0,0:0:0:0:
402,192,157408,1,0,0:0:0:0:
109,192,157408,1,0,0:0:0:0:
182,192,157408,1,0,0:0:0:0:
402,192,157585,1,0,0:0:0:0:
475,192,157585,1,0,0:0:0:0:
36,192,157585,1,0,0:0:0:0:
109,192,157585,1,0,0:0:0:0:
402,192,157761,1,0,0:0:0:0:
475,192,157761,1,0,0:0:0:0:
36,192,157761,1,0,0:0:0:0:
109,192,157761,1,0,0:0:0:0:
402,192,157938,1,0,0:0:0:0:
475,192,157938,1,0,0:0:0:0:
36,192,157938,1,0,0:0:0:0:
109,192,157938,1,0,0:0:0:0:
402,192,158114,1,0,0:0:0:0:
475,192,158114,1,0,0:0:0:0:
36,192,158114,1,0,0:0:0:0:
109,192,158114,1,0,0:0:0:0:
329,192,158290,1,0,0:0:0:0:
36,192,158290,1,0,0:0:0:0:
182,192,158290,1,0,0:0:0:0:
256,192,158290,1,0,0:0:0:0:
329,192,158467,1,0,0:0:0:0:
36,192,158467,1,0,0:0:0:0:
182,192,158467,1,0,0:0:0:0:
256,192,158467,1,0,0:0:0:0:
329,192,158643,1,0,0:0:0:0:
36,192,158643,1,0,0:0:0:0:
182,192,158643,1,0,0:0:0:0:
256,192,158643,1,0,0:0:0:0:
329,192,158908,1,0,0:0:0:0:
475,192,158908,1,0,0:0:0:0:
182,192,158908,1,0,0:0:0:0:
256,192,158908,1,0,0:0:0:0:
329,192,159085,1,0,0:0:0:0:
475,192,159085,1,0,0:0:0:0:
182,192,159085,1,0,0:0:0:0:
256,192,159085,1,0,0:0:0:0:
329,192,159261,1,0,0:0:0:0:
475,192,159261,1,0,0:0:0:0:
182,192,159261,1,0,0:0:0:0:
256,192,159261,1,0,0:0:0:0:
182,192,159438,1,0,0:0:0:0:
475,192,159438,1,0,0:0:0:0:
329,192,159438,1,0,0:0:0:0:
256,192,159438,1,0,0:0:0:0:
256,192,159526,1,0,0:0:0:0:
475,192,159526,1,0,0:0:0:0:
182,192,159526,1,0,0:0:0:0:
329,192,159526,1,0,0:0:0:0:
182,192,159614,1,0,0:0:0:0:
329,192,159614,1,0,0:0:0:0:
256,192,159614,1,0,0:0:0:0:
475,192,159614,1,0,0:0:0:0:
109,192,159702,1,0,0:0:0:0:
182,192,159702,1,0,0:0:0:0:
256,192,159702,1,0,0:0:0:0:
329,192,159702,1,0,0:0:0:0:
329,192,159879,1,0,0:0:0:0:
109,192,159879,1,0,0:0:0:0:
182,192,159879,1,0,0:0:0:0:
256,192,159879,1,0,0:0:0:0:
329,192,160055,1,0,0:0:0:0:
109,192,160055,1,0,0:0:0:0:
256,192,160055,1,0,0:0:0:0:
182,192,160055,1,0,0:0:0:0:
329,192,160320,1,0,0:0:0:0:
402,192,160320,1,0,0:0:0:0:
182,192,160320,1,0,0:0:0:0:
256,192,160320,1,0,0:0:0:0:
329,192,160496,1,0,0:0:0:0:
402,192,160496,1,0,0:0:0:0:
182,192,160496,1,0,0:0:0:0:
256,192,160496,1,0,0:0:0:0:
329,192,160673,1,0,0:0:0:0:
402,192,160673,1,0,0:0:0:0:
182,192,160673,1,0,0:0:0:0:
256,192,160673,1,0,0:0:0:0:
329,192,160849,1,0,0:0:0:0:
182,192,160849,1,0,0:0:0:0:
256,192,160849,1,0,0:0:0:0:
402,192,160849,1,0,0:0:0:0:
329,192,160938,1,0,0:0:0:0:
402,192,160938,1,0,0:0:0:0:
182,192,160938,1,0,0:0:0:0:
256,192,160938,1,0,0:0:0:0:
256,192,161026,1,0,0:0:0:0:
402,192,161026,1,0,0:0:0:0:
329,192,161026,1,0,0:0:0:0:
182,192,161026,1,0,0:0:0:0:
36,192,161114,1,0,0:0:0:0:
256,192,161114,1,0,0:0:0:0:
402,192,161114,1,0,0:0:0:0:
475,192,161114,1,0,0:0:0:0:
402,192,161290,1,0,0:0:0:0:
475,192,161290,1,0,0:0:0:0:
256,192,161290,1,0,0:0:0:0:
36,192,161290,1,0,0:0:0:0:
36,192,161467,1,0,0:0:0:0:
256,192,161467,1,0,0:0:0:0:
402,192,161467,1,0,0:0:0:0:
475,192,161467,1,0,0:0:0:0:
36,192,161643,1,0,0:0:0:0:
256,192,161643,1,0,0:0:0:0:
402,192,161643,1,0,0:0:0:0:
475,192,161643,1,0,0:0:0:0:
36,192,161820,1,0,0:0:0:0:
256,192,161820,1,0,0:0:0:0:
402,192,161820,1,0,0:0:0:0:
109,192,161820,1,0,0:0:0:0:
402,192,161996,1,0,0:0:0:0:
256,192,161996,1,0,0:0:0:0:
36,192,161996,1,0,0:0:0:0:
109,192,161996,1,0,0:0:0:0:
36,192,162173,1,0,0:0:0:0:
256,192,162173,1,0,0:0:0:0:
402,192,162173,1,0,0:0:0:0:
109,192,162173,1,0,0:0:0:0:
256,192,162349,1,0,0:0:0:0:
36,192,162349,1,0,0:0:0:0:
402,192,162349,1,0,0:0:0:0:
109,192,162349,1,0,0:0:0:0:
329,192,162526,1,0,0:0:0:0:
402,192,162526,1,0,0:0:0:0:
182,192,162526,1,0,0:0:0:0:
109,192,162526,1,0,0:0:0:0:
109,192,162702,1,0,0:0:0:0:
182,192,162702,1,0,0:0:0:0:
329,192,162702,1,0,0:0:0:0:
402,192,162702,1,0,0:0:0:0:
109,192,162879,1,0,0:0:0:0:
182,192,162879,1,0,0:0:0:0:
329,192,162879,1,0,0:0:0:0:
402,192,162879,1,0,0:0:0:0:
109,192,163055,1,0,0:0:0:0:
182,192,163055,1,0,0:0:0:0:
329,192,163055,1,0,0:0:0:0:
402,192,163055,1,0,0:0:0:0:
36,192,163232,1,0,0:0:0:0:
109,192,163232,1,0,0:0:0:0:
402,192,163232,1,0,0:0:0:0:
475,192,163232,1,0,0:0:0:0:
36,192,163408,1,0,0:0:0:0:
109,192,163408,1,0,0:0:0:0:
402,192,163408,1,0,0:0:0:0:
475,192,163408,1,0,0:0:0:0:
36,192,163585,1,0,0:0:0:0:
109,192,163585,1,0,0:0:0:0:
402,192,163585,1,0,0:0:0:0:
475,192,163585,1,0,0:0:0:0:
36,192,163761,1,0,0:0:0:0:
109,192,163761,1,0,0:0:0:0:
402,192,163761,1,0,0:0:0:0:
475,192,163761,1,0,0:0:0:0:
182,192,163937,1,0,0:0:0:0:
256,192,163937,1,0,0:0:0:0:
329,192,163937,1,0,0:0:0:0:
36,192,163937,1,0,0:0:0:0:
182,192,164114,1,0,0:0:0:0:
256,192,164114,1,0,0:0:0:0:
329,192,164114,1,0,0:0:0:0:
36,192,164114,1,0,0:0:0:0:
182,192,164290,1,0,0:0:0:0:
256,192,164290,1,0,0:0:0:0:
329,192,164290,1,0,0:0:0:0:
36,192,164290,1,0,0:0:0:0:
182,192,164555,1,0,0:0:0:0:
256,192,164555,1,0,0:0:0:0:
329,192,164555,1,0,0:0:0:0:
475,192,164555,1,0,0:0:0:0:
182,192,164732,1,0,0:0:0:0:
256,192,164732,1,0,0:0:0:0:
329,192,164732,1,0,0:0:0:0:
475,192,164732,1,0,0:0:0:0:
475,192,164908,1,0,0:0:0:0:
329,192,164908,1,0,0:0:0:0:
256,192,164908,1,0,0:0:0:0:
182,192,164908,1,0,0:0:0:0:
329,192,165084,1,0,0:0:0:0:
256,192,165084,1,0,0:0:0:0:
182,192,165084,1,0,0:0:0:0:
475,192,165084,1,0,0:0:0:0:
475,192,165173,1,0,0:0:0:0:
256,192,165173,1,0,0:0:0:0:
329,192,165173,1,0,0:0:0:0:
182,192,165173,1,0,0:0:0:0:
329,192,165261,1,0,0:0:0:0:
182,192,165261,1,0,0:0:0:0:
475,192,165261,1,0,0:0:0:0:
256,192,165261,1,0,0:0:0:0:
109,192,165349,1,0,0:0:0:0:
182,192,165349,1,0,0:0:0:0:
256,192,165349,1,0,0:0:0:0:
329,192,165349,1,0,0:0:0:0:
182,192,165526,1,0,0:0:0:0:
256,192,165526,1,0,0:0:0:0:
329,192,165526,1,0,0:0:0:0:
109,192,165526,1,0,0:0:0:0:
256,192,165702,1,0,0:0:0:0:
182,192,165702,1,0,0:0:0:0:
329,192,165702,1,0,0:0:0:0:
109,192,165702,1,0,0:0:0:0:
182,192,165967,1,0,0:0:0:0:
256,192,165967,1,0,0:0:0:0:
329,192,165967,1,0,0:0:0:0:
402,192,165967,1,0,0:0:0:0:
182,192,166143,1,0,0:0:0:0:
256,192,166143,1,0,0:0:0:0:
329,192,166143,1,0,0:0:0:0:
402,192,166143,1,0,0:0:0:0:
182,192,166320,1,0,0:0:0:0:
256,192,166320,1,0,0:0:0:0:
329,192,166320,1,0,0:0:0:0:
402,192,166320,1,0,0:0:0:0:
182,192,166496,1,0,0:0:0:0:
256,192,166496,1,0,0:0:0:0:
329,192,166496,1,0,0:0:0:0:
402,192,166496,1,0,0:0:0:0:
402,192,166584,1,0,0:0:0:0:
256,192,166584,1,0,0:0:0:0:
182,192,166584,1,0,0:0:0:0:
329,192,166584,1,0,0:0:0:0:
182,192,166673,1,0,0:0:0:0:
329,192,166673,1,0,0:0:0:0:
402,192,166673,1,0,0:0:0:0:
256,192,166673,1,0,0:0:0:0:
402,192,166761,1,0,0:0:0:0:
475,192,166761,1,0,0:0:0:0:
256,192,166761,1,0,0:0:0:0:
36,192,166761,1,0,0:0:0:0:
402,192,166937,1,0,0:0:0:0:
475,192,166937,1,0,0:0:0:0:
256,192,166937,1,0,0:0:0:0:
36,192,166937,1,0,0:0:0:0:
36,192,167114,1,0,0:0:0:0:
256,192,167114,1,0,0:0:0:0:
402,192,167114,1,0,0:0:0:0:
475,192,167114,1,0,0:0:0:0:
36,192,167290,1,0,0:0:0:0:
256,192,167290,1,0,0:0:0:0:
402,192,167290,1,0,0:0:0:0:
475,192,167290,1,0,0:0:0:0:
36,192,167467,1,0,0:0:0:0:
256,192,167467,1,0,0:0:0:0:
402,192,167467,1,0,0:0:0:0:
109,192,167467,1,0,0:0:0:0:
402,192,167643,1,0,0:0:0:0:
256,192,167643,1,0,0:0:0:0:
36,192,167643,1,0,0:0:0:0:
109,192,167643,1,0,0:0:0:0:
36,192,167820,1,0,0:0:0:0:
256,192,167820,1,0,0:0:0:0:
402,192,167820,1,0,0:0:0:0:
109,192,167820,1,0,0:0:0:0:
256,192,167996,1,0,0:0:0:0:
36,192,167996,1,0,0:0:0:0:
402,192,167996,1,0,0:0:0:0:
109,192,167996,1,0,0:0:0:0:
329,192,168173,1,0,0:0:0:0:
402,192,168173,1,0,0:0:0:0:
182,192,168173,1,0,0:0:0:0:
109,192,168173,1,0,0:0:0:0:
109,192,168349,1,0,0:0:0:0:
182,192,168349,1,0,0:0:0:0:
329,192,168349,1,0,0:0:0:0:
402,192,168349,1,0,0:0:0:0:
109,192,168526,1,0,0:0:0:0:
182,192,168526,1,0,0:0:0:0:
329,192,168526,1,0,0:0:0:0:
402,192,168526,1,0,0:0:0:0:
109,192,168702,1,0,0:0:0:0:
182,192,168702,1,0,0:0:0:0:
329,192,168702,1,0,0:0:0:0:
402,192,168702,1,0,0:0:0:0:
36,192,168879,1,0,0:0:0:0:
109,192,168879,1,0,0:0:0:0:
402,192,168879,1,0,0:0:0:0:
475,192,168879,1,0,0:0:0:0:
36,192,169055,1,0,0:0:0:0:
109,192,169055,1,0,0:0:0:0:
402,192,169055,1,0,0:0:0:0:
475,192,169055,1,0,0:0:0:0:
36,192,169231,1,0,0:0:0:0:
109,192,169231,1,0,0:0:0:0:
402,192,169231,1,0,0:0:0:0:
475,192,169231,1,0,0:0:0:0:
36,192,169408,1,0,0:0:0:0:
109,192,169408,1,0,0:0:0:0:
402,192,169408,1,0,0:0:0:0:
475,192,169408,1,0,0:0:0:0:
182,192,169584,1,0,0:0:0:0:
256,192,169584,1,0,0:0:0:0:
329,192,169584,1,0,0:0:0:0:
36,192,169584,1,0,0:0:0:0:
182,192,169761,1,0,0:0:0:0:
256,192,169761,1,0,0:0:0:0:
329,192,169761,1,0,0:0:0:0:
36,192,169761,1,0,0:0:0:0:
182,192,169937,1,0,0:0:0:0:
256,192,169937,1,0,0:0:0:0:
329,192,169937,1,0,0:0:0:0:
36,192,169937,1,0,0:0:0:0:
182,192,170202,1,0,0:0:0:0:
256,192,170202,1,0,0:0:0:0:
329,192,170202,1,0,0:0:0:0:
475,192,170202,1,0,0:0:0:0:
182,192,170379,1,0,0:0:0:0:
256,192,170379,1,0,0:0:0:0:
329,192,170379,1,0,0:0:0:0:
475,192,170379,1,0,0:0:0:0:
182,192,170555,1,0,0:0:0:0:
256,192,170555,1,0,0:0:0:0:
329,192,170555,1,0,0:0:0:0:
475,192,170555,1,0,0:0:0:0:
329,192,170731,1,0,0:0:0:0:
256,192,170731,1,0,0:0:0:0:
182,192,170731,1,0,0:0:0:0:
475,192,170731,1,0,0:0:0:0:
475,192,170820,1,0,0:0:0:0:
256,192,170820,1,0,0:0:0:0:
329,192,170820,1,0,0:0:0:0:
182,192,170820,1,0,0:0:0:0:
329,192,170908,1,0,0:0:0:0:
182,192,170908,1,0,0:0:0:0:
475,192,170908,1,0,0:0:0:0:
256,192,170908,1,0,0:0:0:0:
109,192,170996,1,0,0:0:0:0:
182,192,170996,1,0,0:0:0:0:
256,192,170996,1,0,0:0:0:0:
329,192,170996,1,0,0:0:0:0:
182,192,171173,1,0,0:0:0:0:
256,192,171173,1,0,0:0:0:0:
329,192,171173,1,0,0:0:0:0:
109,192,171173,1,0,0:0:0:0:
256,192,171349,1,0,0:0:0:0:
182,192,171349,1,0,0:0:0:0:
329,192,171349,1,0,0:0:0:0:
109,192,171349,1,0,0:0:0:0:
182,192,171614,1,0,0:0:0:0:
256,192,171614,1,0,0:0:0:0:
329,192,171614,1,0,0:0:0:0:
402,192,171614,1,0,0:0:0:0:
182,192,171790,1,0,0:0:0:0:
256,192,171790,1,0,0:0:0:0:
329,192,171790,1,0,0:0:0:0:
402,192,171790,1,0,0:0:0:0:
182,192,171967,1,0,0:0:0:0:
256,192,171967,1,0,0:0:0:0:
329,192,171967,1,0,0:0:0:0:
402,192,171967,1,0,0:0:0:0:
182,192,172143,1,0,0:0:0:0:
256,192,172143,1,0,0:0:0:0:
329,192,172143,1,0,0:0:0:0:
402,192,172143,1,0,0:0:0:0:
402,192,172231,1,0,0:0:0:0:
256,192,172231,1,0,0:0:0:0:
182,192,172231,1,0,0:0:0:0:
329,192,172231,1,0,0:0:0:0:
182,192,172320,1,0,0:0:0:0:
329,192,172320,1,0,0:0:0:0:
402,192,172320,1,0,0:0:0:0:
256,192,172320,1,0,0:0:0:0:
256,192,172408,1,0,0:0:0:0:
402,192,172408,1,0,0:0:0:0:
475,192,172408,1,0,0:0:0:0:
36,192,172408,1,0,0:0:0:0:
256,192,172584,1,0,0:0:0:0:
36,192,172584,1,0,0:0:0:0:
402,192,172584,1,0,0:0:0:0:
475,192,172584,1,0,0:0:0:0:
402,192,172761,1,0,0:0:0:0:
475,192,172761,1,0,0:0:0:0:
36,192,172761,1,0,0:0:0:0:
256,192,172761,1,0,0:0:0:0:
402,192,172937,1,0,0:0:0:0:
475,192,172937,1,0,0:0:0:0:
36,192,172937,1,0,0:0:0:0:
256,192,172937,1,0,0:0:0:0:
402,192,173114,1,0,0:0:0:0:
109,192,173114,1,0,0:0:0:0:
36,192,173114,1,0,0:0:0:0:
256,192,173114,1,0,0:0:0:0:
36,192,173290,1,0,0:0:0:0:
109,192,173290,1,0,0:0:0:0:
402,192,173290,1,0,0:0:0:0:
256,192,173290,1,0,0:0:0:0:
402,192,173467,1,0,0:0:0:0:
109,192,173467,1,0,0:0:0:0:
36,192,173467,1,0,0:0:0:0:
256,192,173467,1,0,0:0:0:0:
402,192,173643,1,0,0:0:0:0:
109,192,173643,1,0,0:0:0:0:
256,192,173643,1,0,0:0:0:0:
36,192,173643,1,0,0:0:0:0:
182,192,173820,1,0,0:0:0:0:
109,192,173820,1,0,0:0:0:0:
329,192,173820,1,0,0:0:0:0:
402,192,173820,1,0,0:0:0:0:
329,192,173996,1,0,0:0:0:0:
402,192,173996,1,0,0:0:0:0:
109,192,173996,1,0,0:0:0:0:
182,192,173996,1,0,0:0:0:0:
329,192,174173,1,0,0:0:0:0:
402,192,174173,1,0,0:0:0:0:
109,192,174173,1,0,0:0:0:0:
182,192,174173,1,0,0:0:0:0:
329,192,174349,1,0,0:0:0:0:
402,192,174349,1,0,0:0:0:0:
109,192,174349,1,0,0:0:0:0:
182,192,174349,1,0,0:0:0:0:
402,192,174526,1,0,0:0:0:0:
475,192,174526,1,0,0:0:0:0:
36,192,174526,1,0,0:0:0:0:
109,192,174526,1,0,0:0:0:0:
402,192,174702,1,0,0:0:0:0:
475,192,174702,1,0,0:0:0:0:
36,192,174702,1,0,0:0:0:0:
109,192,174702,1,0,0:0:0:0:
402,192,174878,1,0,0:0:0:0:
475,192,174878,1,0,0:0:0:0:
36,192,174878,1,0,0:0:0:0:
109,192,174878,1,0,0:0:0:0:
402,192,175055,1,0,0:0:0:0:
475,192,175055,1,0,0:0:0:0:
36,192,175055,1,0,0:0:0:0:
109,192,175055,1,0,0:0:0:0:
329,192,175231,1,0,0:0:0:0:
36,192,175231,1,0,0:0:0:0:
182,192,175231,1,0,0:0:0:0:
256,192,175231,1,0,0:0:0:0:
329,192,175408,1,0,0:0:0:0:
36,192,175408,1,0,0:0:0:0:
182,192,175408,1,0,0:0:0:0:
256,192,175408,1,0,0:0:0:0:
329,192,175584,1,0,0:0:0:0:
36,192,175584,1,0,0:0:0:0:
182,192,175584,1,0,0:0:0:0:
256,192,175584,1,0,0:0:0:0:
329,192,175849,1,0,0:0:0:0:
475,192,175849,1,0,0:0:0:0:
182,192,175849,1,0,0:0:0:0:
256,192,175849,1,0,0:0:0:0:
329,192,176025,1,0,0:0:0:0:
475,192,176025,1,0,0:0:0:0:
182,192,176025,1,0,0:0:0:0:
256,192,176025,1,0,0:0:0:0:
329,192,176202,1,0,0:0:0:0:
475,192,176202,1,0,0:0:0:0:
182,192,176202,1,0,0:0:0:0:
256,192,176202,1,0,0:0:0:0:
182,192,176378,1,0,0:0:0:0:
475,192,176378,1,0,0:0:0:0:
329,192,176378,1,0,0:0:0:0:
256,192,176378,1,0,0:0:0:0:
256,192,176467,1,0,0:0:0:0:
475,192,176467,1,0,0:0:0:0:
182,192,176467,1,0,0:0:0:0:
329,192,176467,1,0,0:0:0:0:
182,192,176555,1,0,0:0:0:0:
329,192,176555,1,0,0:0:0:0:
256,192,176555,1,0,0:0:0:0:
475,192,176555,1,0,0:0:0:0:
329,192,176820,1,0,0:0:0:0:
109,192,176820,1,0,0:0:0:0:
182,192,176820,1,0,0:0:0:0:
256,192,176820,1,0,0:0:0:0:
329,192,176996,1,0,0:0:0:0:
109,192,176996,1,0,0:0:0:0:
256,192,176996,1,0,0:0:0:0:
182,192,176996,1,0,0:0:0:0:
329,192,177261,1,0,0:0:0:0:
402,192,177261,1,0,0:0:0:0:
182,192,177261,1,0,0:0:0:0:
256,192,177261,1,0,0:0:0:0:
329,192,177437,1,0,0:0:0:0:
402,192,177437,1,0,0:0:0:0:
182,192,177437,1,0,0:0:0:0:
256,192,177437,1,0,0:0:0:0:
329,192,177614,1,0,0:0:0:0:
402,192,177614,1,0,0:0:0:0:
182,192,177614,1,0,0:0:0:0:
256,192,177614,1,0,0:0:0:0:
329,192,177790,1,0,0:0:0:0:
402,192,177790,1,0,0:0:0:0:
182,192,177790,1,0,0:0:0:0:
256,192,177790,1,0,0:0:0:0:
329,192,177878,1,0,0:0:0:0:
182,192,177878,1,0,0:0:0:0:
256,192,177878,1,0,0:0:0:0:
402,192,177878,1,0,0:0:0:0:
256,192,177967,1,0,0:0:0:0:
402,192,177967,1,0,0:0:0:0:
329,192,177967,1,0,0:0:0:0:
182,192,177967,1,0,0:0:0:0:
36,192,178055,1,0,0:0:0:0:
256,192,178055,1,0,0:0:0:0:
475,192,178055,1,0,0:0:0:0:
109,192,178055,1,0,0:0:0:0:
36,192,178143,1,0,0:0:0:0:
256,192,178143,1,0,0:0:0:0:
475,192,178143,1,0,0:0:0:0:
109,192,178143,1,0,0:0:0:0:
182,192,178231,1,0,0:0:0:0:
402,192,178408,1,0,0:0:0:0:
329,192,178673,1,0,0:0:0:0:
256,192,178849,1,0,0:0:0:0:
182,192,179025,1,0,0:0:0:0:
36,192,179202,1,0,0:0:0:0:
109,192,179290,1,0,0:0:0:0:
182,192,179378,1,0,0:0:0:0:
256,192,179467,1,0,0:0:0:0:
36,192,179467,1,0,0:0:0:0:
475,192,179467,1,0,0:0:0:0:
402,192,179467,1,0,0:0:0:0:
256,192,179555,1,0,0:0:0:0:
36,192,179555,1,0,0:0:0:0:
475,192,179555,1,0,0:0:0:0:
402,192,179555,1,0,0:0:0:0:
329,192,179643,1,0,0:0:0:0:
109,192,179820,1,0,0:0:0:0:
182,192,180084,1,0,0:0:0:0:
256,192,180261,1,0,0:0:0:0:
329,192,180437,1,0,0:0:0:0:
475,192,180614,1,0,0:0:0:0:
402,192,180702,1,0,0:0:0:0:
182,192,180702,1,0,0:0:0:0:
36,192,180702,1,0,0:0:0:0:
256,192,180702,1,0,0:0:0:0:
329,192,180790,1,0,0:0:0:0:
182,192,180878,1,0,0:0:0:0:
256,192,180878,1,0,0:0:0:0:
36,192,180878,1,0,0:0:0:0:
475,192,180878,1,0,0:0:0:0:
109,192,181055,1,0,0:0:0:0:
182,192,181231,1,0,0:0:0:0:
256,192,181496,1,0,0:0:0:0:
329,192,181672,1,0,0:0:0:0:
402,192,181849,1,0,0:0:0:0:
475,192,182025,1,0,0:0:0:0:
402,192,182114,1,0,0:0:0:0:
329,192,182202,1,0,0:0:0:0:
256,192,182290,1,0,0:0:0:0:
36,192,182290,1,0,0:0:0:0:
475,192,182290,1,0,0:0:0:0:
182,192,182290,1,0,0:0:0:0:
256,192,182378,1,0,0:0:0:0:
182,192,182378,1,0,0:0:0:0:
36,192,182378,1,0,0:0:0:0:
475,192,182378,1,0,0:0:0:0:
329,192,182467,1,0,0:0:0:0:
256,192,182643,1,0,0:0:0:0:
36,192,182819,1,0,0:0:0:0:
109,192,182819,1,0,0:0:0:0:
402,192,182819,1,0,0:0:0:0:
475,192,182819,1,0,0:0:0:0:
182,192,182908,1,0,0:0:0:0:
256,192,183084,1,0,0:0:0:0:
329,192,183261,1,0,0:0:0:0:
109,192,183349,1,0,0:0:0:0:
36,192,183349,1,0,0:0:0:0:
402,192,183349,1,0,0:0:0:0:
475,192,183349,1,0,0:0:0:0:
329,192,183437,1,0,0:0:0:0:
256,192,183525,1,0,0:0:0:0:
182,192,183614,1,0,0:0:0:0:
36,192,183702,1,0,0:0:0:0:
402,192,183702,1,0,0:0:0:0:
109,192,183746,1,0,0:0:0:0:
475,192,183746,1,0,0:0:0:0:
182,192,183790,1,0,0:0:0:0:
256,192,183834,1,0,0:0:0:0:
329,192,183878,1,0,0:0:0:0:
402,192,183922,1,0,0:0:0:0:
36,192,183922,1,0,0:0:0:0:
475,192,183967,1,0,0:0:0:0:
109,192,183967,1,0,0:0:0:0:
182,192,184011,1,0,0:0:0:0:
256,192,184055,1,0,0:0:0:0:
329,192,184099,1,0,0:0:0:0:
402,192,184143,1,0,0:0:0:0:
36,192,184143,1,0,0:0:0:0:
475,192,184187,1,0,0:0:0:0:
109,192,184187,1,0,0:0:0:0:
