osu file format v14

[General]
AudioFilename: deefreeyayapprovedaudio.mp3
AudioLeadIn: 0
PreviewTime: 56859
Countdown: 0
SampleSet: Normal
StackLeniency: 0.7
Mode: 1
LetterboxInBreaks: 0
WidescreenStoryboard: 0

[Editor]
DistanceSpacing: 3.4
BeatDivisor: 4
GridSize: 32
TimelineZoom: 1.4

[Metadata]
Title:Frozen Hillside [REMIX]
TitleUnicode:Frozen Hillside [REMIX]
Artist:SQUIDBIRD
ArtistUnicode:SQUIDBIRD
Creator:Zennan
Version:Oni
Source:カービィのエアライド
Tags:videogame video game music vgm instrumental electronic Nintendo 任天堂株式会社 Kirby Kirby's Kirbys no カービィ air ride airride Shogo Shōgo Colda Koruda Korda Hyozan Hyōzan Iceberg 出張サウンドテスト original soundtrack ost business trip sound test nokduro B3E29-4 コルダ 氷山コース Hyouzan Course 酒井省吾 shougo sakai エアライド : ride: (Remix) エアライド:
BeatmapID:3563994
BeatmapSetID:1743372

[Difficulty]
HPDrainRate:5
CircleSize:5
OverallDifficulty:5.5
ApproachRate:5
SliderMultiplier:1.4
SliderTickRate:1

[Events]
//Background and Video events
0,0,"asdf.png",0,-30
//Break Periods
//Storyboard Layer 0 (Background)
//Storyboard Layer 1 (Fail)
//Storyboard Layer 2 (Pass)
//Storyboard Layer 3 (Foreground)
//Storyboard Layer 4 (Overlay)
//Storyboard Sound Samples

[TimingPoints]
563,370.37037037037,4,1,0,75,1,0
3896,-100,4,1,0,40,0,0
5007,-100,4,1,0,50,0,0
6488,-100,4,1,0,60,0,0
30192,-100,4,1,0,50,0,0
31674,-100,4,1,0,40,0,0
33155,-100,4,1,0,70,0,1
45007,-100,4,1,0,70,0,0
53896,-100,4,1,0,50,0,0
55377,-100,4,1,0,40,0,0
56859,-100,4,1,0,75,0,1
80562,-100,4,1,0,35,0,0
83525,-100,4,1,0,75,0,0
86859,-100,4,1,0,40,0,8
87970,-100,4,1,0,50,0,8
89081,-100,4,1,0,70,0,8

[HitObjects]
253,195,563,5,8,0:0:0:0:
253,195,933,1,0,0:0:0:0:
253,195,1025,1,0,0:0:0:0:
253,195,1118,1,8,0:0:0:0:
253,195,1211,1,8,0:0:0:0:
251,189,1303,1,0,0:0:0:0:
253,195,1488,1,0,0:0:0:0:
253,195,1581,1,8,0:0:0:0:
253,195,1674,1,0,0:0:0:0:
253,195,1859,1,0,0:0:0:0:
253,195,1951,1,0,0:0:0:0:
253,195,2044,1,8,0:0:0:0:
253,195,2414,1,8,0:0:0:0:
253,195,2507,1,8,0:0:0:0:
253,195,2600,1,8,0:0:0:0:
253,195,2785,1,0,0:0:0:0:
253,195,2970,1,0,0:0:0:0:
257,202,3063,1,0,0:0:0:0:
261,199,3155,1,8,0:0:0:0:
260,198,3340,1,0,0:0:0:0:
259,201,3525,1,8,0:0:0:0:
261,199,3896,1,0,0:0:0:0:
261,198,4266,1,0,0:0:0:0:
254,195,4637,1,0,0:0:0:0:
246,197,5007,1,0,0:0:0:0:
241,195,5377,1,0,0:0:0:0:
233,196,5748,1,0,0:0:0:0:
235,193,6118,1,0,0:0:0:0:
233,196,6488,1,0,0:0:0:0:
235,193,6859,1,8,0:0:0:0:
236,189,7229,1,8,0:0:0:0:
235,182,7600,1,8,0:0:0:0:
236,183,7970,1,8,0:0:0:0:
235,182,8340,1,0,0:0:0:0:
235,182,8525,1,8,0:0:0:0:
236,183,8711,1,8,0:0:0:0:
234,187,9081,1,8,0:0:0:0:
241,193,9266,1,8,0:0:0:0:
241,193,9451,1,0,0:0:0:0:
240,189,9822,1,8,0:0:0:0:
241,193,10192,1,8,0:0:0:0:
240,189,10563,1,8,0:0:0:0:
241,193,10933,1,8,0:0:0:0:
240,189,11303,1,0,0:0:0:0:
240,189,11488,1,8,0:0:0:0:
241,193,11674,1,8,0:0:0:0:
240,189,12044,1,0,0:0:0:0:
240,189,12229,1,8,0:0:0:0:
232,187,12414,1,0,0:0:0:0:
240,189,12785,1,8,0:0:0:0:
236,183,13155,1,8,0:0:0:0:
240,189,13525,1,8,0:0:0:0:
231,188,13711,1,8,0:0:0:0:
230,187,13896,1,0,0:0:0:0:
229,190,14266,1,0,0:0:0:0:
221,189,14451,1,0,0:0:0:0:
221,188,14637,1,8,0:0:0:0:
220,188,15007,1,8,0:0:0:0:
221,189,15377,1,0,0:0:0:0:
212,183,15748,1,8,0:0:0:0:
214,182,16118,1,8,0:0:0:0:
212,183,16488,1,8,0:0:0:0:
217,180,16674,1,8,0:0:0:0:
217,175,16859,1,0,0:0:0:0:
214,175,17229,1,8,0:0:0:0:
215,174,17414,1,0,0:0:0:0:
215,174,17600,1,0,0:0:0:0:
214,175,17970,1,0,0:0:0:0:
255,190,18340,1,0,0:0:0:0:
255,190,18525,1,0,0:0:0:0:
255,190,18618,1,0,0:0:0:0:
255,190,18711,1,8,0:0:0:0:
255,183,18896,1,0,0:0:0:0:
255,179,19081,1,8,0:0:0:0:
255,183,19266,1,0,0:0:0:0:
255,190,19359,1,0,0:0:0:0:
255,178,19451,1,8,0:0:0:0:
261,177,19822,1,8,0:0:0:0:
255,179,20007,1,8,0:0:0:0:
253,178,20192,1,0,0:0:0:0:
257,172,20377,1,8,0:0:0:0:
254,172,20563,1,8,0:0:0:0:
255,171,20933,1,0,0:0:0:0:
257,172,21303,1,0,0:0:0:0:
253,164,21488,1,0,0:0:0:0:
254,172,21581,1,0,0:0:0:0:
253,164,21674,1,8,0:0:0:0:
255,171,21859,1,8,0:0:0:0:
251,164,22044,1,8,0:0:0:0:
247,163,22229,1,0,0:0:0:0:
257,172,22322,1,0,0:0:0:0:
246,163,22414,1,8,0:0:0:0:
246,162,22785,1,8,0:0:0:0:
244,166,22970,1,8,0:0:0:0:
241,163,23155,1,0,0:0:0:0:
246,163,23340,1,8,0:0:0:0:
246,162,23525,1,8,0:0:0:0:
246,162,23711,1,0,0:0:0:0:
246,162,23803,1,0,0:0:0:0:
244,166,23896,1,8,0:0:0:0:
254,187,24266,1,0,0:0:0:0:
252,187,24451,1,8,0:0:0:0:
254,187,24544,1,0,0:0:0:0:
251,188,24637,1,8,0:0:0:0:
251,188,24822,1,0,0:0:0:0:
254,187,25007,1,8,0:0:0:0:
254,187,25192,1,0,0:0:0:0:
252,187,25377,1,8,0:0:0:0:
251,188,25563,1,8,0:0:0:0:
251,188,25655,1,8,0:0:0:0:
251,188,25748,1,0,0:0:0:0:
254,187,26118,1,0,0:0:0:0:
245,181,26303,1,0,0:0:0:0:
244,182,26488,1,8,0:0:0:0:
241,181,26674,1,8,0:0:0:0:
241,179,26859,1,0,0:0:0:0:
245,181,27229,1,0,0:0:0:0:
239,177,27414,1,0,0:0:0:0:
244,182,27507,1,0,0:0:0:0:
235,182,27600,1,8,0:0:0:0:
241,179,27785,1,0,0:0:0:0:
237,176,27970,1,8,0:0:0:0:
237,176,28155,1,0,0:0:0:0:
239,177,28340,1,0,0:0:0:0:
237,175,28525,1,8,0:0:0:0:
235,182,28618,1,8,0:0:0:0:
237,176,28711,1,0,0:0:0:0:
237,176,29081,1,8,0:0:0:0:
234,174,29266,1,0,0:0:0:0:
237,175,29451,1,0,0:0:0:0:
237,176,29637,1,0,0:0:0:0:
237,176,29729,1,0,0:0:0:0:
237,176,29822,1,8,0:0:0:0:
234,174,30192,1,0,0:0:0:0:
237,176,30563,1,0,0:0:0:0:
240,169,30748,1,0,0:0:0:0:
238,165,30840,1,0,0:0:0:0:
234,174,30933,1,8,0:0:0:0:
237,176,31303,1,0,0:0:0:0:
233,154,31674,1,8,0:0:0:0:
228,162,31859,1,8,0:0:0:0:
229,160,32044,1,0,0:0:0:0:
229,161,32229,1,0,0:0:0:0:
255,195,32414,1,8,0:0:0:0:
255,195,32507,1,8,0:0:0:0:
256,199,32600,1,0,0:0:0:0:
254,200,32692,1,0,0:0:0:0:
255,195,32785,1,8,0:0:0:0:
255,195,33155,1,0,0:0:0:0:
255,195,33248,1,0,0:0:0:0:
255,195,33340,1,8,0:0:0:0:
252,202,33433,1,8,0:0:0:0:
255,195,33525,1,0,0:0:0:0:
255,195,33711,1,0,0:0:0:0:
253,190,33896,1,8,0:0:0:0:
255,195,34081,1,8,0:0:0:0:
255,195,34266,1,0,0:0:0:0:
255,195,34637,1,0,0:0:0:0:
255,195,34729,1,0,0:0:0:0:
259,195,34822,1,8,0:0:0:0:
255,195,35007,1,0,0:0:0:0:
255,195,35192,1,8,0:0:0:0:
253,190,35377,1,0,0:0:0:0:
252,187,35563,1,0,0:0:0:0:
259,195,35655,1,0,0:0:0:0:
258,198,35748,1,8,0:0:0:0:
261,193,36118,1,8,0:0:0:0:
261,193,36303,1,8,0:0:0:0:
252,187,36488,1,0,0:0:0:0:
249,182,36674,1,0,0:0:0:0:
250,178,36859,1,8,0:0:0:0:
246,178,37229,1,8,0:0:0:0:
242,171,37414,1,0,0:0:0:0:
241,170,37600,1,0,0:0:0:0:
241,170,37785,1,8,0:0:0:0:
238,169,37877,1,8,0:0:0:0:
237,169,37970,1,0,0:0:0:0:
242,171,38340,1,0,0:0:0:0:
241,170,38525,1,8,0:0:0:0:
241,170,38711,1,0,0:0:0:0:
249,164,39081,1,8,0:0:0:0:
242,171,39266,1,8,0:0:0:0:
241,173,39359,1,8,0:0:0:0:
241,170,39451,1,0,0:0:0:0:
241,170,39637,1,0,0:0:0:0:
241,173,39822,1,8,0:0:0:0:
241,173,40007,1,0,0:0:0:0:
240,176,40100,1,0,0:0:0:0:
242,171,40192,1,8,0:0:0:0:
241,170,40563,1,0,0:0:0:0:
237,168,40748,1,0,0:0:0:0:
247,164,40840,1,0,0:0:0:0:
236,170,40933,1,8,0:0:0:0:
234,167,41118,1,8,0:0:0:0:
232,166,41303,1,0,0:0:0:0:
234,165,41396,1,0,0:0:0:0:
230,167,41488,1,8,0:0:0:0:
228,171,41674,1,8,0:0:0:0:
227,171,42044,1,8,0:0:0:0:
226,172,42229,1,0,0:0:0:0:
226,172,42322,1,0,0:0:0:0:
226,172,42414,1,8,0:0:0:0:
228,171,42600,1,0,0:0:0:0:
227,171,42785,1,0,0:0:0:0:
227,171,42970,1,0,0:0:0:0:
226,172,43155,1,8,0:0:0:0:
224,183,43525,1,0,0:0:0:0:
224,183,43711,1,8,0:0:0:0:
224,182,43896,1,0,0:0:0:0:
224,182,44081,1,8,0:0:0:0:
223,182,44266,1,0,0:0:0:0:
224,183,44637,1,0,0:0:0:0:
224,183,44729,1,0,0:0:0:0:
224,182,44822,1,0,0:0:0:0:
224,182,44914,1,0,0:0:0:0:
224,182,45007,1,8,0:0:0:0:
224,183,45377,1,0,0:0:0:0:
224,183,45563,1,0,0:0:0:0:
224,183,45748,1,8,0:0:0:0:
224,183,46118,1,8,0:0:0:0:
224,182,46303,1,8,0:0:0:0:
223,175,46488,1,0,0:0:0:0:
224,173,46859,1,0,0:0:0:0:
222,174,47044,1,0,0:0:0:0:
223,175,47229,1,8,0:0:0:0:
223,175,47414,1,0,0:0:0:0:
224,173,47600,1,8,0:0:0:0:
222,174,47970,1,8,0:0:0:0:
217,171,48155,1,8,0:0:0:0:
216,173,48340,1,0,0:0:0:0:
216,174,48525,1,0,0:0:0:0:
216,174,48711,1,8,0:0:0:0:
216,174,48896,1,0,0:0:0:0:
217,171,49081,1,8,0:0:0:0:
216,174,49451,1,8,0:0:0:0:
216,174,49637,1,8,0:0:0:0:
216,174,49822,1,0,0:0:0:0:
212,163,50007,1,8,0:0:0:0:
212,160,50192,1,8,0:0:0:0:
215,161,50563,1,0,0:0:0:0:
214,162,50748,1,0,0:0:0:0:
211,159,50840,1,0,0:0:0:0:
215,153,50933,1,8,0:0:0:0:
217,156,51303,1,8,0:0:0:0:
211,152,51488,1,0,0:0:0:0:
210,147,51674,1,0,0:0:0:0:
210,145,52044,1,0,0:0:0:0:
210,145,52229,1,8,0:0:0:0:
211,141,52414,1,0,0:0:0:0:
210,141,52600,1,8,0:0:0:0:
207,136,52785,1,8,0:0:0:0:
211,137,52970,1,0,0:0:0:0:
205,130,53155,1,0,0:0:0:0:
205,125,53525,1,8,0:0:0:0:
208,123,53711,1,8,0:0:0:0:
206,125,53896,1,8,0:0:0:0:
205,125,54266,1,0,0:0:0:0:
201,120,54637,1,0,0:0:0:0:
200,116,55007,1,0,0:0:0:0:
199,113,55377,1,8,0:0:0:0:
198,108,55563,1,0,0:0:0:0:
198,108,55748,1,0,0:0:0:0:
199,111,55933,1,0,0:0:0:0:
199,113,56118,1,0,0:0:0:0:
199,113,56303,1,0,0:0:0:0:
207,109,56488,1,8,0:0:0:0:
199,111,56859,1,0,0:0:0:0:
199,113,57044,1,8,0:0:0:0:
199,113,57137,1,8,0:0:0:0:
199,113,57229,1,0,0:0:0:0:
200,114,57414,1,8,0:0:0:0:
191,111,57600,1,0,0:0:0:0:
195,113,57785,1,8,0:0:0:0:
199,111,57877,1,8,0:0:0:0:
194,114,57970,1,0,0:0:0:0:
192,112,58340,1,0,0:0:0:0:
191,114,58525,1,0,0:0:0:0:
191,111,58618,1,8,0:0:0:0:
191,110,58711,1,0,0:0:0:0:
189,112,58896,1,0,0:0:0:0:
184,113,59081,1,0,0:0:0:0:
182,113,59266,1,8,0:0:0:0:
179,113,59451,1,8,0:0:0:0:
178,112,59822,1,0,0:0:0:0:
178,110,60007,1,0,0:0:0:0:
179,108,60100,1,8,0:0:0:0:
179,108,60192,1,0,0:0:0:0:
179,113,60377,1,8,0:0:0:0:
178,112,60563,1,0,0:0:0:0:
178,112,60748,1,0,0:0:0:0:
178,112,60840,1,8,0:0:0:0:
178,110,60933,1,0,0:0:0:0:
171,103,61118,1,8,0:0:0:0:
180,126,61303,1,0,0:0:0:0:
176,122,61488,1,8,0:0:0:0:
182,129,61581,1,8,0:0:0:0:
178,128,61674,1,0,0:0:0:0:
181,127,61859,1,0,0:0:0:0:
180,126,62044,1,0,0:0:0:0:
180,126,62229,1,8,0:0:0:0:
178,127,62414,1,8,0:0:0:0:
181,127,62785,1,0,0:0:0:0:
181,127,62877,1,0,0:0:0:0:
180,126,62970,1,8,0:0:0:0:
180,126,63155,1,0,0:0:0:0:
178,127,63340,1,8,0:0:0:0:
181,127,63525,1,0,0:0:0:0:
181,127,63618,1,0,0:0:0:0:
181,127,63711,1,8,0:0:0:0:
171,134,63896,1,0,0:0:0:0:
171,132,64266,1,0,0:0:0:0:
171,131,64451,1,8,0:0:0:0:
171,131,64544,1,8,0:0:0:0:
171,131,64637,1,0,0:0:0:0:
171,134,64822,1,0,0:0:0:0:
171,137,65007,1,0,0:0:0:0:
173,136,65377,1,8,0:0:0:0:
166,129,65748,1,0,0:0:0:0:
170,120,66118,1,0,0:0:0:0:
166,120,66488,1,8,0:0:0:0:
173,118,66674,1,0,0:0:0:0:
166,120,66859,1,8,0:0:0:0:
166,120,67229,1,8,0:0:0:0:
168,117,67600,1,0,0:0:0:0:
170,120,67785,1,0,0:0:0:0:
170,120,67970,1,8,0:0:0:0:
168,117,68155,1,0,0:0:0:0:
172,117,68248,1,0,0:0:0:0:
168,117,68340,1,8,0:0:0:0:
172,115,68525,1,0,0:0:0:0:
170,120,68711,1,0,0:0:0:0:
254,191,68896,1,8,0:0:0:0:
254,191,68988,1,8,0:0:0:0:
254,191,69081,1,0,0:0:0:0:
254,191,69266,1,8,0:0:0:0:
254,191,69451,1,0,0:0:0:0:
254,191,69637,1,8,0:0:0:0:
256,184,69822,1,0,0:0:0:0:
257,187,70192,1,0,0:0:0:0:
259,183,70285,1,0,0:0:0:0:
259,183,70377,1,8,0:0:0:0:
259,183,70470,1,8,0:0:0:0:
259,183,70563,1,0,0:0:0:0:
259,177,70748,1,0,0:0:0:0:
259,174,70933,1,8,0:0:0:0:
259,176,71118,1,0,0:0:0:0:
259,176,71303,1,8,0:0:0:0:
259,177,71674,1,0,0:0:0:0:
259,174,71859,1,8,0:0:0:0:
259,174,71951,1,8,0:0:0:0:
259,176,72044,1,0,0:0:0:0:
259,176,72229,1,8,0:0:0:0:
264,174,72414,1,0,0:0:0:0:
263,172,72600,1,8,0:0:0:0:
261,171,72785,1,0,0:0:0:0:
264,174,73155,1,0,0:0:0:0:
264,174,73248,1,0,0:0:0:0:
264,174,73340,1,8,0:0:0:0:
264,174,73433,1,8,0:0:0:0:
263,172,73525,1,0,0:0:0:0:
269,178,73711,1,0,0:0:0:0:
266,178,73896,1,0,0:0:0:0:
267,169,74081,1,8,0:0:0:0:
264,174,74266,1,8,0:0:0:0:
265,169,74637,1,0,0:0:0:0:
263,167,74822,1,8,0:0:0:0:
264,174,74914,1,8,0:0:0:0:
264,174,75007,1,0,0:0:0:0:
264,174,75192,1,8,0:0:0:0:
258,172,75377,1,0,0:0:0:0:
265,169,75563,1,8,0:0:0:0:
265,169,75655,1,8,0:0:0:0:
263,167,75748,1,0,0:0:0:0:
264,174,75933,1,8,0:0:0:0:
264,174,76118,1,0,0:0:0:0:
265,172,76303,1,8,0:0:0:0:
260,176,76396,1,0,0:0:0:0:
264,172,76488,1,8,0:0:0:0:
265,169,76581,1,0,0:0:0:0:
260,179,76674,1,8,0:0:0:0:
258,179,76859,1,0,0:0:0:0:
258,179,77229,1,0,0:0:0:0:
260,179,77600,1,0,0:0:0:0:
261,174,77785,1,0,0:0:0:0:
258,179,77970,1,8,0:0:0:0:
258,172,78340,1,8,0:0:0:0:
260,171,78525,1,0,0:0:0:0:
256,168,78711,1,8,0:0:0:0:
246,173,79081,1,8,0:0:0:0:
246,173,79451,1,0,0:0:0:0:
246,173,79637,1,0,0:0:0:0:
246,173,79822,1,8,0:0:0:0:
246,173,80007,1,0,0:0:0:0:
246,173,80192,1,8,0:0:0:0:
246,173,80377,1,8,0:0:0:0:
252,167,80563,1,0,0:0:0:0:
255,183,81303,1,0,0:0:0:0:
264,176,82044,1,0,0:0:0:0:
264,176,82785,1,0,0:0:0:0:
255,197,83525,1,8,0:0:0:0:
259,199,83896,1,0,0:0:0:0:
260,198,83988,1,0,0:0:0:0:
248,203,84081,1,8,0:0:0:0:
249,206,84174,1,8,0:0:0:0:
248,206,84266,1,0,0:0:0:0:
255,203,84451,1,8,0:0:0:0:
256,202,84544,1,8,0:0:0:0:
259,199,84637,1,0,0:0:0:0:
264,202,84822,1,0,0:0:0:0:
253,199,84914,1,0,0:0:0:0:
253,199,85007,1,8,0:0:0:0:
259,197,85377,1,8,0:0:0:0:
256,196,85470,1,8,0:0:0:0:
256,202,85563,1,0,0:0:0:0:
246,201,85748,1,0,0:0:0:0:
253,199,85933,1,8,0:0:0:0:
253,199,86025,1,8,0:0:0:0:
251,198,86118,1,0,0:0:0:0:
251,198,86303,1,0,0:0:0:0:
250,197,86488,1,8,0:0:0:0:
253,199,86859,1,0,0:0:0:0:
251,198,87229,1,0,0:0:0:0:
250,206,87600,1,0,0:0:0:0:
252,188,87970,1,0,0:0:0:0:
254,182,88340,1,0,0:0:0:0:
252,188,88711,1,0,0:0:0:0:
251,187,89081,1,0,0:0:0:0:
