osu file format v14

[General]
AudioFilename: deefreeyayapprovedaudio.mp3
AudioLeadIn: 0
PreviewTime: 56859
Countdown: 0
SampleSet: Normal
StackLeniency: 0.7
Mode: 1
LetterboxInBreaks: 0
WidescreenStoryboard: 1

[Editor]
DistanceSpacing: 3.4
BeatDivisor: 1
GridSize: 32
TimelineZoom: 1.2

[Metadata]
Title:Frozen Hillside [REMIX]
TitleUnicode:Frozen Hillside [REMIX]
Artist:SQUIDBIRD
ArtistUnicode:SQUIDBIRD
Creator:Zennan
Version:Kantan
Source:カービィのエアライド
Tags:videogame video game music vgm instrumental electronic Nintendo 任天堂株式会社 Kirby Kirby's Kirbys no カービィ air ride airride Shogo Shōgo Colda Koruda Korda Hyozan Hyōzan Iceberg 出張サウンドテスト original soundtrack ost business trip sound test nokduro B3E29-4 コルダ 氷山コース Hyouzan Course 酒井省吾 shougo sakai エアライド : ride: (Remix) エアライド:
BeatmapID:3564047
BeatmapSetID:1743372

[Difficulty]
HPDrainRate:8
CircleSize:5
OverallDifficulty:2.5
ApproachRate:5
SliderMultiplier:1.4
SliderTickRate:1

[Events]
//Background and Video events
0,0,"asdf.png",0,-30
//Break Periods
//Storyboard Layer 0 (Background)
//Storyboard Layer 1 (Fail)
//Storyboard Layer 2 (Pass)
//Storyboard Layer 3 (Foreground)
//Storyboard Layer 4 (Overlay)
//Storyboard Sound Samples

[TimingPoints]
563,370.37037037037,4,1,0,75,1,0
3896,-100,4,1,0,40,0,0
5007,-100,4,1,0,50,0,0
6488,-100,4,1,0,60,0,0
30192,-100,4,1,0,50,0,0
31674,-100,4,1,0,40,0,0
33155,-100,4,1,0,70,0,1
45007,-100,4,1,0,70,0,0
53896,-100,4,1,0,50,0,0
55377,-100,4,1,0,40,0,0
56859,-100,4,1,0,75,0,1
80562,-100,4,1,0,35,0,0
83525,-100,4,1,0,75,0,0
86859,-100,4,1,0,40,0,8
87970,-100,4,1,0,50,0,8

[HitObjects]
253,195,563,5,8,0:0:0:0:
253,195,933,1,8,0:0:0:0:
251,189,1303,1,0,0:0:0:0:
253,195,2044,1,0,0:0:0:0:
253,195,2414,1,8,0:0:0:0:
253,195,2785,1,0,0:0:0:0:
259,201,3525,1,8,0:0:0:0:
246,197,5007,1,0,0:0:0:0:
233,196,6488,1,0,0:0:0:0:
235,193,6859,1,8,0:0:0:0:
236,189,7229,1,8,0:0:0:0:
236,183,7970,1,8,0:0:0:0:
236,183,8711,1,8,0:0:0:0:
241,193,9451,1,0,0:0:0:0:
240,189,9822,1,8,0:0:0:0:
241,193,10192,1,8,0:0:0:0:
241,193,10933,1,8,0:0:0:0:
232,187,12414,1,0,0:0:0:0:
240,189,12785,1,8,0:0:0:0:
236,183,13155,1,8,0:0:0:0:
230,187,13896,1,0,0:0:0:0:
226,182,14266,1,0,0:0:0:0:
221,188,14637,1,8,0:0:0:0:
221,189,15377,1,0,0:0:0:0:
212,183,15748,1,8,0:0:0:0:
214,182,16118,1,8,0:0:0:0:
217,175,16859,1,8,0:0:0:0:
255,190,18340,1,0,0:0:0:0:
255,190,18711,1,8,0:0:0:0:
255,179,19081,1,8,0:0:0:0:
255,178,19451,1,8,0:0:0:0:
261,177,19822,1,8,0:0:0:0:
254,172,20563,1,8,0:0:0:0:
257,172,21303,1,0,0:0:0:0:
253,164,21674,1,8,0:0:0:0:
251,164,22044,1,8,0:0:0:0:
246,163,22414,1,8,0:0:0:0:
246,162,22785,1,8,0:0:0:0:
254,187,24266,1,0,0:0:0:0:
251,188,24637,1,8,0:0:0:0:
254,187,25007,1,8,0:0:0:0:
252,187,25377,1,8,0:0:0:0:
251,188,25748,1,0,0:0:0:0:
244,182,26488,1,8,0:0:0:0:
245,181,27229,1,0,0:0:0:0:
235,182,27600,1,8,0:0:0:0:
237,176,27970,1,8,0:0:0:0:
239,177,28340,1,0,0:0:0:0:
237,176,28711,1,0,0:0:0:0:
234,174,30192,1,0,0:0:0:0:
234,174,30933,1,8,0:0:0:0:
233,154,31674,1,0,0:0:0:0:
237,176,32044,1,0,0:0:0:0:
255,195,32414,1,0,0:0:0:0:
255,195,33155,1,0,0:0:0:0:
255,195,33525,1,0,0:0:0:0:
253,190,33896,1,8,0:0:0:0:
255,195,34266,1,8,0:0:0:0:
255,195,34637,1,0,0:0:0:0:
255,195,35748,1,8,0:0:0:0:
261,193,36118,1,8,0:0:0:0:
252,187,36488,1,0,0:0:0:0:
250,178,36859,1,0,0:0:0:0:
241,170,37600,1,0,0:0:0:0:
238,169,37970,1,0,0:0:0:0:
242,171,38340,1,0,0:0:0:0:
249,164,39081,1,8,0:0:0:0:
241,170,39451,1,0,0:0:0:0:
241,173,39822,1,8,0:0:0:0:
242,171,40192,1,0,0:0:0:0:
241,170,40563,1,0,0:0:0:0:
236,170,41674,1,8,0:0:0:0:
227,171,42044,1,8,0:0:0:0:
226,172,42414,1,0,0:0:0:0:
227,171,42785,1,0,0:0:0:0:
224,183,43525,1,8,0:0:0:0:
224,182,43896,1,0,0:0:0:0:
223,182,44266,1,0,0:0:0:0:
224,183,44637,1,0,0:0:0:0:
224,182,45007,1,8,0:0:0:0:
224,183,45748,1,8,0:0:0:0:
223,175,46488,1,0,0:0:0:0:
224,173,47600,1,8,0:0:0:0:
222,174,47970,1,8,0:0:0:0:
217,171,48340,1,8,0:0:0:0:
216,174,48711,1,0,0:0:0:0:
216,174,49451,1,8,0:0:0:0:
212,160,50192,1,8,0:0:0:0:
215,153,50933,1,8,0:0:0:0:
217,156,51303,1,8,0:0:0:0:
210,147,51674,1,0,0:0:0:0:
211,141,52414,1,0,0:0:0:0:
207,136,52785,1,8,0:0:0:0:
205,130,53155,1,0,0:0:0:0:
206,125,53896,1,0,0:0:0:0:
199,113,55377,1,0,0:0:0:0:
207,109,56488,1,8,0:0:0:0:
199,111,56859,1,0,0:0:0:0:
207,109,57229,1,8,0:0:0:0:
191,111,57600,1,0,0:0:0:0:
194,114,57970,1,8,0:0:0:0:
192,112,58340,1,0,0:0:0:0:
184,113,59081,1,0,0:0:0:0:
178,112,59822,1,0,0:0:0:0:
179,108,60192,1,0,0:0:0:0:
178,112,60563,1,0,0:0:0:0:
178,110,60933,1,8,0:0:0:0:
180,126,61303,1,8,0:0:0:0:
181,127,62785,1,0,0:0:0:0:
180,126,63155,1,8,0:0:0:0:
181,127,63525,1,8,0:0:0:0:
171,134,63896,1,8,0:0:0:0:
171,132,64266,1,0,0:0:0:0:
171,131,64637,1,8,0:0:0:0:
171,137,65007,1,0,0:0:0:0:
166,129,65748,1,0,0:0:0:0:
170,120,66118,1,0,0:0:0:0:
166,120,66488,1,8,0:0:0:0:
166,120,67229,1,8,0:0:0:0:
170,120,68711,1,0,0:0:0:0:
254,191,69081,1,8,0:0:0:0:
254,191,69451,1,8,0:0:0:0:
254,191,69822,1,0,0:0:0:0:
257,187,70192,1,8,0:0:0:0:
259,174,70933,1,0,0:0:0:0:
259,174,71674,1,0,0:0:0:0:
264,179,72044,1,8,0:0:0:0:
264,179,72414,1,8,0:0:0:0:
264,174,73155,1,0,0:0:0:0:
265,169,74637,1,0,0:0:0:0:
265,169,75007,1,8,0:0:0:0:
265,169,75377,1,8,0:0:0:0:
265,169,75748,1,0,0:0:0:0:
265,172,76118,1,8,0:0:0:0:
258,179,76859,1,0,0:0:0:0:
258,172,77600,1,0,0:0:0:0:
258,172,77970,1,0,0:0:0:0:
258,172,78340,1,8,0:0:0:0:
256,168,78711,1,8,0:0:0:0:
246,173,79081,1,8,0:0:0:0:
246,173,79822,1,8,0:0:0:0:
246,173,80192,1,8,0:0:0:0:
252,167,80563,1,0,0:0:0:0:
264,176,82044,1,0,0:0:0:0:
255,197,83525,1,8,0:0:0:0:
259,199,83896,1,0,0:0:0:0:
248,206,84266,1,0,0:0:0:0:
253,199,85007,1,0,0:0:0:0:
259,197,85377,1,8,0:0:0:0:
257,198,85748,1,0,0:0:0:0:
250,197,86488,1,8,0:0:0:0:
254,182,87970,1,0,0:0:0:0:
