osu file format v14

[General]
AudioFilename: audio.mp3
AudioLeadIn: 0
PreviewTime: 44812
Countdown: 0
SampleSet: None
StackLeniency: 0.7
Mode: 3
LetterboxInBreaks: 0
SpecialStyle: 0
WidescreenStoryboard: 1

[Editor]
DistanceSpacing: 0.8
BeatDivisor: 8
GridSize: 16
TimelineZoom: 2.899999

[Metadata]
Title:HANAMANA
TitleUnicode:花真名
Artist:SQUAR feat.Dazzbee
ArtistUnicode:SQUAR feat.Dazzbee
Creator:SeonRae
Version:Hard
Source:ride zero
Tags:
BeatmapID:1582972
BeatmapSetID:751926

[Difficulty]
HPDrainRate:6.5
CircleSize:4
OverallDifficulty:6
ApproachRate:5
SliderMultiplier:1.4
SliderTickRate:1

[Events]
//Background and Video events
0,0,"maxresdefault.jpg",0,0
//Break Periods
//Storyboard Layer 0 (Background)
//Storyboard Layer 1 (Fail)
//Storyboard Layer 2 (Pass)
//Storyboard Layer 3 (Foreground)
//Storyboard Sound Samples

[TimingPoints]
-141,375,4,2,2,20,1,0
44859,-100,4,2,2,20,0,1
45609,-100,4,2,2,20,0,0
45984,-100,4,2,2,20,0,1
46734,-100,4,2,2,20,0,0
47109,-100,4,2,2,20,0,1
47859,-100,4,2,2,20,0,0
50859,-100,4,2,2,20,0,1
51609,-100,4,2,2,20,0,0
51984,-100,4,2,2,20,0,1
52734,-100,4,2,2,20,0,0
53109,-100,4,2,2,20,0,1
53859,-100,4,2,2,20,0,0
56859,-100,4,2,2,20,0,1
57609,-100,4,2,2,20,0,0
57984,-100,4,2,2,20,0,1
58734,-100,4,2,2,20,0,0
59109,-100,4,2,2,20,0,1
59859,-100,4,2,2,20,0,0
62859,-100,4,2,2,20,0,1
63609,-100,4,2,2,20,0,0
63984,-100,4,2,2,20,0,1
64734,-100,4,2,2,20,0,0

[HitObjects]
448,192,2859,5,0,1:0:0:0:
448,192,3421,1,0,1:0:0:0:
320,192,3984,1,0,1:0:0:0:
192,192,4077,1,0,1:0:0:0:
320,192,4171,1,0,1:0:0:0:
192,192,4265,1,0,1:0:0:0:
64,192,4359,1,0,1:0:0:0:
64,192,4921,1,0,1:0:0:0:
320,192,5484,1,0,1:0:0:0:
192,192,5577,1,0,1:0:0:0:
320,192,5671,1,0,1:0:0:0:
192,192,5765,1,0,1:0:0:0:
448,192,5859,1,8,1:0:0:0:
320,192,5859,1,0,1:0:0:0:
448,192,6421,1,0,1:0:0:0:
320,192,6421,1,0,1:0:0:0:
64,192,6984,1,0,1:0:0:0:
192,192,6984,1,0,1:0:0:0:
192,192,7359,1,0,1:0:0:0:
64,192,7359,1,0,1:0:0:0:
192,192,7921,1,0,1:0:0:0:
320,192,7921,1,0,1:0:0:0:
448,192,8484,1,0,1:0:0:0:
64,192,8859,128,0,11859:1:0:0:0:
448,192,8859,128,0,11109:1:0:0:0:
320,192,11859,1,0,0:0:0:0:
192,192,12984,1,0,0:0:0:0:
320,192,13734,1,0,0:0:0:0:
448,192,13921,1,0,0:0:0:0:
192,192,14109,1,0,0:0:0:0:
320,192,14296,1,0,0:0:0:0:
192,192,14484,1,0,0:0:0:0:
64,192,14671,1,0,0:0:0:0:
448,192,14859,1,0,0:0:0:0:
320,192,15046,1,0,0:0:0:0:
192,192,15234,1,0,0:0:0:0:
64,192,15421,1,0,0:0:0:0:
320,192,15609,1,0,0:0:0:0:
64,192,15984,128,0,16359:0:0:0:0:
320,192,16359,128,0,16734:0:0:0:0:
192,192,16734,128,0,17109:0:0:0:0:
448,192,17109,128,0,17484:0:0:0:0:
320,192,17484,128,0,17859:0:0:0:0:
64,192,17859,128,0,18421:0:0:0:0:
192,192,18421,128,0,18984:0:0:0:0:
448,192,18984,128,0,19734:0:0:0:0:
320,192,19734,1,0,0:0:0:0:
320,192,20109,128,0,20671:0:0:0:0:
64,192,20671,1,0,0:0:0:0:
64,192,20859,1,0,1:0:0:0:
320,192,20905,1,0,0:0:0:0:
448,192,20952,1,0,0:0:0:0:
320,192,21421,1,0,0:0:0:0:
192,192,21609,1,8,0:0:0:0:
448,192,21609,1,0,0:0:0:0:
448,192,21984,1,0,0:0:0:0:
64,192,22359,1,0,0:0:0:0:
64,192,22546,1,0,1:0:0:0:
448,192,22546,1,0,0:0:0:0:
192,192,22921,1,0,0:0:0:0:
64,192,23109,1,0,0:0:0:0:
320,192,23109,1,8,0:0:0:0:
64,192,23390,1,0,0:0:0:0:
448,192,23671,1,0,0:0:0:0:
320,192,23718,1,0,0:0:0:0:
192,192,23765,1,0,0:0:0:0:
64,192,23812,1,0,0:0:0:0:
448,192,23859,1,0,1:0:0:0:
320,192,24421,1,0,0:0:0:0:
192,192,24609,1,8,0:0:0:0:
448,192,24609,1,0,0:0:0:0:
320,192,24984,1,0,0:0:0:0:
448,192,25359,1,0,0:0:0:0:
448,192,25546,1,0,1:0:0:0:
64,192,25546,1,0,0:0:0:0:
192,192,25921,1,0,0:0:0:0:
64,192,26109,1,0,0:0:0:0:
320,192,26109,1,8,0:0:0:0:
192,192,26484,128,0,26765:0:0:0:0:
448,192,26859,1,4,1:0:0:0:
64,192,26859,1,0,0:0:0:0:
192,192,27046,1,0,0:0:0:0:
320,192,27234,1,0,0:0:0:0:
448,192,27421,1,0,0:0:0:0:
192,192,27609,1,0,1:0:0:0:
64,192,27609,1,8,1:0:0:0:
192,192,27984,128,0,28359:0:0:0:0:
64,192,28359,128,0,28734:0:0:0:0:
448,192,28734,128,0,29109:0:0:0:0:
192,192,29109,1,8,1:0:0:0:
64,192,29109,128,0,29484:0:0:0:0:
448,192,29484,1,0,1:0:0:0:
64,192,29859,1,0,1:0:0:0:
448,192,29859,128,0,30421:0:0:0:0:
64,192,30421,128,0,30984:0:0:0:0:
320,192,30609,1,8,1:0:0:0:
448,192,30609,1,0,1:0:0:0:
448,192,30984,128,0,31734:0:0:0:0:
64,192,31359,1,0,1:0:0:0:
64,192,31546,1,0,1:0:0:0:
320,192,31734,1,0,0:0:0:0:
448,192,32109,1,8,1:0:0:0:
320,192,32109,128,0,32671:1:0:0:0:
64,192,32859,128,0,33609:0:0:0:0:
320,192,33609,128,0,33984:0:0:0:0:
192,192,33984,128,0,34359:0:0:0:0:
448,192,34359,128,0,34921:0:0:0:0:
64,192,34921,128,0,35421:0:0:0:0:
320,192,35421,128,0,35859:0:0:0:0:
448,192,35859,1,0,0:0:0:0:
320,192,35952,1,0,0:0:0:0:
192,192,36046,1,0,0:0:0:0:
64,192,36140,1,0,0:0:0:0:
320,192,36234,1,0,0:0:0:0:
448,192,36327,1,0,0:0:0:0:
192,192,36421,1,0,0:0:0:0:
64,192,36515,1,0,0:0:0:0:
192,192,36609,1,0,0:0:0:0:
320,192,36702,1,0,0:0:0:0:
448,192,36796,1,0,0:0:0:0:
320,192,36890,1,0,0:0:0:0:
64,192,36984,1,0,0:0:0:0:
192,192,37077,1,0,0:0:0:0:
320,192,37171,1,0,0:0:0:0:
448,192,37265,1,0,0:0:0:0:
64,192,37359,1,0,0:0:0:0:
320,192,37359,1,0,0:0:0:0:
192,192,37452,1,0,0:0:0:0:
320,192,37546,1,0,0:0:0:0:
64,192,37640,1,0,0:0:0:0:
448,192,37734,1,0,0:0:0:0:
192,192,37734,1,0,0:0:0:0:
320,192,37827,1,0,0:0:0:0:
192,192,37921,1,0,0:0:0:0:
320,192,38015,1,0,0:0:0:0:
64,192,38109,1,0,0:0:0:0:
448,192,38109,1,0,0:0:0:0:
192,192,38202,1,0,0:0:0:0:
320,192,38296,1,0,0:0:0:0:
448,192,38390,1,0,0:0:0:0:
64,192,38484,1,0,0:0:0:0:
320,192,38484,1,0,0:0:0:0:
192,192,38577,1,0,0:0:0:0:
448,192,38671,1,0,0:0:0:0:
320,192,38765,1,0,0:0:0:0:
192,192,38859,1,0,0:0:0:0:
448,192,38859,1,0,0:0:0:0:
192,192,41859,1,0,0:0:0:0:
64,192,43359,1,0,0:0:0:0:
64,192,44859,128,0,45327:0:0:0:0:
448,192,44859,1,4,1:0:0:0:
192,192,44952,128,0,45421:0:0:0:0:
320,192,45046,128,0,45515:0:0:0:0:
448,192,45140,128,0,45609:0:0:0:0:
64,192,45515,1,8,0:0:0:0:
192,192,45609,1,0,1:0:0:0:
320,192,45609,1,8,1:0:0:0:
448,192,45984,128,0,46452:0:0:0:0:
64,192,45984,1,0,1:0:0:0:
320,192,46077,128,0,46546:0:0:0:0:
192,192,46171,128,0,46640:0:0:0:0:
64,192,46265,128,0,46734:0:0:0:0:
448,192,46734,1,0,1:0:0:0:
64,192,47109,128,0,47577:0:0:0:0:
448,192,47109,1,0,1:0:0:0:
320,192,47109,1,8,1:0:0:0:
192,192,47202,128,0,47671:0:0:0:0:
448,192,47296,128,0,47765:0:0:0:0:
320,192,47390,128,0,47859:0:0:0:0:
64,192,47859,1,0,1:0:0:0:
320,192,48234,1,0,0:0:0:0:
64,192,48609,1,8,1:0:0:0:
192,192,48609,1,8,0:0:0:0:
192,192,48984,1,0,0:0:0:0:
448,192,48984,1,0,0:0:0:0:
320,192,49171,1,0,1:0:0:0:
192,192,49546,1,0,1:0:0:0:
448,192,49734,1,0,0:0:0:0:
192,192,49921,1,0,1:0:0:0:
320,192,50109,1,8,1:0:0:0:
64,192,50109,1,0,1:0:0:0:
192,192,50484,1,0,1:0:0:0:
64,192,50859,1,4,1:0:0:0:
448,192,50859,128,0,51327:0:0:0:0:
320,192,50952,128,0,51421:0:0:0:0:
192,192,51046,128,0,51515:0:0:0:0:
64,192,51140,128,0,51609:0:0:0:0:
448,192,51515,1,8,0:0:0:0:
320,192,51609,1,0,1:0:0:0:
192,192,51609,1,8,1:0:0:0:
448,192,51984,1,0,1:0:0:0:
64,192,51984,128,0,52452:0:0:0:0:
192,192,52077,128,0,52546:0:0:0:0:
320,192,52171,128,0,52640:0:0:0:0:
448,192,52265,128,0,52734:0:0:0:0:
64,192,52734,1,0,1:0:0:0:
192,192,53109,1,8,1:0:0:0:
64,192,53109,1,0,1:0:0:0:
448,192,53109,128,0,53577:0:0:0:0:
320,192,53202,128,0,53671:0:0:0:0:
64,192,53296,128,0,53765:0:0:0:0:
192,192,53390,128,0,53859:0:0:0:0:
448,192,53859,1,0,1:0:0:0:
192,192,54109,1,0,0:0:0:0:
64,192,54171,1,0,0:0:0:0:
448,192,54234,1,0,0:0:0:0:
320,192,54296,1,0,0:0:0:0:
64,192,54359,1,0,0:0:0:0:
192,192,54421,1,0,0:0:0:0:
320,192,54484,1,0,0:0:0:0:
448,192,54546,1,0,0:0:0:0:
192,192,54609,1,8,1:0:0:0:
64,192,54671,1,0,0:0:0:0:
320,192,54734,1,0,0:0:0:0:
448,192,54796,1,0,0:0:0:0:
192,192,54859,1,0,0:0:0:0:
320,192,54921,1,0,0:0:0:0:
64,192,54984,1,0,0:0:0:0:
192,192,55046,1,0,0:0:0:0:
320,192,55109,1,0,0:0:0:0:
448,192,55171,1,0,1:0:0:0:
192,192,55234,1,0,0:0:0:0:
64,192,55296,1,0,0:0:0:0:
320,192,55359,1,0,0:0:0:0:
448,192,55452,1,0,0:0:0:0:
448,192,55780,1,0,0:0:0:0:
320,192,55827,1,0,0:0:0:0:
192,192,55874,1,0,0:0:0:0:
64,192,55921,1,0,0:0:0:0:
64,192,56109,1,0,0:0:0:0:
192,192,56155,1,0,0:0:0:0:
320,192,56202,1,0,0:0:0:0:
448,192,56249,1,0,0:0:0:0:
320,192,56484,128,0,56765:0:0:0:0:
64,192,56859,128,0,57327:0:0:0:0:
448,192,56859,1,4,1:0:0:0:
192,192,56952,128,0,57421:0:0:0:0:
320,192,57046,128,0,57515:0:0:0:0:
448,192,57140,128,0,57609:0:0:0:0:
64,192,57515,1,8,0:0:0:0:
192,192,57609,1,0,1:0:0:0:
320,192,57609,1,8,1:0:0:0:
448,192,57984,128,0,58452:0:0:0:0:
64,192,57984,1,0,1:0:0:0:
320,192,58077,128,0,58546:0:0:0:0:
192,192,58171,128,0,58640:0:0:0:0:
64,192,58265,128,0,58734:0:0:0:0:
448,192,58734,1,0,1:0:0:0:
64,192,59109,128,0,59577:0:0:0:0:
448,192,59109,1,0,1:0:0:0:
320,192,59109,1,8,1:0:0:0:
192,192,59202,128,0,59671:0:0:0:0:
448,192,59296,128,0,59765:0:0:0:0:
320,192,59390,128,0,59859:0:0:0:0:
64,192,59859,1,0,1:0:0:0:
320,192,60234,1,0,0:0:0:0:
64,192,60609,1,0,1:0:0:0:
192,192,60609,1,8,1:0:0:0:
192,192,60984,1,0,0:0:0:0:
448,192,60984,1,0,0:0:0:0:
320,192,61171,1,0,1:0:0:0:
192,192,61546,1,0,1:0:0:0:
448,192,61734,1,0,0:0:0:0:
192,192,61921,1,0,1:0:0:0:
320,192,62109,1,8,1:0:0:0:
64,192,62109,1,0,1:0:0:0:
192,192,62484,1,0,1:0:0:0:
448,192,62859,128,0,63327:0:0:0:0:
64,192,62859,1,4,1:0:0:0:
320,192,62952,128,0,63421:0:0:0:0:
192,192,63046,128,0,63515:0:0:0:0:
64,192,63140,128,0,63609:0:0:0:0:
448,192,63515,1,8,0:0:0:0:
320,192,63609,1,0,1:0:0:0:
192,192,63609,1,8,1:0:0:0:
64,192,63984,128,0,64452:0:0:0:0:
448,192,63984,1,0,1:0:0:0:
192,192,64077,128,0,64546:0:0:0:0:
320,192,64171,128,0,64640:0:0:0:0:
448,192,64265,128,0,64734:0:0:0:0:
64,192,64734,1,0,1:0:0:0:
192,192,64734,1,8,1:0:0:0:
64,192,65109,128,0,68859:1:0:0:0:
448,192,65109,128,0,68859:1:0:0:0:
320,192,68859,1,0,1:0:0:0:
448,192,70359,1,0,0:0:0:0:
448,192,70546,1,0,1:0:0:0:
64,192,71859,1,0,1:0:0:0:
448,192,71859,1,0,0:0:0:0:
64,192,73359,1,0,0:0:0:0:
64,192,73546,1,0,1:0:0:0:
192,192,74109,128,0,74859:0:0:0:0:
448,192,74859,1,0,1:0:0:0:
64,192,74859,1,0,0:0:0:0:
448,192,75421,1,0,1:0:0:0:
192,192,75421,1,0,0:0:0:0:
448,192,75796,1,0,1:0:0:0:
320,192,75796,1,0,0:0:0:0:
448,192,76171,1,0,1:0:0:0:
192,192,76171,1,0,0:0:0:0:
320,192,76359,1,0,0:0:0:0:
64,192,76359,1,0,1:0:0:0:
64,192,76921,1,0,1:0:0:0:
192,192,76921,1,0,0:0:0:0:
320,192,77296,1,0,0:0:0:0:
64,192,77296,1,0,1:0:0:0:
64,192,77671,1,0,1:0:0:0:
320,192,77671,1,0,0:0:0:0:
192,192,77765,1,0,1:0:0:0:
320,192,77812,1,0,1:0:0:0:
448,192,77859,1,0,1:0:0:0:
448,192,78140,1,0,1:0:0:0:
192,192,78140,1,0,0:0:0:0:
320,192,78421,1,0,1:0:0:0:
192,192,78421,1,0,0:0:0:0:
64,192,78702,1,0,0:0:0:0:
320,192,78702,1,0,1:0:0:0:
64,192,78984,1,0,0:0:0:0:
192,192,78984,1,0,1:0:0:0:
64,192,79171,1,0,1:0:0:0:
448,192,79171,1,0,0:0:0:0:
320,192,79359,128,0,80484:0:0:0:0:
192,192,79359,128,0,80484:0:0:0:0:
64,192,80484,1,8,1:0:0:0:
448,192,80484,1,8,1:0:0:0:
320,192,80859,1,8,1:0:0:0:
192,192,80859,1,8,1:0:0:0:
448,192,80859,1,0,1:0:0:0:
64,192,80859,1,0,1:0:0:0:
64,192,81234,128,0,81327:0:0:0:0:
192,192,81280,128,0,81374:0:0:0:0:
192,192,81515,128,0,81609:0:0:0:0:
64,192,81562,128,0,81655:0:0:0:0:
320,192,81609,1,0,1:0:0:0:
448,192,81609,1,8,1:0:0:0:
192,192,81796,1,0,0:0:0:0:
448,192,81796,1,0,0:0:0:0:
64,192,81984,128,0,82077:0:0:0:0:
192,192,82030,128,0,82124:0:0:0:0:
192,192,82265,128,0,82359:0:0:0:0:
64,192,82312,128,0,82405:0:0:0:0:
448,192,82359,1,0,1:0:0:0:
448,192,82546,1,0,1:0:0:0:
192,192,82546,1,0,0:0:0:0:
64,192,82734,128,0,82827:0:0:0:0:
192,192,82780,128,0,82874:0:0:0:0:
192,192,83015,128,0,83109:0:0:0:0:
64,192,83062,128,0,83155:0:0:0:0:
320,192,83109,128,0,83296:0:0:0:0:
448,192,83109,1,8,1:0:0:0:
64,192,83296,128,0,83484:0:0:0:0:
448,192,83484,128,0,83671:0:0:0:0:
192,192,83671,128,0,83859:0:0:0:0:
448,192,83859,1,0,1:0:0:0:
320,192,83859,1,0,0:0:0:0:
448,192,84234,128,0,84327:0:0:0:0:
320,192,84280,128,0,84374:0:0:0:0:
320,192,84515,128,0,84609:0:0:0:0:
448,192,84562,128,0,84655:0:0:0:0:
64,192,84609,1,0,1:0:0:0:
192,192,84609,1,8,1:0:0:0:
64,192,84796,1,0,0:0:0:0:
320,192,84796,1,0,0:0:0:0:
448,192,84984,128,0,85077:0:0:0:0:
320,192,85030,128,0,85124:0:0:0:0:
320,192,85265,128,0,85359:0:0:0:0:
448,192,85312,128,0,85405:0:0:0:0:
64,192,85359,1,0,1:0:0:0:
64,192,85546,1,0,1:0:0:0:
320,192,85546,1,0,0:0:0:0:
192,192,85734,128,0,85827:0:0:0:0:
320,192,85780,128,0,85874:0:0:0:0:
320,192,86015,128,0,86109:0:0:0:0:
192,192,86062,128,0,86155:0:0:0:0:
448,192,86109,1,8,1:0:0:0:
64,192,86109,1,0,1:0:0:0:
320,192,86296,128,0,86484:0:0:0:0:
192,192,86484,1,0,0:0:0:0:
448,192,86484,1,0,0:0:0:0:
64,192,86859,1,0,1:0:0:0:
320,192,86859,1,4,0:0:0:0:
320,192,87234,128,0,87515:0:0:0:0:
64,192,87609,128,0,87843:0:0:0:0:
320,192,87609,1,8,1:0:0:0:
192,192,87655,128,0,87890:0:0:0:0:
448,192,87702,128,0,87937:0:0:0:0:
448,192,88171,1,8,1:0:0:0:
320,192,88171,128,0,88405:0:0:0:0:
192,192,88218,128,0,88452:0:0:0:0:
64,192,88265,128,0,88499:0:0:0:0:
192,192,88734,1,8,1:0:0:0:
448,192,88734,128,0,88968:0:0:0:0:
320,192,88780,128,0,89015:0:0:0:0:
64,192,88827,128,0,89062:0:0:0:0:
192,192,89109,1,8,1:0:0:0:
448,192,89109,1,0,0:0:0:0:
448,192,89296,1,0,0:0:0:0:
320,192,89296,1,0,1:0:0:0:
64,192,89296,128,0,89765:0:0:0:0:
320,192,89859,1,0,1:0:0:0:
192,192,89859,1,0,0:0:0:0:
192,192,90234,128,0,90515:0:0:0:0:
192,192,90609,1,8,1:0:0:0:
448,192,90609,128,0,90843:0:0:0:0:
320,192,90655,128,0,90890:0:0:0:0:
64,192,90702,128,0,90937:0:0:0:0:
64,192,91171,1,8,1:0:0:0:
192,192,91171,128,0,91405:0:0:0:0:
320,192,91218,128,0,91452:0:0:0:0:
448,192,91265,128,0,91499:0:0:0:0:
320,192,91734,1,8,1:0:0:0:
64,192,91734,128,0,91968:0:0:0:0:
192,192,91780,128,0,92015:0:0:0:0:
448,192,91827,128,0,92062:0:0:0:0:
448,192,92296,1,8,1:0:0:0:
320,192,92296,128,0,92624:0:0:0:0:
192,192,92343,128,0,92671:0:0:0:0:
64,192,92390,128,0,92718:0:0:0:0:
448,192,92859,1,0,1:0:0:0:
64,192,92859,1,0,0:0:0:0:
64,192,93234,128,0,93327:0:0:0:0:
192,192,93280,128,0,93374:0:0:0:0:
448,192,93515,128,0,93609:0:0:0:0:
320,192,93562,128,0,93655:0:0:0:0:
64,192,93609,1,0,1:0:0:0:
192,192,93609,1,8,1:0:0:0:
64,192,93796,1,0,0:0:0:0:
448,192,93796,1,0,0:0:0:0:
64,192,93984,128,0,94077:0:0:0:0:
192,192,94030,128,0,94124:0:0:0:0:
448,192,94265,128,0,94359:0:0:0:0:
320,192,94312,128,0,94405:0:0:0:0:
64,192,94359,1,0,1:0:0:0:
64,192,94546,1,0,1:0:0:0:
448,192,94546,1,0,0:0:0:0:
448,192,94734,128,0,94827:0:0:0:0:
320,192,94780,128,0,94874:0:0:0:0:
64,192,95015,128,0,95109:0:0:0:0:
192,192,95062,128,0,95155:0:0:0:0:
448,192,95109,1,8,1:0:0:0:
320,192,95109,128,0,95296:0:0:0:0:
64,192,95296,128,0,95484:0:0:0:0:
448,192,95484,128,0,95671:0:0:0:0:
192,192,95671,128,0,95859:0:0:0:0:
448,192,95859,1,0,1:0:0:0:
64,192,95859,1,0,0:0:0:0:
320,192,96234,128,0,96327:0:0:0:0:
448,192,96280,128,0,96374:0:0:0:0:
192,192,96515,128,0,96609:0:0:0:0:
64,192,96562,128,0,96655:0:0:0:0:
320,192,96609,1,8,1:0:0:0:
448,192,96609,1,0,1:0:0:0:
192,192,96796,1,0,0:0:0:0:
448,192,96796,1,0,1:0:0:0:
320,192,96984,128,0,97077:0:0:0:0:
448,192,97030,128,0,97124:0:0:0:0:
64,192,97171,1,0,1:0:0:0:
192,192,97171,1,0,0:0:0:0:
320,192,97265,1,0,0:0:0:0:
448,192,97265,1,0,1:0:0:0:
64,192,97359,1,0,1:0:0:0:
192,192,97359,1,8,1:0:0:0:
448,192,97640,1,0,1:0:0:0:
320,192,97640,1,8,1:0:0:0:
192,192,97640,1,0,0:0:0:0:
64,192,97921,1,0,1:0:0:0:
192,192,97921,1,8,1:0:0:0:
320,192,97921,1,0,0:0:0:0:
192,192,98109,128,0,98859:1:0:0:0:
320,192,98109,128,0,98859:1:0:0:0:
448,192,98859,128,0,99609:0:0:0:0:
64,192,98859,1,0,1:0:0:0:
192,192,99609,128,0,100359:0:0:0:0:
320,192,99609,1,8,1:0:0:0:
320,192,100359,128,0,101109:0:0:0:0:
64,192,100359,1,0,1:0:0:0:
64,192,101109,128,0,101859:0:0:0:0:
448,192,101109,1,8,1:0:0:0:
192,192,101859,1,0,1:0:0:0:
320,192,102046,128,0,102984:0:0:0:0:
64,192,102609,1,8,1:0:0:0:
64,192,102984,128,0,103359:0:0:0:0:
448,192,103359,128,0,103968:0:0:0:0:
320,192,103405,128,0,104015:0:0:0:0:
192,192,103452,128,0,104062:0:0:0:0:
64,192,103499,128,0,104109:0:0:0:0:
448,192,104109,1,0,0:0:0:0:
320,192,104155,1,0,0:0:0:0:
192,192,104202,1,0,0:0:0:0:
64,192,104249,1,0,0:0:0:0:
448,192,104296,1,0,0:0:0:0:
320,192,104343,1,0,0:0:0:0:
192,192,104390,1,0,0:0:0:0:
64,192,104437,1,0,0:0:0:0:
320,192,104484,1,0,0:0:0:0:
448,192,104530,1,0,0:0:0:0:
64,192,104577,1,0,0:0:0:0:
192,192,104624,1,0,0:0:0:0:
320,192,104671,1,0,0:0:0:0:
448,192,104718,1,0,0:0:0:0:
64,192,104765,1,0,0:0:0:0:
192,192,104812,1,0,0:0:0:0:
320,192,104859,1,0,0:0:0:0:
448,192,104859,1,0,1:0:0:0:
64,192,106359,128,0,107109:0:0:0:0:
320,192,107109,128,0,107859:0:0:0:0:
192,192,107859,128,0,109359:0:0:0:0:
448,192,109359,128,0,110109:0:0:0:0:
320,192,110109,128,0,110859:0:0:0:0:
192,192,110671,1,0,0:0:0:0:
448,192,110859,128,0,113109:0:0:0:0:
64,192,110859,1,0,1:0:0:0:
320,192,111421,1,0,0:0:0:0:
64,192,111609,1,8,0:0:0:0:
320,192,111984,1,0,0:0:0:0:
64,192,112359,1,0,0:0:0:0:
192,192,112546,1,0,1:0:0:0:
320,192,112921,1,0,0:0:0:0:
64,192,113109,128,0,113859:0:0:0:0:
192,192,113109,1,8,0:0:0:0:
320,192,113390,1,0,0:0:0:0:
192,192,113859,128,0,115359:0:0:0:0:
448,192,113859,1,0,1:0:0:0:
64,192,114421,1,0,0:0:0:0:
320,192,114609,1,8,0:0:0:0:
64,192,114984,1,0,0:0:0:0:
64,192,115359,128,0,116859:0:0:0:0:
448,192,115359,1,0,0:0:0:0:
320,192,115546,1,0,1:0:0:0:
192,192,115921,1,0,0:0:0:0:
448,192,116109,1,8,0:0:0:0:
448,192,116859,1,0,1:0:0:0:
