osu file format v14

[General]
AudioFilename: audio.mp3
AudioLeadIn: 0
PreviewTime: 48880
Countdown: 0
SampleSet: Soft
StackLeniency: 0.7
Mode: 0
LetterboxInBreaks: 0
WidescreenStoryboard: 0

[Editor]
Bookmarks: 380,9814
DistanceSpacing: 0.6
BeatDivisor: 4
GridSize: 4
TimelineZoom: 2

[Metadata]
Title:PRIDE OF LIONS (Cut Ver.)
TitleUnicode:PRIDE OF LIONS (Cut Ver.)
Artist:SPYAIR
ArtistUnicode:SPYAIR
Creator:HabiHolic
Version:King
Source:
Tags:UNITE スパイエアー japanese J-Rock Jrock rock KENTA MOMIKEN IKE UZ
BeatmapID:2931366
BeatmapSetID:1423394

[Difficulty]
HPDrainRate:7
CircleSize:4.2
OverallDifficulty:9
ApproachRate:9.3
SliderMultiplier:1.84
SliderTickRate:1

[Events]
//Background and Video events
0,0,"BG.jpeg",0,0
//Break Periods
//Storyboard Layer 0 (Background)
//Storyboard Layer 1 (Fail)
//Storyboard Layer 2 (Pass)
//Storyboard Layer 3 (Foreground)
//Storyboard Layer 4 (Overlay)
//Storyboard Sound Samples

[TimingPoints]
380,285.714285714286,4,2,1,50,1,0
380,-200,4,2,1,50,0,0
2665,-200,4,2,1,70,0,0
4951,-100,4,2,1,70,0,0
10522,-200,4,2,1,70,0,0
19094,-100,4,2,1,70,0,0
37951,-166.666666666667,4,2,1,50,0,0
47237,-100,4,2,1,85,0,0
48951,-200,4,2,1,50,0,0
49522,-76.9230769230769,4,2,1,85,0,0
49951,-100,4,2,1,85,0,0
67792,285.714285714286,4,2,1,70,1,0
76363,-100,4,2,1,50,0,0
76934,-100,4,2,1,70,0,0
85506,-100,4,2,1,60,0,0
86077,-100,4,2,1,65,0,0
88649,-100,4,2,1,75,0,0
89934,-100,4,2,1,30,0,0

[Colours]
Combo1 : 108,70,240
Combo2 : 103,228,219
Combo3 : 0,221,143
Combo4 : 115,155,238

[HitObjects]
62,56,380,5,2,0:0:0:0:
153,31,522,1,2,0:0:0:0:
45,64,665,1,0,0:0:0:0:
128,131,808,2,0,L|219:111,1,92,0|2,0:0|0:0,0:0:0:0:
306,93,1237,1,2,0:0:0:0:
306,93,1380,1,2,0:0:0:0:
231,231,1522,5,2,0:0:0:0:
323,208,1665,1,0,0:0:0:0:
215,236,1808,1,2,0:0:0:0:
296,300,1951,2,0,L|387:280,1,92,0|2,0:0|0:0,0:0:0:0:
440,205,2380,1,2,0:0:0:0:
440,205,2523,1,2,0:0:0:0:
270,141,2665,5,2,0:0:0:0:
159,82,2808,1,0,0:0:0:0:
283,145,2951,1,2,0:0:0:0:
157,210,3094,2,0,L|63:188,1,92,0|2,0:0|0:0,0:0:0:0:
0,257,3522,1,2,0:0:0:0:
0,257,3665,1,2,0:0:0:0:
201,302,3808,5,2,0:0:0:0:
307,219,3951,1,0,0:0:0:0:
188,298,4094,1,2,0:0:0:0:
313,358,4237,2,0,L|405:339,1,92,0|2,0:0|0:0,0:0:0:0:
490,364,4665,1,2,0:0:0:0:
490,364,4808,1,2,0:0:0:0:
476,194,4951,5,8,0:0:0:0:
442,186,5022,1,0,1:0:0:0:
408,179,5094,1,0,1:0:0:0:
374,171,5165,1,0,1:0:0:0:
341,164,5237,2,0,L|352:209,1,46,0|0,1:0|1:0,0:0:0:0:
291,271,5380,5,8,0:0:0:0:
257,263,5451,1,0,1:0:0:0:
223,255,5522,1,0,1:0:0:0:
190,247,5594,1,0,1:0:0:0:
156,239,5665,2,0,L|167:195,1,46,0|0,1:0|1:0,0:0:0:0:
63,142,5808,2,0,L|73:186,1,46,8|0,0:0|1:0,0:0:0:0:
143,91,5951,2,0,L|132:46,1,46,8|0,0:0|1:0,0:0:0:0:
223,14,6094,5,8,0:0:0:0:
255,3,6165,1,0,1:0:0:0:
289,6,6237,1,0,1:0:0:0:
320,21,6308,1,0,1:0:0:0:
343,47,6380,2,0,L|328:100,1,46,0|0,1:0|1:0,0:0:0:0:
263,157,6522,5,10,0:0:0:0:
229,150,6594,1,0,1:0:0:0:
195,144,6665,1,0,1:0:0:0:
161,138,6737,1,0,1:0:0:0:
127,132,6808,2,0,L|140:181,1,46,8|0,0:0|1:0,0:0:0:0:
196,284,6951,2,0,L|208:240,1,46,0|0,1:0|1:0,0:0:0:0:
102,303,7094,2,0,L|113:347,1,46,0|0,1:0|1:0,0:0:0:0:
256,359,7237,5,8,0:0:0:0:
279,334,7308,1,0,1:0:0:0:
310,319,7380,1,0,1:0:0:0:
344,315,7451,1,0,1:0:0:0:
378,323,7522,2,0,L|388:275,1,46,0|0,1:0|1:0,0:0:0:0:
347,197,7665,5,8,0:0:0:0:
312,191,7737,1,0,1:0:0:0:
278,186,7808,1,0,1:0:0:0:
244,180,7880,1,0,1:0:0:0:
210,175,7951,2,0,L|200:125,1,46,8|0,0:0|1:0,0:0:0:0:
264,42,8094,2,0,L|274:92,1,46,8|0,0:0|1:0,0:0:0:0:
124,153,8237,2,0,L|113:102,1,46,0|0,1:0|1:0,0:0:0:0:
160,25,8380,5,8,0:0:0:0:
160,25,8665,1,8,0:0:0:0:
213,274,8808,1,8,0:0:0:0:
356,96,8951,1,8,0:0:0:0:
103,165,9094,1,8,0:0:0:0:
279,14,9237,1,8,0:0:0:0:
222,353,9380,5,8,0:0:0:0:
222,353,10522,6,0,B|187:305|122:325|122:325|22:331|-62:221|83:129|125:220,1,414,12|2,0:0|0:0,0:0:0:0:
501,88,12808,6,0,B|498:55|463:33|463:33|492:118|468:201|403:214|403:214|384:165|334:157,1,368,4|4,1:2|1:2,0:0:0:0:
2,83,15237,6,0,B|34:68|49:33|49:33|20:118|44:201|109:214|109:214|128:165|178:157,1,368,4|4,1:2|1:2,0:0:0:0:
402,295,17522,6,0,B|477:314|489:222|416:191|363:267|363:267|323:319|268:336|223:303,1,368,4|2,1:2|0:0,0:0:0:0:
259,100,19094,5,0,1:0:0:0:
261,111,19165,1,0,1:0:0:0:
263,122,19237,1,8,3:0:0:0:
219,217,19380,1,0,1:0:0:0:
332,27,19522,1,4,3:0:0:0:
154,126,19665,6,0,P|67:132|15:61,1,184,4|0,0:0|1:0,0:0:0:0:
108,34,20094,1,2,1:2:0:0:
140,228,20237,1,0,1:0:0:0:
276,97,20380,1,0,1:0:0:0:
66,136,20522,1,0,1:0:0:0:
293,112,20665,2,0,P|298:66|307:21,1,92,2|0,1:2|1:0,0:0:0:0:
190,55,20951,5,2,1:2:0:0:
396,84,21094,2,0,P|390:129|381:174,1,92,2|0,1:2|1:0,0:0:0:0:
292,215,21380,1,2,1:2:0:0:
491,131,21522,1,10,0:0:0:0:
211,166,21665,1,10,0:0:0:0:
211,166,21951,6,0,L|72:135,1,138,4|0,1:2|0:0,0:0:0:0:
16,186,22237,1,0,1:0:0:0:
159,59,22380,1,0,1:0:0:0:
92,248,22522,1,0,1:0:0:0:
68,25,22665,5,8,0:0:0:0:
132,335,22808,1,8,0:0:0:0:
320,121,22951,1,8,0:0:0:0:
5,215,23094,1,8,0:0:0:0:
283,34,23237,5,8,0:0:0:0:
238,341,23380,1,8,0:0:0:0:
155,9,23522,1,8,0:0:0:0:
230,358,23665,1,8,0:0:0:0:
13,202,24237,6,0,B|88:180|88:180|107:160|107:160|183:137,1,184,4|0,0:0|1:0,0:0:0:0:
353,78,24665,2,0,P|314:53|268:50,1,92,10|0,0:0|0:0,0:0:0:0:
284,183,24951,1,0,1:0:0:0:
284,183,25094,1,0,1:0:0:0:
443,140,25237,2,0,P|449:94|457:49,1,92,10|0,0:0|0:0,0:0:0:0:
325,61,25522,5,2,1:2:0:0:
381,243,25665,2,0,P|429:230|474:223,1,92,2|8,1:2|0:0,0:0:0:0:
280,311,25951,2,0,P|232:298|187:291,1,92,2|0,0:0|1:0,0:0:0:0:
17,230,26237,2,0,P|62:222|106:210,1,92,2|8,1:2|0:0,0:0:0:0:
275,108,26522,6,0,P|190:125|134:57,1,184,2|0,1:2|1:0,0:0:0:0:
340,32,26951,2,0,P|365:69|371:114,1,92,8|0,0:0|0:0,0:0:0:0:
313,202,27237,1,2,1:2:0:0:
461,125,27380,2,0,P|448:168|417:202,1,92,2|8,1:2|0:0,0:0:0:0:
185,63,27665,6,0,B|258:82|258:82|276:102|276:102|355:121,1,184,2|0,1:2|1:0,0:0:0:0:
165,197,28094,2,0,P|120:206|71:217,1,92,10|0,0:0|0:0,0:0:0:0:
255,272,28380,2,0,P|266:227|277:182,1,92,2|0,1:2|1:0,0:0:0:0:
185,20,28665,2,0,P|196:64|207:109,1,92,10|0,0:0|0:0,0:0:0:0:
373,197,28951,6,0,P|459:180|508:253,1,184,2|8,1:2|0:0,0:0:0:0:
354,341,29380,2,0,L|265:318,1,92,2|0,0:0|1:0,0:0:0:0:
156,284,29665,1,0,1:0:0:0:
248,132,29808,2,0,P|262:179|262:224,1,92,10|0,0:0|0:0,0:0:0:0:
145,298,30094,6,0,P|57:301|0:233,1,184,2|8,1:2|0:0,0:0:0:0:
116,104,30522,1,0,0:0:0:0:
116,104,30665,2,0,P|104:148|97:193,1,92,2|0,1:2|1:0,0:0:0:0:
233,296,30951,2,0,P|244:251|251:206,1,92,10|0,0:0|0:0,0:0:0:0:
314,47,31237,6,0,B|420:27|384:104|487:79,2,184,2|8|0,1:2|0:0|1:0,0:0:0:0:
227,104,31951,1,0,1:0:0:0:
322,244,32094,2,0,P|334:199|333:154,1,92,8|0,0:0|0:0,0:0:0:0:
201,80,32380,5,0,1:0:0:0:
129,226,32522,1,0,1:0:0:0:
35,38,32665,2,0,L|53:134,1,92,8|0,0:0|1:0,0:0:0:0:
23,201,32880,1,0,1:0:0:0:
17,212,32951,1,10,0:0:0:0:
220,237,33094,1,2,1:2:0:0:
51,128,33237,1,10,0:0:0:0:
195,323,33380,6,0,B|313:322|254:264|370:264,1,184,4|0,0:0|1:0,0:0:0:0:
495,176,33808,2,0,L|393:152,1,92,10|0,0:0|0:0,0:0:0:0:
270,173,34094,1,0,1:0:0:0:
270,173,34237,1,0,1:0:0:0:
315,0,34380,2,0,P|327:45|328:91,1,92,10|0,0:0|0:0,0:0:0:0:
184,125,34665,5,2,1:2:0:0:
260,272,34808,2,0,L|353:253,1,92,2|8,1:2|0:0,0:0:0:0:
182,355,35094,2,0,L|82:334,1,92,2|0,0:0|1:0,0:0:0:0:
0,250,35380,2,0,L|100:229,1,92,2|8,1:2|0:0,0:0:0:0:
259,124,35665,6,0,P|174:143|111:80,1,184,4|0,0:0|1:0,0:0:0:0:
339,49,36094,2,0,P|360:89|364:134,1,92,8|0,0:0|0:0,0:0:0:0:
308,217,36380,1,0,1:0:0:0:
251,11,36522,1,0,1:0:0:0:
446,69,36665,1,8,0:0:0:0:
286,230,36808,6,0,B|207:212|207:212|189:191|189:191|110:171,1,184,4|0,0:0|1:0,0:0:0:0:
7,79,37237,2,0,L|99:56,1,92,10|0,0:0|0:0,0:0:0:0:
224,35,37522,5,2,1:2:0:0:
177,208,37665,1,8,3:0:0:0:
229,16,37808,1,4,3:0:0:0:
306,146,37951,6,0,L|186:119,1,110.399996630859,4|0,0:0|0:0,0:0:0:0:
111,140,38380,1,2,0:0:0:0:
111,140,38665,1,2,0:0:0:0:
33,201,38808,2,0,L|42:260,1,55.1999983154297,2|0,0:0|0:0,0:0:0:0:
99,323,39094,6,0,P|146:295|200:302,1,110.399996630859,2|0,0:0|0:0,0:0:0:0:
280,349,39522,1,2,0:0:0:0:
460,244,39808,1,2,0:0:0:0:
460,244,39951,2,0,L|471:189,1,55.1999983154297,2|0,0:0|0:0,0:0:0:0:
413,121,40237,6,0,P|359:112|314:142,1,110.399996630859,2|0,0:0|0:0,0:0:0:0:
257,202,40665,1,2,0:0:0:0:
198,29,40951,1,2,0:0:0:0:
59,129,41237,1,2,0:0:0:0:
59,129,41380,6,0,L|79:247,1,110.399996630859,2|0,0:0|0:0,0:0:0:0:
37,315,41808,1,2,0:0:0:0:
221,238,42094,1,2,0:0:0:0:
221,238,42237,2,0,L|276:247,1,55.1999983154297,2|0,0:0|0:0,0:0:0:0:
388,179,42522,6,0,L|276:161,1,110.399996630859,4|0,1:2|0:0,0:0:0:0:
219,98,42951,1,2,0:0:0:0:
32,182,43237,1,2,0:0:0:0:
32,182,43380,2,0,L|42:237,1,55.1999983154297,2|0,0:0|0:0,0:0:0:0:
101,302,43665,6,0,P|141:267|195:273,1,110.399996630859,4|0,1:2|0:0,0:0:0:0:
271,320,44094,1,2,0:0:0:0:
442,188,44380,1,2,0:0:0:0:
441,188,44522,2,0,P|387:190|344:158,1,110.399996630859,2|0,0:0|0:0,0:0:0:0:
286,83,44951,6,0,B|209:47|160:113|175:126|122:195|43:154,1,275.999991577149,4|0,1:2|0:0,0:0:0:0:
86,78,45808,1,2,0:0:0:0:
73,325,46094,2,0,P|126:334|171:305,1,110.399996630859,2|0,0:0|0:0,0:0:0:0:
209,228,46522,5,2,1:2:0:0:
209,228,46594,1,0,1:0:0:0:
209,228,46665,1,8,0:0:0:0:
160,13,46808,1,8,3:0:0:0:
372,72,46951,1,4,3:0:0:0:
124,133,47094,1,0,1:0:0:0:
115,144,47165,1,0,1:0:0:0:
107,154,47237,5,10,0:0:0:0:
276,110,47380,1,0,1:0:0:0:
78,48,47522,1,0,1:0:0:0:
130,259,47665,5,10,0:0:0:0:
188,55,47808,1,0,1:0:0:0:
19,200,47951,1,0,1:0:0:0:
296,94,48094,5,10,0:0:0:0:
62,28,48237,1,0,1:0:0:0:
121,292,48380,5,8,0:0:0:0:
424,137,48522,1,0,1:0:0:0:
159,15,48665,5,8,0:0:0:0:
217,356,48808,1,8,0:0:0:0:
444,56,48951,6,0,B|399:42|364:72|385:82|343:108|297:95,1,161,2|0,0:0|0:0,0:0:0:0:
238,42,49522,6,0,B|172:33|133:75|133:75|102:141|37:144,1,239.199989050293,4|8,0:0|0:0,0:0:0:0:
40,48,49951,1,0,0:0:0:0:
198,190,50094,2,0,L|287:169,1,92,2|2,1:2|1:2,0:0:0:0:
368,221,50380,1,8,0:0:0:0:
253,332,50522,6,0,L|73:292,1,184,2|0,1:2|1:0,0:0:0:0:
9,179,50951,2,0,L|99:159,1,92,10|0,0:0|0:0,0:0:0:0:
253,89,51237,1,2,1:2:0:0:
253,89,51380,2,0,L|163:69,1,92,2|8,1:2|0:0,0:0:0:0:
76,266,51665,6,0,B|178:244|151:307|254:279,1,184,2|0,1:2|1:0,0:0:0:0:
402,203,52094,2,0,P|414:158|404:114,1,92,8|0,0:0|0:0,0:0:0:0:
314,29,52380,1,0,1:0:0:0:
493,95,52522,1,0,1:0:0:0:
305,166,52665,2,0,L|214:146,1,92,10|2,0:0|0:0,0:0:0:0:
129,201,52951,5,2,1:2:0:0:
218,346,53094,2,0,P|221:300|229:254,1,92,2|8,1:2|0:0,0:0:0:0:
117,108,53380,2,0,P|124:154|128:200,1,92,2|0,0:0|1:0,0:0:0:0:
58,277,53665,1,2,1:2:0:0:
228,149,53808,2,0,P|272:161|316:172,1,92,8|0,0:0|0:0,0:0:0:0:
494,289,54094,6,0,B|445:263|408:300|408:300|384:345|332:346,1,184,4|8,0:0|0:0,0:0:0:0:
192,258,54522,1,0,0:0:0:0:
312,149,54665,2,0,P|326:194|325:243,1,92,2|2,1:2|1:2,0:0:0:0:
225,338,54951,1,8,0:0:0:0:
25,211,55094,6,0,B|129:209|87:155|201:153,1,184,2|0,1:2|1:0,0:0:0:0:
380,222,55522,2,0,P|390:175|400:132,1,92,10|0,0:0|0:0,0:0:0:0:
266,35,55808,1,2,1:2:0:0:
266,35,55951,2,0,P|276:79|285:124,1,92,2|8,1:2|0:0,0:0:0:0:
190,260,56237,6,0,P|105:278|46:212,1,184,2|0,1:2|1:0,0:0:0:0:
249,181,56665,2,0,P|277:216|285:261,1,92,8|0,0:0|0:0,0:0:0:0:
237,343,56951,1,0,1:0:0:0:
368,215,57094,1,0,1:0:0:0:
155,162,57237,2,0,P|163:113|173:69,1,92,10|0,0:0|0:0,0:0:0:0:
0,14,57522,6,0,P|16:104|22:196,1,184,2|8,1:2|0:0,0:0:0:0:
77,279,57951,1,2,1:2:0:0:
261,107,58094,1,10,0:0:0:0:
25,175,58237,1,8,0:0:0:0:
207,37,58380,1,10,0:0:0:0:
166,324,58522,1,8,0:0:0:0:
120,140,58665,6,0,B|193:161|193:161|212:184|212:184|287:205,1,184,4|10,0:0|0:0,0:0:0:0:
420,167,59094,1,0,0:0:0:0:
317,19,59237,2,0,P|294:68|292:109,1,92,2|2,1:2|1:2,0:0:0:0:
437,159,59522,1,8,0:0:0:0:
344,316,59665,6,0,P|277:256|190:275,1,184,2|0,1:2|1:0,0:0:0:0:
32,339,60094,2,0,P|16:295|13:250,1,92,10|0,0:0|0:0,0:0:0:0:
116,102,60380,2,0,P|131:145|134:190,1,92,2|2,1:2|1:2,0:0:0:0:
24,168,60665,1,8,0:0:0:0:
191,32,60808,6,0,B|294:17|259:79|369:58,1,184,2|0,1:2|1:0,0:0:0:0:
488,22,61237,2,0,P|475:67|473:112,1,92,10|0,0:0|0:0,0:0:0:0:
383,262,61522,2,0,P|380:216|368:172,1,92,0|2,1:0|1:2,0:0:0:0:
287,233,61808,1,8,0:0:0:0:
356,354,61951,6,0,L|446:338,1,92,2|0,0:0|1:0,0:0:0:0:
265,249,62237,2,0,L|175:233,1,92,2|8,1:2|0:0,0:0:0:0:
8,132,62522,2,0,P|95:144|151:76,1,184,2|2,1:2|1:2,0:0:0:0:
83,14,62951,1,8,0:0:0:0:
119,228,63094,1,0,0:0:0:0:
258,98,63237,6,0,B|360:94|318:40|428:37,2,184,4|8|2,0:0|0:0|1:2,0:0:0:0:
114,64,63951,2,0,P|125:108|130:154,1,92,2|8,1:2|0:0,0:0:0:0:
277,267,64237,6,0,P|364:277|422:209,1,184,2|0,1:2|1:0,0:0:0:0:
303,56,64665,2,0,P|309:102|322:146,1,92,10|0,0:0|0:0,0:0:0:0:
406,77,64951,1,2,1:2:0:0:
215,129,65094,1,2,1:2:0:0:
356,263,65237,2,0,L|452:246,1,92,8|0,0:0|0:0,0:0:0:0:
282,201,65522,5,10,0:0:0:0:
121,277,65665,1,0,1:0:0:0:
283,99,65808,5,8,0:0:0:0:
214,347,65951,1,0,1:0:0:0:
136,62,66094,5,10,0:0:0:0:
198,366,66237,1,0,1:0:0:0:
350,158,66380,5,8,0:0:0:0:
72,247,66522,1,0,1:0:0:0:
275,123,66665,5,8,0:0:0:0:
304,88,66736,1,0,1:0:0:0:
348,75,66807,1,0,1:0:0:0:
392,86,66879,1,0,1:0:0:0:
424,118,66950,1,0,1:0:0:0:
434,162,67022,1,0,1:0:0:0:
420,205,67093,1,0,1:0:0:0:
385,234,67164,1,0,1:0:0:0:
340,241,67237,6,0,L|289:226,3,46,0|0|0|0,1:0|1:0|1:0|1:0,0:0:0:0:
230,132,67522,2,0,L|280:121,1,46,0|0,1:0|1:0,0:0:0:0:
171,220,67665,2,0,L|121:209,1,46,0|0,1:0|1:0,0:0:0:0:
28,152,67792,6,0,B|40:202|16:243|16:243|16:294|51:325,1,184,4|10,0:0|0:0,0:0:0:0:
249,275,68220,2,0,P|208:254|162:253,1,92,2|0,0:0|1:0,0:0:0:0:
348,351,68506,2,0,P|393:350|434:329,1,92,2|8,1:2|0:0,0:0:0:0:
487,211,68792,1,2,0:0:0:0:
301,175,68935,6,0,P|213:165|152:229,1,184,0|10,1:2|0:0,0:0:0:0:
374,245,69364,2,0,P|394:205|397:159,1,92,2|0,0:0|1:0,0:0:0:0:
331,9,69649,2,0,P|310:49|307:95,1,92,2|8,1:2|0:0,0:0:0:0:
356,261,69934,1,2,0:0:0:0:
207,156,70078,6,0,B|131:178|131:178|111:199|111:199|37:219,1,184,0|10,1:2|0:0,0:0:0:0:
189,297,70506,2,0,P|234:303|277:319,1,92,2|0,0:0|1:0,0:0:0:0:
470,242,70792,2,0,P|424:235|381:219,1,92,2|8,1:2|0:0,0:0:0:0:
315,122,71078,1,2,0:0:0:0:
382,35,71221,5,2,1:2:0:0:
338,218,71364,1,2,1:2:0:0:
212,99,71506,1,0,1:0:0:0:
411,140,71649,1,0,1:0:0:0:
251,10,71792,5,10,0:0:0:0:
286,284,71935,1,10,0:0:0:0:
503,127,72078,1,8,0:0:0:0:
211,209,72221,1,8,0:0:0:0:
459,314,72364,6,0,B|409:293|369:317|369:317|347:364|300:371,1,184,4|10,0:0|0:0,0:0:0:0:
185,218,72792,2,0,P|231:216|271:238,1,92,2|0,0:0|1:0,0:0:0:0:
80,295,73077,2,0,L|61:206,1,92,2|8,1:2|0:0,0:0:0:0:
127,109,73364,1,2,0:0:0:0:
283,251,73506,6,0,P|371:258|428:190,1,184,0|10,1:0|0:0,0:0:0:0:
310,75,73934,2,0,P|317:120|331:164,1,92,2|0,0:0|1:0,0:0:0:0:
511,124,74220,2,0,P|503:77|488:32,1,92,2|8,1:2|0:0,0:0:0:0:
410,101,74506,1,2,0:0:0:0:
292,251,74649,6,0,B|397:231|367:296|469:268,1,184,0|10,1:0|0:0,0:0:0:0:
206,326,75077,2,0,P|196:281|184:236,1,92,2|0,0:2|1:0,0:0:0:0:
272,68,75363,2,0,P|281:112|293:157,1,92,2|8,1:2|0:0,0:0:0:0:
374,227,75649,1,2,0:0:0:0:
184,142,75792,5,2,1:2:0:0:
384,89,75934,1,2,1:2:0:0:
161,145,76077,1,0,1:0:0:0:
342,16,76220,1,0,1:0:0:0:
310,293,76363,5,8,0:0:0:0:
271,251,76434,1,8,3:0:0:0:
215,243,76506,1,8,3:0:0:0:
167,271,76577,1,8,3:0:0:0:
146,324,76649,1,4,3:0:0:0:
119,340,76720,1,4,3:0:0:0:
87,340,76791,1,4,3:0:0:0:
60,324,76863,1,4,3:0:0:0:
49,294,76934,6,0,B|37:240|49:199|49:199|26:164|16:112,1,184,4|10,0:0|0:0,0:0:0:0:
178,1,77363,2,0,P|187:48|187:94,1,92,2|0,0:0|1:0,0:0:0:0:
279,215,77649,2,0,P|279:169|289:124,1,92,2|8,1:2|0:0,0:0:0:0:
379,62,77934,1,2,0:0:0:0:
347,303,78077,6,0,P|278:248|190:267,1,184,0|10,1:0|0:0,0:0:0:0:
64,209,78506,2,0,P|48:160|42:120,1,92,2|0,0:0|1:0,0:0:0:0:
174,27,78792,2,0,P|190:76|196:116,1,92,2|8,1:2|0:0,0:0:0:0:
129,282,79077,1,2,0:0:0:0:
285,187,79220,6,0,B|360:200|360:200|384:218|384:218|460:231,1,184,0|10,1:0|0:0,0:0:0:0:
270,328,79649,2,0,P|223:339|179:351,1,92,2|0,0:0|1:0,0:0:0:0:
0,272,79934,2,0,P|44:259|89:249,1,92,2|8,1:2|0:0,0:0:0:0:
216,134,80220,1,2,0:0:0:0:
168,271,80363,5,2,1:2:0:0:
122,79,80506,1,2,1:2:0:0:
314,128,80649,1,0,1:0:0:0:
99,205,80792,1,0,1:0:0:0:
299,29,80934,5,10,0:0:0:0:
240,329,81077,1,10,0:0:0:0:
58,126,81220,1,8,0:0:0:0:
347,235,81363,1,8,0:0:0:0:
158,34,81506,6,0,B|170:84|146:125|146:125|146:176|181:207,1,184,4|10,0:0|0:0,0:0:0:0:
351,161,81934,2,0,P|310:139|265:140,1,92,2|0,0:0|1:0,0:0:0:0:
442,227,82220,2,0,P|454:180|465:136,1,92,2|8,1:2|0:0,0:0:0:0:
419,36,82506,1,2,0:0:0:0:
174,223,82649,6,0,B|279:200|244:271|350:245,1,184,0|10,1:0|0:0,0:0:0:0:
331,67,83077,2,0,L|316:158,1,92,2|0,0:0|1:0,0:0:0:0:
188,313,83363,2,0,L|173:222,1,92,2|8,1:2|0:0,0:0:0:0:
88,152,83649,1,2,0:0:0:0:
279,244,83792,6,0,P|364:221|426:283,1,184,0|10,1:0|0:0,0:0:0:0:
205,314,84220,2,0,P|187:272|180:227,1,92,2|0,0:0|1:0,0:0:0:0:
265,60,84506,2,0,P|283:102|290:147,1,92,2|8,1:2|0:0,0:0:0:0:
193,131,84792,1,2,0:0:0:0:
368,71,84934,5,2,1:2:0:0:
178,14,85077,1,2,1:2:0:0:
220,222,85220,1,0,1:0:0:0:
286,14,85363,1,0,1:0:0:0:
94,193,85506,5,8,0:0:0:0:
344,154,85649,1,8,0:0:0:0:
125,83,85792,1,8,0:0:0:0:
177,336,85934,1,8,0:0:0:0:
251,228,86077,5,0,1:0:0:0:
284,235,86148,1,0,1:0:0:0:
318,243,86219,1,0,1:0:0:0:
351,251,86291,1,0,1:0:0:0:
385,259,86363,2,0,L|398:214,1,46,8|0,0:2|0:0,0:0:0:0:
412,118,86506,5,0,1:0:0:0:
378,125,86577,1,0,1:0:0:0:
344,133,86648,1,0,1:0:0:0:
311,141,86720,1,0,1:0:0:0:
277,149,86792,2,0,L|264:103,1,46,8|0,0:2|0:0,0:0:0:0:
242,16,86934,1,0,1:0:0:0:
212,239,87077,1,2,1:2:0:0:
138,95,87220,5,8,3:0:0:0:
182,333,87363,1,0,1:0:0:0:
360,177,87506,1,8,3:0:0:0:
116,264,87649,1,0,1:0:0:0:
387,186,87792,6,0,L|400:119,2,61.3333333333333,8|8|0,0:0|3:0|1:0,0:0:0:0:
309,250,88077,2,0,L|322:315,2,61.3333333333333,8|4|4,3:0|3:0|3:0,0:0:0:0:
287,130,88363,5,0,1:0:0:0:
196,315,88506,1,0,1:0:0:0:
131,55,88649,1,10,0:0:0:0:
312,131,88792,6,0,L|208:110,1,92,12|0,0:0|0:0,0:0:0:0:
0,214,89077,2,0,L|104:235,1,92,12|0,0:0|0:0,0:0:0:0:
366,306,89363,6,0,B|411:334|470:272|409:209|348:259|348:259|317:329|236:353|189:309,1,368,12|0,0:0|0:0,0:0:0:0:
