osu file format v14

[General]
AudioFilename: audio.mp3
AudioLeadIn: 0
PreviewTime: 48880
Countdown: 0
SampleSet: Soft
StackLeniency: 0.7
Mode: 0
LetterboxInBreaks: 0
WidescreenStoryboard: 1

[Editor]
Bookmarks: 12808,13951,84506
DistanceSpacing: 0.6
BeatDivisor: 4
GridSize: 4
TimelineZoom: 2

[Metadata]
Title:PRIDE OF LIONS (Cut Ver.)
TitleUnicode:PRIDE OF LIONS (Cut Ver.)
Artist:SPYAIR
ArtistUnicode:SPYAIR
Creator:HabiHolic
Version:Insane
Source:
Tags:UNITE スパイエアー japanese J-Rock Jrock rock KENTA MOMIKEN IKE UZ
BeatmapID:2946154
BeatmapSetID:1423394

[Difficulty]
HPDrainRate:6
CircleSize:4
OverallDifficulty:8
ApproachRate:9
SliderMultiplier:1.44
SliderTickRate:1

[Events]
//Background and Video events
0,0,"BG.jpeg",0,0
//Break Periods
//Storyboard Layer 0 (Background)
//Storyboard Layer 1 (Fail)
//Storyboard Layer 2 (Pass)
//Storyboard Layer 3 (Foreground)
//Storyboard Layer 4 (Overlay)
//Storyboard Sound Samples

[TimingPoints]
380,285.714285714286,4,2,1,50,1,0
380,-200,4,2,1,50,0,0
2665,-200,4,2,1,70,0,0
4951,-100,4,2,1,70,0,0
10522,-200,4,2,1,70,0,0
19094,-100,4,2,1,70,0,0
37951,-166.666666666667,4,2,1,50,0,0
47237,-100,4,2,1,85,0,0
48951,-200,4,2,1,50,0,0
49522,-76.9230769230769,4,2,1,85,0,0
49951,-100,4,2,1,85,0,0
67792,285.714285714286,4,2,1,70,1,0
76363,-100,4,2,1,50,0,0
76934,-100,4,2,1,70,0,0
85506,-100,4,2,1,50,0,0
86077,-100,4,2,1,65,0,0
88649,-100,4,2,1,85,0,0
89934,-100,4,2,1,30,0,0

[Colours]
Combo1 : 108,70,240
Combo2 : 103,228,219
Combo3 : 0,221,143
Combo4 : 115,155,238

[HitObjects]
49,114,380,6,0,L|42:79,2,36,2|2|0,0:0|0:0|0:0,0:0:0:0:
120,164,808,2,0,L|103:238,1,72,0|2,0:0|0:0,0:0:0:0:
139,308,1237,1,2,0:0:0:0:
139,308,1380,1,2,0:0:0:0:
243,223,1522,6,0,L|236:183,2,36,2|0|2,0:0|0:0|0:0,0:0:0:0:
312,282,1951,2,0,P|343:266|379:270,1,72,0|2,0:0|0:0,0:0:0:0:
450,315,2380,1,2,0:0:0:0:
450,315,2522,1,2,0:0:0:0:
472,171,2665,6,0,L|511:182,2,36,2|0|2,0:0|0:0|0:0,0:0:0:0:
389,189,3094,2,0,L|316:167,1,72,0|2,0:0|0:0,0:0:0:0:
249,206,3522,1,2,0:0:0:0:
249,206,3665,1,2,0:0:0:0:
129,113,3808,6,0,L|138:74,2,36,2|0|2,0:0|0:0|0:0,0:0:0:0:
49,147,4237,2,0,L|64:223,1,72,0|2,0:0|0:0,0:0:0:0:
17,288,4665,1,2,0:0:0:0:
17,288,4808,1,2,0:0:0:0:
98,344,4951,6,0,L|133:336,5,36,8|0|0|0|0|0,0:0|1:0|1:0|1:0|1:0|1:0,0:0:0:0:
211,349,5380,2,0,L|246:341,5,36,8|0|0|0|0|0,0:0|1:0|1:0|1:0|1:0|1:0,0:0:0:0:
327,359,5808,2,0,L|343:288,1,72,8|8,0:0|0:0,0:0:0:0:
319,186,6094,6,0,L|281:177,5,36,8|0|0|0|0|0,0:0|1:0|1:0|1:0|1:0|1:0,0:0:0:0:
211,205,6522,2,0,L|173:196,5,36,10|0|0|0|8|0,0:0|1:0|1:0|1:0|0:0|1:0,0:0:0:0:
99,217,6951,2,0,L|81:142,1,72,0|0,1:0|1:0,0:0:0:0:
160,42,7237,6,0,L|208:30,5,36,8|0|0|0|0|0,0:0|1:0|1:0|1:0|1:0|1:0,0:0:0:0:
276,66,7665,2,0,L|324:54,5,36,8|0|0|0|8|0,0:0|1:0|1:0|1:0|0:0|1:0,0:0:0:0:
401,26,8094,2,0,L|389:97,1,72,8|0,0:0|1:0,0:0:0:0:
371,191,8380,5,8,0:0:0:0:
371,191,8665,1,8,0:0:0:0:
275,224,8808,1,8,0:0:0:0:
339,101,8951,1,8,0:0:0:0:
316,318,9094,1,8,0:0:0:0:
157,196,9237,1,8,0:0:0:0:
394,273,9380,1,8,0:0:0:0:
394,273,10522,6,0,B|449:284|458:195|366:189|328:265|328:265|297:328|220:326,1,324,12|2,0:0|0:0,0:0:0:0:
16,74,12808,6,0,B|89:33|154:106|136:120|200:179|276:131,1,288,4|4,1:2|1:2,0:0:0:0:
489,228,15237,6,0,B|414:191|359:253|359:253|327:329|245:337,1,288,4|4,1:2|1:2,0:0:0:0:
25,49,17522,6,0,P|157:44|183:174,1,288,4|2,1:2|0:0,0:0:0:0:
134,307,19094,5,0,1:0:0:0:
134,307,19165,1,0,1:0:0:0:
134,307,19237,2,0,L|64:292,1,72,8|0,3:0|1:0,0:0:0:0:
223,256,19522,1,4,3:0:0:0:
136,205,19665,6,0,L|105:55,1,144,4|0,0:0|1:0,0:0:0:0:
192,13,20094,5,2,1:2:0:0:
203,18,20237,1,0,1:0:0:0:
340,78,20380,5,0,1:0:0:0:
329,83,20523,1,0,1:0:0:0:
220,181,20665,5,2,1:2:0:0:
231,186,20808,1,0,1:0:0:0:
314,297,20951,5,2,1:2:0:0:
322,302,21094,2,0,L|399:285,1,72,2|0,1:2|1:0,0:0:0:0:
222,354,21380,2,0,L|152:334,1,72,2|10,1:2|0:0,0:0:0:0:
46,246,21665,1,10,0:0:0:0:
46,246,21951,6,0,B|25:199|25:199|46:108,1,144,4|0,1:2|1:0,0:0:0:0:
121,27,22380,1,0,1:0:0:0:
125,38,22522,1,0,1:0:0:0:
246,103,22665,5,8,0:0:0:0:
242,114,22807,1,8,0:0:0:0:
139,206,22951,1,8,0:0:0:0:
143,217,23093,1,8,0:0:0:0:
251,286,23237,5,8,0:0:0:0:
160,104,23380,1,8,0:0:0:0:
238,306,23522,1,8,0:0:0:0:
396,162,23665,1,8,0:0:0:0:
395,161,24237,6,0,P|349:110|280:113,1,144,4|0,0:0|1:0,0:0:0:0:
159,85,24665,2,0,L|173:157,1,72,10|0,0:0|0:0,0:0:0:0:
251,221,24951,1,0,1:0:0:0:
251,221,25094,1,0,1:0:0:0:
177,286,25237,2,0,P|136:274|106:268,1,72,10|0,0:0|0:0,0:0:0:0:
31,180,25522,5,2,1:2:0:0:
125,105,25665,2,0,L|137:180,1,72,2|8,1:2|0:0,0:0:0:0:
274,287,25951,2,0,B|363:289|323:241|413:241,1,144,2|2,0:0|1:2,0:0:0:0:
468,323,26380,1,8,0:0:0:0:
485,160,26522,6,0,B|396:162|436:114|346:114,1,144,2|0,1:2|1:0,0:0:0:0:
239,82,26951,2,0,P|248:116|256:151,1,72,8|0,0:0|0:0,0:0:0:0:
320,284,27237,2,0,P|327:248|337:214,1,72,2|2,1:2|1:2,0:0:0:0:
218,239,27522,1,8,0:0:0:0:
257,348,27665,6,0,L|405:326,1,144,2|0,1:2|1:0,0:0:0:0:
505,212,28094,2,0,L|423:195,1,72,10|0,0:0|0:0,0:0:0:0:
299,120,28380,2,0,P|368:121|410:66,1,144,2|10,1:2|0:0,0:0:0:0:
322,26,28808,1,0,0:0:0:0:
182,64,28951,6,0,L|208:209,1,144,2|8,1:2|0:0,0:0:0:0:
297,286,29380,2,0,B|384:285|345:243|432:242,1,144,2|0,0:0|1:0,0:0:0:0:
504,145,29808,2,0,P|466:132|432:122,1,72,10|0,0:0|0:0,0:0:0:0:
283,24,30094,6,0,L|312:169,1,144,2|8,1:2|0:0,0:0:0:0:
241,247,30522,1,0,0:0:0:0:
132,149,30665,2,0,P|170:134|200:125,1,72,2|0,1:2|1:0,0:0:0:0:
67,227,30951,2,0,P|29:212|-1:203,1,72,10|0,0:0|0:0,0:0:0:0:
179,303,31237,6,0,L|326:273,2,144,2|8|0,1:2|0:0|1:0,0:0:0:0:
103,354,31951,1,0,1:0:0:0:
26,296,32094,2,0,P|24:256|16:222,1,72,8|0,0:0|0:0,0:0:0:0:
86,129,32380,5,0,1:0:0:0:
86,129,32522,1,0,1:0:0:0:
211,235,32665,2,0,L|140:220,1,72,8|0,0:0|1:0,0:0:0:0:
123,215,32880,1,0,1:0:0:0:
123,215,32951,1,10,0:0:0:0:
191,135,33094,1,2,1:2:0:0:
21,206,33237,1,10,0:0:0:0:
157,326,33380,6,0,L|303:303,1,144,4|0,0:0|1:0,0:0:0:0:
452,243,33808,2,0,L|374:226,1,72,10|0,0:0|0:0,0:0:0:0:
290,148,34094,1,0,1:0:0:0:
290,148,34237,1,0,1:0:0:0:
394,51,34380,2,0,P|403:85|396:120,1,72,10|0,0:0|0:0,0:0:0:0:
249,232,34665,5,2,1:2:0:0:
249,232,34808,2,0,L|174:217,1,72,2|8,1:2|0:0,0:0:0:0:
53,133,35094,2,0,P|122:143|175:98,1,144,2|2,0:0|1:2,0:0:0:0:
211,14,35522,1,8,0:0:0:0:
328,86,35665,6,0,L|311:229,1,144,4|0,0:0|1:0,0:0:0:0:
245,304,36094,2,0,P|206:291|173:283,1,72,8|0,0:0|0:0,0:0:0:0:
92,204,36380,2,0,P|131:191|164:183,1,72,0|0,1:0|1:0,0:0:0:0:
204,99,36665,1,8,0:0:0:0:
33,138,36808,6,0,L|57:283,1,144,4|0,0:0|1:0,0:0:0:0:
186,356,37237,2,0,L|201:278,1,72,10|0,0:0|0:0,0:0:0:0:
219,186,37522,1,2,1:2:0:0:
227,193,37665,1,8,3:0:0:0:
298,120,37808,1,4,3:0:0:0:
323,218,37951,6,0,L|413:205,1,86.3999973632813,4|0,0:0|0:0,0:0:0:0:
482,258,38380,1,2,0:0:0:0:
426,73,38665,2,0,L|437:23,2,43.1999986816407,2|2|0,0:0|0:0|0:0,0:0:0:0:
344,113,39094,6,0,P|307:91|265:98,1,86.3999973632813,2|0,0:0|0:0,0:0:0:0:
194,141,39522,1,2,0:0:0:0:
41,210,39808,1,2,0:0:0:0:
41,210,39951,2,0,L|51:263,1,43.1999986816407,2|0,0:0|0:0,0:0:0:0:
120,298,40237,6,0,P|156:276|198:283,1,86.3999973632813,2|0,0:0|0:0,0:0:0:0:
273,328,40665,1,2,0:0:0:0:
273,328,40951,6,0,L|288:241,1,86.3999973632813,2|2,0:0|0:0,0:0:0:0:
234,103,41380,2,0,L|220:189,1,86.3999973632813,2|0,0:0|0:0,0:0:0:0:
141,235,41808,1,2,0:0:0:0:
296,340,42094,1,2,0:0:0:0:
296,340,42237,2,0,L|343:325,1,43.1999986816407,2|0,0:0|0:0,0:0:0:0:
420,258,42522,6,0,L|334:241,1,86.3999973632813,4|0,1:2|0:0,0:0:0:0:
281,169,42951,1,2,0:0:0:0:
152,71,43237,1,2,0:0:0:0:
152,71,43380,2,0,L|162:26,1,43.1999986816407,2|0,0:0|0:0,0:0:0:0:
60,59,43665,6,0,L|77:148,1,86.3999973632813,4|0,1:2|0:0,0:0:0:0:
24,212,44094,1,2,0:0:0:0:
159,331,44380,1,2,0:0:0:0:
158,331,44522,2,0,P|194:307|236:309,1,86.3999973632813,2|0,0:0|0:0,0:0:0:0:
318,339,44951,6,0,P|420:340|461:246,1,215.999993408203,4|0,1:2|0:0,0:0:0:0:
444,162,45808,5,2,0:0:0:0:
444,162,46094,6,0,L|360:143,1,86.3999973632813,2|0,0:0|0:0,0:0:0:0:
291,74,46522,1,2,1:2:0:0:
291,74,46594,1,0,1:0:0:0:
291,74,46665,1,8,0:0:0:0:
254,191,46808,1,8,3:0:0:0:
254,191,46951,1,4,3:0:0:0:
148,124,47094,5,0,1:0:0:0:
139,130,47165,1,0,1:0:0:0:
131,136,47237,2,0,L|144:207,1,72,10|0,0:0|1:0,0:0:0:0:
87,291,47522,1,0,1:0:0:0:
228,174,47665,6,0,L|241:245,1,72,10|0,0:0|1:0,0:0:0:0:
184,329,47950,1,0,1:0:0:0:
331,204,48094,6,0,L|344:275,1,72,10|0,0:0|1:0,0:0:0:0:
287,359,48379,5,8,0:0:0:0:
437,306,48522,1,0,1:0:0:0:
236,227,48665,5,8,0:0:0:0:
451,312,48808,1,8,0:0:0:0:
320,111,48951,6,0,B|246:102|272:141|199:131,1,126,2|0,0:0|0:0,0:0:0:0:
133,78,49522,6,0,P|45:86|16:170,1,187.199991430664,4|8,0:0|0:0,0:0:0:0:
79,326,49951,1,0,0:0:0:0:
253,216,50094,2,0,P|214:205|180:197,1,72,2|2,1:2|1:2,0:0:0:0:
65,300,50380,1,8,0:0:0:0:
213,350,50522,6,0,B|270:334|270:334|283:318|283:318|350:299,1,144,2|0,1:2|1:0,0:0:0:0:
494,209,50951,2,0,L|416:189,1,72,10|0,0:0|0:0,0:0:0:0:
326,110,51237,1,2,1:2:0:0:
460,21,51380,2,0,P|468:55|460:90,1,72,2|8,1:2|0:0,0:0:0:0:
263,193,51665,6,0,P|213:145|143:151,1,144,2|0,1:2|1:0,0:0:0:0:
167,302,52094,2,0,P|184:266|185:227,1,72,8|0,0:0|0:0,0:0:0:0:
53,186,52380,1,0,1:0:0:0:
53,186,52522,1,0,1:0:0:0:
130,80,52665,2,0,L|145:160,1,72,10|2,0:0|0:0,0:0:0:0:
223,222,52951,5,2,1:2:0:0:
319,112,53094,2,0,P|288:95|252:91,1,72,2|8,1:2|0:0,0:0:0:0:
407,203,53380,2,0,L|432:58,1,144,2|2,0:0|1:2,0:0:0:0:
294,17,53808,2,0,L|305:93,1,72,8|0,0:0|0:0,0:0:0:0:
211,212,54094,6,0,P|142:214|96:161,1,144,4|8,0:0|0:0,0:0:0:0:
183,116,54522,1,0,0:0:0:0:
309,197,54665,2,0,L|293:276,1,72,2|2,1:2|1:2,0:0:0:0:
213,352,54951,1,8,0:0:0:0:
45,232,55094,6,0,B|129:218|102:273|192:254,1,144,2|0,1:2|1:0,0:0:0:0:
288,163,55522,2,0,P|251:152|215:145,1,72,10|0,0:0|0:0,0:0:0:0:
76,50,55808,1,2,1:2:0:0:
76,50,55951,2,0,P|113:39|149:32,1,72,2|8,1:2|0:0,0:0:0:0:
343,29,56237,6,0,L|319:175,1,144,2|0,1:2|1:0,0:0:0:0:
243,286,56665,2,0,P|193:238|123:244,1,144,8|0,0:0|1:0,0:0:0:0:
59,313,57094,1,0,1:0:0:0:
14,162,57237,2,0,P|48:150|82:141,1,72,10|0,0:0|0:0,0:0:0:0:
243,85,57522,6,0,P|173:92|124:42,1,144,2|8,1:2|0:0,0:0:0:0:
206,4,57951,1,2,1:2:0:0:
248,174,58094,5,10,0:0:0:0:
250,180,58237,1,8,0:0:0:0:
336,86,58380,1,10,0:0:0:0:
303,284,58522,1,8,0:0:0:0:
139,186,58665,6,0,L|108:45,1,144,4|10,0:0|0:0,0:0:0:0:
39,132,59094,1,0,0:0:0:0:
211,94,59237,2,0,P|246:94|280:106,1,72,2|2,1:2|1:2,0:0:0:0:
336,188,59522,1,8,0:0:0:0:
161,267,59665,6,0,B|97:246|97:246|86:233|86:233|22:209,1,144,2|0,1:2|1:0,0:0:0:0:
148,83,60094,2,0,P|156:120|162:158,1,72,10|0,0:0|0:0,0:0:0:0:
257,251,60380,2,0,P|262:215|270:180,1,72,2|2,1:2|1:2,0:0:0:0:
353,232,60665,1,8,0:0:0:0:
301,348,60808,6,0,L|155:318,1,144,2|0,1:2|1:0,0:0:0:0:
39,229,61237,2,0,P|108:239|163:195,1,144,10|0,0:0|1:0,0:0:0:0:
206,107,61665,1,2,1:2:0:0:
206,107,61808,1,8,0:0:0:0:
281,188,61951,6,0,L|269:259,1,72,2|0,0:0|1:0,0:0:0:0:
351,332,62237,2,0,L|363:261,1,72,2|8,1:2|0:0,0:0:0:0:
179,227,62522,2,0,B|98:232|129:270|47:276,1,144,2|2,1:2|1:2,0:0:0:0:
46,186,62951,1,8,0:0:0:0:
46,186,63094,1,0,0:0:0:0:
214,302,63237,6,0,L|241:152,2,144,4|8|2,0:0|0:0|1:2,0:0:0:0:
108,300,63951,2,0,P|118:344|122:372,1,72,2|8,1:2|0:0,0:0:0:0:
294,337,64237,6,0,B|377:335|351:290|429:287,1,144,2|0,1:2|1:0,0:0:0:0:
494,191,64665,2,0,P|460:179|415:166,1,72,10|0,0:0|0:0,0:0:0:0:
335,98,64951,2,0,P|368:86|403:75,1,72,2|2,1:2|1:2,0:0:0:0:
308,193,65237,2,0,P|275:181|240:170,1,72,8|0,0:0|0:0,0:0:0:0:
126,82,65522,6,0,P|195:84|241:31,1,144,10|8,0:0|0:0,0:0:0:0:
52,21,65951,1,0,1:0:0:0:
15,143,66094,2,0,P|23:183|28:216,1,72,10|0,0:0|1:0,0:0:0:0:
108,341,66380,2,0,P|113:305|120:270,1,72,8|0,0:0|1:0,0:0:0:0:
196,178,66665,6,0,L|231:184,3,36,8|0|0|0,0:0|1:0|1:0|1:0,0:0:0:0:
275,226,66951,6,0,L|310:220,3,36,0|0|0|0,1:0|1:0|1:0|0:0,0:0:0:0:
347,178,67237,6,0,L|382:184,3,36,0|0|0|0,1:0|1:0|1:0|1:0,0:0:0:0:
422,215,67522,6,0,L|442:108,1,108,0|0,1:0|1:0,0:0:0:0:
387,36,67792,6,0,P|320:20|269:67,1,144,4|10,0:0|0:0,0:0:0:0:
167,83,68220,2,0,P|175:121|182:155,1,72,2|0,0:0|1:0,0:0:0:0:
255,273,68506,2,0,P|262:237|269:202,1,72,2|8,1:2|0:0,0:0:0:0:
142,247,68792,1,2,0:0:0:0:
211,357,68934,6,0,P|261:307|334:319,1,144,0|10,1:2|0:0,0:0:0:0:
427,280,69363,2,0,P|435:238|443:203,1,72,2|0,0:0|1:0,0:0:0:0:
332,115,69649,2,0,P|339:150|346:185,1,72,2|8,1:2|0:0,0:0:0:0:
247,169,69934,1,2,0:0:0:0:
302,20,70077,6,0,P|371:21|418:73,1,144,0|10,1:2|0:0,0:0:0:0:
321,186,70506,2,0,P|326:142|333:107,1,72,2|0,0:0|1:0,0:0:0:0:
213,45,70792,2,0,P|219:80|223:116,1,72,2|8,1:2|0:0,0:0:0:0:
164,195,71077,1,2,0:0:0:0:
274,286,71220,6,0,P|314:274|345:267,1,72,2|2,1:2|1:2,0:0:0:0:
488,211,71506,2,0,P|448:199|417:192,1,72,0|0,1:0|1:0,0:0:0:0:
283,110,71792,2,0,P|292:148|296:181,1,72,10|10,0:0|0:0,0:0:0:0:
405,83,72077,2,0,P|409:47|417:12,1,72,8|8,0:0|0:0,0:0:0:0:
207,45,72363,6,0,B|125:29|154:74|66:58,1,144,4|10,0:0|0:0,0:0:0:0:
2,134,72792,2,0,P|8:171|11:206,1,72,2|0,0:0|1:0,0:0:0:0:
83,342,73077,2,0,P|86:306|91:270,1,72,2|8,1:2|0:0,0:0:0:0:
169,199,73363,1,2,0:0:0:0:
339,281,73506,6,0,B|254:268|284:310|199:297,1,144,0|10,1:0|0:0,0:0:0:0:
74,222,73934,2,0,P|66:177|59:151,1,72,2|0,0:0|1:0,0:0:0:0:
172,44,74220,2,0,P|163:78|157:114,1,72,2|8,1:2|0:0,0:0:0:0:
229,197,74506,1,2,0:0:0:0:
392,84,74649,6,0,B|307:71|337:113|252:100,1,144,0|10,1:0|0:0,0:0:0:0:
81,28,75077,2,0,P|87:67|93:101,1,72,2|0,0:2|1:0,0:0:0:0:
176,222,75363,2,0,P|182:186|187:150,1,72,2|8,1:2|0:0,0:0:0:0:
75,197,75649,1,2,0:0:0:0:
136,320,75792,6,0,P|178:313|211:307,1,72,2|2,1:2|1:2,0:0:0:0:
377,240,76077,2,0,P|335:233|302:227,1,72,0|0,1:0|1:0,0:0:0:0:
183,138,76363,2,0,L|173:101,3,36,8|8|8|8,0:0|3:0|3:0|3:0,0:0:0:0:
262,103,76649,2,0,L|252:66,3,36,4|4|4|4,3:0|3:0|3:0|3:0,0:0:0:0:
333,28,76934,6,0,P|400:12|451:59,1,144,4|10,0:0|0:0,0:0:0:0:
359,183,77363,2,0,P|366:148|374:113,1,72,2|0,0:0|1:0,0:0:0:0:
464,185,77649,2,0,P|456:220|450:255,1,72,2|8,1:2|0:0,0:0:0:0:
381,324,77934,1,2,0:0:0:0:
241,224,78077,6,0,P|291:174|364:186,1,144,0|10,1:0|0:0,0:0:0:0:
277,328,78506,2,0,P|235:320|206:315,1,72,2|0,0:0|1:0,0:0:0:0:
55,255,78792,2,0,P|97:247|126:242,1,72,2|8,1:2|0:0,0:0:0:0:
219,174,79077,1,2,0:0:0:0:
240,67,79220,6,0,P|171:68|124:120,1,144,0|10,1:0|0:0,0:0:0:0:
29,154,79649,2,0,P|24:110|17:75,1,72,2|0,0:0|1:0,0:0:0:0:
138,201,79934,2,0,P|132:236|128:272,1,72,2|8,1:2|0:0,0:0:0:0:
183,346,80219,1,2,0:0:0:0:
304,267,80363,6,0,P|264:255|233:248,1,72,2|2,1:2|1:2,0:0:0:0:
68,219,80649,2,0,P|108:207|139:200,1,72,0|0,1:0|1:0,0:0:0:0:
237,78,80934,2,0,P|229:112|225:148,1,72,10|10,0:0|0:0,0:0:0:0:
132,79,81220,2,0,P|128:43|120:8,1,72,8|8,0:0|0:0,0:0:0:0:
333,34,81506,6,0,P|402:28|454:74,1,144,4|10,0:0|0:0,0:0:0:0:
379,199,81934,2,0,P|375:164|371:128,1,72,2|0,0:0|1:0,0:0:0:0:
482,208,82220,2,0,P|477:243|474:279,1,72,2|8,1:2|0:0,0:0:0:0:
405,351,82506,1,2,0:0:0:0:
285,242,82649,6,0,B|201:222|230:264|139:249,1,144,0|10,1:0|0:0,0:0:0:0:
18,174,83077,2,0,P|56:163|88:155,1,72,2|0,0:0|1:0,0:0:0:0:
226,106,83363,2,0,P|188:95|156:87,1,72,2|8,1:2|0:0,0:0:0:0:
93,20,83649,1,2,0:0:0:0:
172,197,83792,6,0,L|320:168,1,144,0|10,1:0|0:0,0:0:0:0:
416,136,84220,2,0,P|409:171|407:211,1,72,2|0,0:0|1:0,0:0:0:0:
336,326,84506,2,0,P|333:290|326:254,1,72,2|8,1:2|0:0,0:0:0:0:
240,303,84792,1,2,0:0:0:0:
421,270,84934,6,0,L|491:282,1,72,2|2,1:2|1:2,0:0:0:0:
355,181,85220,2,0,L|284:193,1,72,0|0,1:0|1:0,0:0:0:0:
232,118,85506,5,8,0:0:0:0:
221,125,85649,1,8,0:0:0:0:
141,187,85792,1,8,0:0:0:0:
225,248,85934,1,8,0:0:0:0:
146,304,86077,6,0,L|154:341,3,36,0|0|0|0,1:0|1:0|1:0|1:0,0:0:0:0:
235,363,86363,2,0,L|270:352,1,36,8|0,0:2|0:0,0:0:0:0:
340,287,86506,6,0,L|332:250,3,36,0|0|0|0,1:0|1:0|1:0|1:0,0:0:0:0:
417,232,86792,2,0,L|425:195,3,36,8|0|0|0,0:2|0:0|1:0|0:0,0:0:0:0:
346,156,87077,2,0,L|338:119,1,36,2|0,1:2|0:0,0:0:0:0:
319,35,87220,6,0,P|282:28|240:20,1,72,8|0,3:0|1:0,0:0:0:0:
158,61,87506,1,8,3:0:0:0:
253,134,87649,1,0,1:0:0:0:
139,187,87792,6,0,L|87:174,2,48,8|8|0,0:0|3:0|1:0,0:0:0:0:
219,250,88077,2,0,L|271:237,2,48,8|4|4,3:0|3:0|3:0,0:0:0:0:
121,288,88363,6,0,P|128:326|132:365,1,72,0|0,1:0|1:0,0:0:0:0:
39,338,88649,1,10,0:0:0:0:
26,180,88792,6,0,P|67:169|98:161,1,72,12|0,0:0|0:0,0:0:0:0:
242,108,89077,2,0,P|201:97|170:89,1,72,12|0,0:0|0:0,0:0:0:0:
151,253,89363,6,0,B|231:222|287:286|273:298|321:376|401:342,1,288,12|0,0:0|0:0,0:0:0:0:
