osu file format v14

[General]
AudioFilename: audio.mp3
AudioLeadIn: 0
PreviewTime: 48880
Countdown: 0
SampleSet: Soft
StackLeniency: 0.7
Mode: 0
LetterboxInBreaks: 0
WidescreenStoryboard: 1

[Editor]
Bookmarks: 12808,13951,84506
DistanceSpacing: 0.6
BeatDivisor: 3
GridSize: 4
TimelineZoom: 2

[Metadata]
Title:PRIDE OF LIONS (Cut Ver.)
TitleUnicode:PRIDE OF LIONS (Cut Ver.)
Artist:SPYAIR
ArtistUnicode:SPYAIR
Creator:HabiHolic
Version:Hard
Source:
Tags:UNITE スパイエアー japanese J-Rock Jrock rock KENTA MOMIKEN IKE UZ
BeatmapID:2946455
BeatmapSetID:1423394

[Difficulty]
HPDrainRate:5
CircleSize:4
OverallDifficulty:6.5
ApproachRate:8
SliderMultiplier:1.24
SliderTickRate:1

[Events]
//Background and Video events
0,0,"BG.jpeg",0,0
//Break Periods
//Storyboard Layer 0 (Background)
//Storyboard Layer 1 (Fail)
//Storyboard Layer 2 (Pass)
//Storyboard Layer 3 (Foreground)
//Storyboard Layer 4 (Overlay)
//Storyboard Sound Samples

[TimingPoints]
380,285.714285714286,4,2,1,50,1,0
380,-200,4,2,1,50,0,0
2665,-200,4,2,1,70,0,0
4951,-100,4,2,1,70,0,0
10522,-200,4,2,1,70,0,0
19094,-100,4,2,1,70,0,0
37951,-166.666666666667,4,2,1,50,0,0
46665,-100,4,2,1,50,0,0
47237,-100,4,2,1,85,0,0
48951,-200,4,2,1,50,0,0
49522,-100,4,2,1,85,0,0
49951,-100,4,2,1,85,0,0
67792,285.714285714286,4,2,1,70,1,0
76363,-100,4,2,1,50,0,0
76934,-100,4,2,1,70,0,0
85506,-100,4,2,1,50,0,0
86077,-100,4,2,1,65,0,0
88649,-100,4,2,1,85,0,0
89934,-100,4,2,1,30,0,0

[Colours]
Combo1 : 108,70,240
Combo2 : 103,228,219
Combo3 : 0,221,143
Combo4 : 115,155,238

[HitObjects]
55,88,380,6,0,L|21:80,2,31,2|2|0,0:0|0:0|0:0,0:0:0:0:
124,137,808,2,0,L|187:126,1,62,0|2,0:0|0:0,0:0:0:0:
263,167,1237,1,2,0:0:0:0:
263,167,1380,1,2,0:0:0:0:
337,114,1522,6,0,L|329:78,2,31,2|0|2,0:0|0:0|0:0,0:0:0:0:
409,167,1951,2,0,L|399:230,1,62,0|2,0:0|0:0,0:0:0:0:
336,286,2380,1,2,0:0:0:0:
336,286,2522,1,2,0:0:0:0:
397,346,2665,6,0,L|427:339,2,31,2|0|2,0:0|0:0|0:0,0:0:0:0:
336,286,3094,2,0,L|270:301,1,62,0|2,0:0|0:0,0:0:0:0:
211,249,3522,1,2,0:0:0:0:
211,249,3665,1,2,0:0:0:0:
136,301,3808,6,0,L|143:338,2,31,2|0|2,0:0|0:0|0:0,0:0:0:0:
64,254,4237,2,0,L|51:187,1,62,0|2,0:0|0:0,0:0:0:0:
34,115,4665,1,2,0:0:0:0:
34,115,4808,1,2,0:0:0:0:
96,51,4951,6,0,P|156:48|198:91,1,124,8|0,0:0|1:0,0:0:0:0:
291,66,5380,2,0,L|269:192,1,124,8|0,0:0|1:0,0:0:0:0:
196,250,5808,1,8,0:0:0:0:
196,250,5951,1,8,0:0:0:0:
259,320,6094,6,0,B|326:302|314:340|381:323,1,124,8|0,0:0|1:0,0:0:0:0:
460,279,6522,2,0,P|476:220|459:161,1,124,10|8,0:0|0:0,0:0:0:0:
394,100,6951,1,0,1:0:0:0:
394,100,7094,1,0,1:0:0:0:
315,155,7237,6,0,L|190:135,1,124,8|0,0:0|1:0,0:0:0:0:
109,99,7665,2,0,B|95:166|131:149|114:225,1,124,8|8,0:0|0:0,0:0:0:0:
58,288,8094,1,8,0:0:0:0:
58,288,8237,1,0,1:0:0:0:
120,353,8380,5,8,0:0:0:0:
262,209,8665,2,0,L|323:197,1,62,8|8,0:0|0:0,0:0:0:0:
436,258,8951,2,0,L|375:270,1,62,8|8,0:0|0:0,0:0:0:0:
278,359,9237,2,0,L|339:347,1,62,8|8,0:0|0:0,0:0:0:0:
68,349,10522,6,0,P|37:240|142:280,1,279,12|2,0:0|0:0,0:0:0:0:
503,253,12808,2,0,B|432:220|381:287|400:299|352:353|283:320,1,248,4|4,1:2|1:2,0:0:0:0:
40,127,15237,2,0,B|97:149|97:149|119:169|119:169|146:150|146:150|177:149|177:149|180:121|180:121|209:62,2,248,4|4|4,1:2|1:2|1:2,0:0:0:0:
42,300,19094,5,0,1:0:0:0:
42,300,19165,1,0,1:0:0:0:
42,300,19237,2,0,L|29:231,2,62,8|0|4,3:0|1:0|3:0,0:0:0:0:
116,355,19665,6,0,P|169:320|234:320,1,124,4|0,0:0|1:0,0:0:0:0:
319,353,20094,2,0,L|331:282,1,62,2|0,1:2|1:0,0:0:0:0:
284,209,20380,2,0,B|217:194|235:235|159:222,1,124,0|2,1:0|1:2,0:0:0:0:
98,164,20808,1,0,1:0:0:0:
28,215,20951,5,2,1:2:0:0:
28,215,21094,2,0,L|9:77,1,124,2|2,1:2|1:2,0:0:0:0:
73,27,21522,1,10,0:0:0:0:
73,27,21665,1,10,0:0:0:0:
236,144,21951,6,0,P|284:108|344:116,1,124,4|0,1:2|1:0,0:0:0:0:
419,174,22380,2,0,L|407:237,1,62,0|0,1:0|1:0,0:0:0:0:
328,286,22665,2,0,L|316:225,2,62,8|8|8,0:0|0:0|0:0,0:0:0:0:
268,357,23094,1,8,0:0:0:0:
200,292,23237,6,0,P|169:296|138:300,1,62,8|8,0:0|0:0,0:0:0:0:
23,243,23522,2,0,P|53:238|84:234,1,62,8|8,0:0|0:0,0:0:0:0:
206,82,24237,6,0,P|255:46|315:56,1,124,4|0,0:0|1:0,0:0:0:0:
413,25,24665,2,0,L|392:149,1,124,10|0,0:0|1:0,0:0:0:0:
428,234,25094,1,0,1:0:0:0:
349,285,25237,2,0,P|322:272|291:269,1,62,10|0,0:0|0:0,0:0:0:0:
205,281,25522,5,2,1:2:0:0:
205,281,25665,2,0,L|193:214,1,62,2|8,1:2|0:0,0:0:0:0:
134,162,25951,2,0,B|201:145|186:189|254:170,1,124,2|2,0:0|1:2,0:0:0:0:
329,112,26380,1,8,0:0:0:0:
402,171,26522,6,0,P|414:235|394:292,1,124,2|0,1:2|1:0,0:0:0:0:
315,347,26951,2,0,L|249:334,1,62,8|0,0:0|0:0,0:0:0:0:
195,264,27237,1,2,1:2:0:0:
195,264,27380,2,0,P|203:234|198:203,1,62,2|8,1:2|0:0,0:0:0:0:
153,125,27665,6,0,P|203:158|264:152,1,124,2|0,1:2|1:0,0:0:0:0:
355,100,28094,2,0,L|339:228,1,124,10|2,0:0|1:2,0:0:0:0:
391,298,28522,1,0,1:0:0:0:
311,351,28665,2,0,P|281:338|250:337,1,62,10|0,0:0|0:0,0:0:0:0:
190,270,28951,6,0,P|140:305|79:300,1,124,2|8,1:2|0:0,0:0:0:0:
55,206,29380,2,0,P|104:170|165:175,1,124,2|0,0:0|1:0,0:0:0:0:
262,189,29808,2,0,L|247:125,1,62,10|0,0:0|0:0,0:0:0:0:
322,70,30094,6,0,L|356:198,1,124,2|8,1:2|0:0,0:0:0:0:
417,258,30522,1,0,0:0:0:0:
336,310,30665,2,0,B|266:295|288:340|217:321,1,124,2|10,1:2|0:0,0:0:0:0:
148,268,31094,1,0,0:0:0:0:
71,317,31237,6,0,L|51:191,2,124,2|8|0,1:2|0:0|1:0,0:0:0:0:
150,358,31951,1,0,1:0:0:0:
150,358,32094,2,0,P|178:344|212:344,1,62,8|0,0:0|0:0,0:0:0:0:
278,283,32380,6,0,P|325:323|385:323,1,124,0|8,1:0|0:0,0:0:0:0:
467,271,32808,1,0,1:0:0:0:
467,271,32880,1,0,1:0:0:0:
467,271,32951,2,0,L|477:210,2,62,10|2|10,0:0|1:2|0:0,0:0:0:0:
389,212,33380,6,0,L|410:85,1,124,4|0,0:0|1:0,0:0:0:0:
341,28,33808,2,0,P|281:18|232:53,1,124,10|0,0:0|1:0,0:0:0:0:
142,75,34237,1,0,1:0:0:0:
142,75,34380,2,0,L|156:137,1,62,10|0,0:0|0:0,0:0:0:0:
240,189,34665,5,2,1:2:0:0:
240,189,34808,2,0,L|226:251,1,62,2|8,1:2|0:0,0:0:0:0:
160,301,35094,2,0,P|218:286|265:322,1,124,2|2,0:0|1:2,0:0:0:0:
351,304,35522,1,8,0:0:0:0:
351,304,35665,2,0,L|371:182,1,124,4|0,0:0|1:0,0:0:0:0:
324,102,36094,1,8,0:0:0:0:
151,203,36380,2,0,L|84:186,2,62,0|0|8,1:0|1:0|0:0,0:0:0:0:
206,272,36808,6,0,L|335:253,1,124,4|0,0:0|1:0,0:0:0:0:
410,305,37237,1,10,0:0:0:0:
485,120,37522,2,0,L|495:56,2,62,2|8|4,1:2|3:0|3:0,0:0:0:0:
407,166,37951,6,0,P|364:131|309:132,1,111.599996594238,4|2,0:0|0:0,0:0:0:0:
179,165,38665,1,2,0:0:0:0:
179,165,38808,2,0,L|188:201,1,37.1999988647461,2|0,0:0|0:0,0:0:0:0:
256,266,39094,6,0,P|296:228|350:229,1,111.599996594238,2|2,0:0|0:0,0:0:0:0:
468,229,39808,1,2,0:0:0:0:
468,229,39951,2,0,L|459:265,1,37.1999988647461,2|0,0:0|0:0,0:0:0:0:
391,330,40237,6,0,P|351:292|297:293,1,111.599996594238,2|2,0:0|0:0,0:0:0:0:
177,190,40951,2,0,P|231:190|270:152,2,111.599996594238,2|2|2,0:0|0:0|0:0,0:0:0:0:
8,140,42094,1,2,0:0:0:0:
8,140,42237,2,0,L|19:182,1,37.1999988647461,2|0,0:0|0:0,0:0:0:0:
78,244,42522,6,0,P|118:205|172:203,1,111.599996594238,4|2,1:2|0:0,0:0:0:0:
311,256,43237,1,2,0:0:0:0:
311,256,43380,2,0,L|302:292,1,37.1999988647461,2|0,0:0|0:0,0:0:0:0:
234,357,43666,6,0,P|194:319|140:320,1,111.599996594238,4|2,1:2|0:0,0:0:0:0:
31,257,44380,1,2,0:0:0:0:
31,257,44522,2,0,L|12:184,1,74.3999977294923,2|0,0:0|0:0,0:0:0:0:
68,113,44951,6,0,B|177:92|129:179|241:143,1,185.999994323731,4|0,1:2|0:0,0:0:0:0:
318,91,45808,1,2,0:0:0:0:
482,188,46094,6,0,L|472:262,1,74.3999977294923,2|0,0:0|0:0,0:0:0:0:
393,325,46522,5,2,1:2:0:0:
381,329,46594,1,0,1:0:0:0:
367,332,46665,2,0,L|302:316,1,62,8|8,0:0|3:0,0:0:0:0:
246,236,46951,2,0,L|311:220,1,62,4|0,3:0|1:0,0:0:0:0:
392,165,47237,6,0,L|406:101,2,62,10|0|0,0:0|1:0|1:0,0:0:0:0:
316,100,47665,2,0,L|330:36,2,62,10|0|0,0:0|1:0|1:0,0:0:0:0:
220,102,48094,2,0,L|234:169,1,62,10|0,0:0|1:0,0:0:0:0:
171,235,48380,5,8,0:0:0:0:
171,235,48522,1,0,1:0:0:0:
248,298,48665,1,8,0:0:0:0:
157,338,48808,1,8,0:0:0:0:
23,165,49522,6,0,P|69:126|129:130,1,124,4|8,0:0|0:0,0:0:0:0:
206,186,49951,1,0,0:0:0:0:
287,134,50094,1,2,1:2:0:0:
287,134,50237,2,0,L|274:66,1,62,2|8,1:2|0:0,0:0:0:0:
357,14,50522,6,0,L|384:144,1,124,2|0,1:2|1:0,0:0:0:0:
437,211,50951,2,0,P|470:203|501:195,1,62,10|0,0:0|0:0,0:0:0:0:
368,274,51237,2,0,P|337:266|307:259,1,62,2|2,1:2|1:2,0:0:0:0:
234,308,51522,1,8,0:0:0:0:
160,252,51665,6,0,L|141:127,1,124,2|0,1:2|1:0,0:0:0:0:
197,54,52094,2,0,P|255:41|302:78,1,124,8|0,0:0|1:0,0:0:0:0:
390,95,52522,1,0,1:0:0:0:
390,95,52665,2,0,P|383:129|381:159,1,62,10|2,0:0|0:0,0:0:0:0:
311,223,52951,5,2,1:2:0:0:
311,223,53094,2,0,L|249:206,1,62,2|8,1:2|0:0,0:0:0:0:
172,160,53380,2,0,B|155:233|190:213|169:291,1,124,2|2,0:0|1:2,0:0:0:0:
237,352,53808,1,8,0:0:0:0:
451,232,54094,6,0,P|391:237|342:202,1,124,4|8,0:0|0:0,0:0:0:0:
272,131,54522,1,0,0:0:0:0:
199,190,54665,2,0,L|211:257,1,62,2|2,1:2|1:2,0:0:0:0:
283,310,54951,1,8,0:0:0:0:
206,360,55094,6,0,P|156:324|96:331,1,124,2|0,1:2|1:0,0:0:0:0:
19,278,55522,2,0,L|4:215,1,62,10|0,0:0|0:0,0:0:0:0:
77,159,55808,1,2,1:2:0:0:
77,159,55951,2,0,L|92:222,1,62,2|8,1:2|0:0,0:0:0:0:
171,258,56237,6,0,B|249:254|217:222|289:220,1,124,2|0,1:2|1:0,0:0:0:0:
364,265,56665,2,0,L|354:326,1,62,8|0,0:0|0:0,0:0:0:0:
449,316,56951,2,0,L|466:187,1,124,0|10,1:0|0:0,0:0:0:0:
419,111,57380,1,0,0:0:0:0:
346,165,57522,6,0,B|274:148|292:184|222:169,1,124,2|8,1:2|0:0,0:0:0:0:
156,104,57951,1,2,1:2:0:0:
156,103,58094,2,0,P|160:73|155:42,1,62,10|8,0:0|0:0,0:0:0:0:
77,170,58380,2,0,P|72:200|76:231,1,62,10|8,0:0|0:0,0:0:0:0:
151,289,58665,6,0,L|279:263,1,124,4|10,0:0|0:0,0:0:0:0:
356,316,59094,1,0,0:0:0:0:
435,272,59237,2,0,P|434:241|438:210,1,62,2|2,1:2|1:2,0:0:0:0:
400,126,59522,1,8,0:0:0:0:
321,167,59665,6,0,P|275:128|216:141,1,124,2|0,1:2|1:0,0:0:0:0:
123,121,60094,2,0,L|135:183,1,62,10|0,0:0|0:0,0:0:0:0:
211,233,60380,2,0,L|199:295,1,62,2|2,1:2|1:2,0:0:0:0:
258,360,60665,1,8,0:0:0:0:
258,359,60808,6,0,P|307:324|368:326,1,124,2|0,1:2|1:0,0:0:0:0:
462,364,61237,2,0,L|479:242,1,124,10|0,0:0|1:0,0:0:0:0:
409,126,61665,2,0,L|399:195,1,62,2|8,1:2|0:0,0:0:0:0:
318,244,61951,6,0,P|268:210|207:210,1,124,2|2,0:0|1:2,0:0:0:0:
130,269,62380,1,8,0:0:0:0:
49,218,62522,2,0,L|26:94,1,124,2|2,1:2|1:2,0:0:0:0:
90,23,62951,1,8,0:0:0:0:
90,23,63094,1,0,0:0:0:0:
168,85,63237,6,0,B|237:70|226:115|288:97,2,124,4|8|2,0:0|0:0|1:2,0:0:0:0:
99,153,63951,2,0,P|104:190|111:219,1,62,2|8,1:2|0:0,0:0:0:0:
182,275,64237,6,0,L|308:251,1,124,2|0,1:2|1:0,0:0:0:0:
373,170,64665,2,0,L|310:157,1,62,10|0,0:0|0:0,0:0:0:0:
249,87,64951,1,2,1:2:0:0:
249,87,65094,2,0,B|300:71|300:71|312:58|312:58|367:39,1,124,2|0,1:2|0:0,0:0:0:0:
446,71,65522,6,0,P|464:129|450:189,1,124,10|8,0:0|0:0,0:0:0:0:
383,245,65951,1,0,1:0:0:0:
383,245,66094,2,0,L|318:229,1,62,10|0,0:0|1:0,0:0:0:0:
246,274,66380,2,0,L|181:258,1,62,8|0,0:0|1:0,0:0:0:0:
117,201,66665,6,0,L|107:163,3,31,8|0|0|0,0:0|1:0|1:0|1:0,0:0:0:0:
104,144,66951,2,0,P|134:144|163:132,1,62,0|0,1:0|1:0,0:0:0:0:
246,86,67237,2,0,L|255:120,4,31,0|0|0|0|0,1:0|1:0|1:0|1:0|1:0,0:0:0:0:
384,30,67792,6,0,P|444:27|486:69,1,124,4|10,0:0|0:0,0:0:0:0:
453,148,68220,2,0,P|392:151|350:109,1,124,2|2,0:0|1:2,0:0:0:0:
292,33,68649,1,8,0:0:0:0:
292,33,68792,1,2,0:0:0:0:
222,89,68934,6,0,L|243:211,1,124,0|10,1:2|0:0,0:0:0:0:
210,285,69363,2,0,P|254:245|311:259,1,124,2|2,0:0|1:2,0:0:0:0:
385,309,69792,1,8,0:0:0:0:
385,309,69934,1,2,0:0:0:0:
466,262,70077,6,0,L|488:140,1,124,0|10,1:2|0:0,0:0:0:0:
408,67,70506,2,0,L|386:189,1,124,2|2,0:0|1:2,0:0:0:0:
313,237,70934,1,8,0:0:0:0:
313,237,71077,1,2,0:0:0:0:
235,174,71220,5,2,1:2:0:0:
235,174,71363,2,0,L|220:111,2,62,2|0|0,1:2|1:0|1:0,0:0:0:0:
167,247,71792,2,0,L|184:309,1,62,10|10,0:0|0:0,0:0:0:0:
259,361,72077,2,0,L|275:301,1,62,8|8,0:0|0:0,0:0:0:0:
348,237,72363,6,0,P|402:267|463:260,1,124,4|10,0:0|0:0,0:0:0:0:
484,169,72792,2,0,P|430:139|369:146,1,124,2|2,0:0|1:2,0:0:0:0:
281,171,73220,1,8,0:0:0:0:
281,171,73363,1,2,0:0:0:0:
182,129,73506,6,0,L|204:257,1,124,0|10,1:0|0:0,0:0:0:0:
157,316,73934,2,0,P|209:283|269:294,1,124,2|2,0:0|1:2,0:0:0:0:
346,345,74363,1,8,0:0:0:0:
346,345,74506,1,2,0:0:0:0:
424,297,74649,6,0,L|444:171,1,124,0|10,1:0|0:0,0:0:0:0:
360,112,75077,2,0,L|340:234,1,124,2|2,0:2|1:2,0:0:0:0:
265,288,75506,1,8,0:0:0:0:
265,288,75649,1,2,0:0:0:0:
192,224,75792,5,2,1:2:0:0:
192,224,75934,2,0,L|126:237,1,62,2|0,1:2|1:0,0:0:0:0:
39,200,76220,1,0,1:0:0:0:
109,136,76363,6,0,L|101:102,3,31,8|8|8|8,0:0|3:0|3:0|3:0,0:0:0:0:
136,99,76649,2,0,L|128:68,3,31,4|4|4|4,3:0|3:0|3:0|3:0,0:0:0:0:
152,34,76934,6,0,P|213:33|260:72,1,124,4|10,0:0|0:0,0:0:0:0:
354,51,77363,2,0,L|335:175,1,124,2|2,0:0|1:2,0:0:0:0:
416,228,77792,1,8,0:0:0:0:
416,228,77934,1,2,0:0:0:0:
346,289,78077,6,0,P|296:254|236:265,1,124,0|10,1:0|0:0,0:0:0:0:
168,335,78506,2,0,L|150:210,1,124,2|2,0:0|1:2,0:0:0:0:
135,122,78934,1,8,0:0:0:0:
135,122,79077,1,2,0:0:0:0:
214,73,79220,6,0,P|275:73|321:114,1,124,0|10,1:0|0:0,0:0:0:0:
417,73,79649,2,0,L|397:206,1,124,2|2,0:0|1:2,0:0:0:0:
383,289,80077,1,8,0:0:0:0:
383,289,80220,1,2,0:0:0:0:
295,232,80363,5,2,1:2:0:0:
295,232,80506,2,0,L|284:163,2,62,2|0|0,1:2|1:0|1:0,0:0:0:0:
285,329,80934,2,0,P|254:320|222:314,1,62,10|10,0:0|0:0,0:0:0:0:
143,357,81220,2,0,P|112:348|80:342,1,62,8|8,0:0|0:0,0:0:0:0:
2,260,81506,6,0,L|132:240,1,124,4|10,0:0|0:0,0:0:0:0:
203,178,81934,2,0,B|189:254|229:227|214:298,1,124,2|2,0:0|1:2,0:0:0:0:
276,363,82363,1,8,0:0:0:0:
276,363,82506,1,2,0:0:0:0:
349,298,82649,6,0,P|399:331|459:323,1,124,0|10,1:0|0:0,0:0:0:0:
479,234,83077,2,0,P|428:200|368:208,1,124,2|2,0:0|1:2,0:0:0:0:
279,234,83506,1,8,0:0:0:0:
279,234,83649,1,2,0:0:0:0:
193,271,83792,6,0,L|173:148,1,124,0|10,1:0|0:0,0:0:0:0:
229,69,84220,2,0,B|299:57|281:90|350:78,1,124,2|2,0:0|1:2,0:0:0:0:
435,28,84649,1,8,0:0:0:0:
435,28,84792,1,2,0:0:0:0:
495,111,84934,1,2,1:2:0:0:
495,111,85077,2,0,L|483:181,2,62,2|0|0,1:2|1:0|1:0,0:0:0:0:
401,126,85506,5,8,0:0:0:0:
401,126,85649,1,8,0:0:0:0:
315,93,85792,1,8,0:0:0:0:
329,185,85934,1,8,0:0:0:0:
347,278,86077,6,0,L|212:260,1,124,0|8,1:0|0:2,0:0:0:0:
152,205,86506,2,0,B|132:135|168:150|148:83,1,124,0|8,1:0|0:2,0:0:0:0:
220,21,86934,2,0,P|249:28|280:36,1,62,0|2,1:0|1:2,0:0:0:0:
361,93,87220,5,8,3:0:0:0:
361,93,87363,1,0,1:0:0:0:
448,48,87506,1,8,3:0:0:0:
491,142,87649,1,0,1:0:0:0:
398,184,87792,6,0,L|409:226,2,41.3333333333333,8|8|0,0:0|3:0|1:0,0:0:0:0:
324,233,88077,2,0,L|335:275,2,41.3333333333333,8|4|4,3:0|3:0|3:0,0:0:0:0:
253,170,88363,6,0,L|264:97,1,62,0|0,1:0|1:0,0:0:0:0:
156,37,88649,1,10,0:0:0:0:
156,37,88792,2,0,L|172:102,1,62,12|0,0:0|0:0,0:0:0:0:
78,107,89077,2,0,L|94:172,1,62,12|0,0:0|0:0,0:0:0:0:
164,233,89363,6,0,B|227:197|288:250|258:274|329:319|391:280,1,248,12|0,0:0|0:0,0:0:0:0:
