osu file format v14

[General]
AudioFilename: audio.mp3
AudioLeadIn: 0
PreviewTime: 48880
Countdown: 0
SampleSet: Soft
StackLeniency: 0.7
Mode: 0
LetterboxInBreaks: 0
WidescreenStoryboard: 1

[Editor]
Bookmarks: 12808,13951
DistanceSpacing: 0.6
BeatDivisor: 4
GridSize: 4
TimelineZoom: 2

[Metadata]
Title:PRIDE OF LIONS (Cut Ver.)
TitleUnicode:PRIDE OF LIONS (Cut Ver.)
Artist:SPYAIR
ArtistUnicode:SPYAIR
Creator:HabiHolic
Version:Extra
Source:
Tags:UNITE スパイエアー japanese J-Rock Jrock rock KENTA MOMIKEN IKE UZ
BeatmapID:2935168
BeatmapSetID:1423394

[Difficulty]
HPDrainRate:6.5
CircleSize:4
OverallDifficulty:8.5
ApproachRate:9.2
SliderMultiplier:1.64
SliderTickRate:1

[Events]
//Background and Video events
0,0,"BG.jpeg",0,0
//Break Periods
//Storyboard Layer 0 (Background)
//Storyboard Layer 1 (Fail)
//Storyboard Layer 2 (Pass)
//Storyboard Layer 3 (Foreground)
//Storyboard Layer 4 (Overlay)
//Storyboard Sound Samples

[TimingPoints]
380,285.714285714286,4,2,1,50,1,0
380,-200,4,2,1,50,0,0
2665,-200,4,2,1,70,0,0
4951,-100,4,2,1,70,0,0
10522,-200,4,2,1,70,0,0
19094,-100,4,2,1,70,0,0
37951,-166.666666666667,4,2,1,50,0,0
47237,-100,4,2,1,85,0,0
48951,-200,4,2,1,50,0,0
49522,-76.9230769230769,4,2,1,85,0,0
49951,-100,4,2,1,85,0,0
67792,285.714285714286,4,2,1,70,1,0
76363,-100,4,2,1,50,0,0
76934,-100,4,2,1,70,0,0
85506,-100,4,2,1,50,0,0
86077,-100,4,2,1,65,0,0
88649,-100,4,2,1,85,0,0
89934,-100,4,2,1,30,0,0

[Colours]
Combo1 : 108,70,240
Combo2 : 103,228,219
Combo3 : 0,221,143
Combo4 : 115,155,238

[HitObjects]
45,62,380,5,2,0:0:0:0:
132,43,522,1,2,0:0:0:0:
31,66,665,1,0,0:0:0:0:
106,134,808,2,0,L|190:118,1,82,0|2,0:0|0:0,0:0:0:0:
257,179,1237,1,2,0:0:0:0:
257,179,1380,1,2,0:0:0:0:
469,62,1522,5,2,0:0:0:0:
382,43,1664,1,0,0:0:0:0:
483,66,1807,1,2,0:0:0:0:
408,134,1951,2,0,L|324:118,1,82,0|2,0:0|0:0,0:0:0:0:
257,179,2379,1,2,0:0:0:0:
257,179,2522,1,2,0:0:0:0:
133,48,2665,5,2,0:0:0:0:
224,22,2808,1,0,0:0:0:0:
119,52,2951,1,2,0:0:0:0:
200,113,3094,2,0,L|284:97,1,82,0|2,0:0|0:0,0:0:0:0:
351,158,3522,1,2,0:0:0:0:
351,158,3665,1,2,0:0:0:0:
211,241,3808,5,2,0:0:0:0:
229,328,3951,1,0,0:0:0:0:
205,223,4094,1,2,0:0:0:0:
300,263,4237,2,0,L|385:276,1,82,0|2,0:0|0:0,0:0:0:0:
450,217,4665,1,2,0:0:0:0:
450,217,4808,1,2,0:0:0:0:
396,126,4951,6,0,L|349:111,3,41,8|0|0|0,0:0|1:0|1:0|1:0,0:0:0:0:
261,96,5237,2,0,L|274:136,1,41,0|0,1:0|1:0,0:0:0:0:
260,226,5380,6,0,L|213:211,3,41,8|0|0|0,0:0|1:0|1:0|1:0,0:0:0:0:
125,196,5665,2,0,L|138:236,1,41,0|0,1:0|1:0,0:0:0:0:
185,348,5808,2,0,L|197:309,1,41,8|0,0:0|1:0,0:0:0:0:
247,187,5951,2,0,L|260:227,1,41,8|0,0:0|1:0,0:0:0:0:
301,313,6094,6,0,L|348:298,3,41,8|0|0|0,0:0|1:0|1:0|1:0,0:0:0:0:
433,299,6380,2,0,L|420:260,1,41,0|0,1:0|1:0,0:0:0:0:
376,182,6522,6,0,L|423:167,3,41,10|0|0|0,0:0|1:0|1:0|1:0,0:0:0:0:
503,163,6808,2,0,L|490:124,1,41,8|0,0:0|1:0,0:0:0:0:
430,31,6951,2,0,L|417:69,1,41,0|0,1:0|1:0,0:0:0:0:
350,154,7094,2,0,L|337:115,1,41,0|0,1:0|1:0,0:0:0:0:
264,20,7237,6,0,L|256:68,3,41,8|0|0|0,0:0|1:0|1:0|1:0,0:0:0:0:
183,110,7522,2,0,L|144:98,1,41,0|0,1:0|1:0,0:0:0:0:
81,163,7665,6,0,L|89:211,3,41,8|0|0|0,0:0|1:0|1:0|1:0,0:0:0:0:
162,253,7950,2,0,L|201:241,1,41,8|0,0:0|1:0,0:0:0:0:
248,318,8094,2,0,L|287:306,1,41,8|0,0:0|1:0,0:0:0:0:
340,237,8237,2,0,L|379:249,1,41,0|0,1:0|1:0,0:0:0:0:
457,270,8380,5,8,0:0:0:0:
457,270,8665,1,8,0:0:0:0:
263,166,8808,1,8,0:0:0:0:
418,64,8951,1,8,0:0:0:0:
314,295,9094,1,8,0:0:0:0:
243,40,9237,1,8,0:0:0:0:
491,124,9380,1,8,0:0:0:0:
491,124,10522,6,0,B|441:113|413:51|413:51|447:135|437:234|351:281,1,369,12|2,0:0|0:0,0:0:0:0:
63,353,12808,6,0,B|26:308|17:248|17:248|54:198|42:126|42:126|60:170|100:186,1,328,4|4,1:2|1:2,0:0:0:0:
310,77,15237,6,0,P|442:38|424:176,1,328,4|4,1:2|1:2,0:0:0:0:
27,245,17522,6,0,B|211:204|136:374|324:314,1,328,4|2,1:2|0:0,0:0:0:0:
443,88,19094,6,0,L|456:44,2,41,0|0|8,1:0|1:0|3:0,0:0:0:0:
349,68,19380,1,0,1:0:0:0:
381,230,19522,1,4,3:0:0:0:
214,182,19665,6,0,P|135:182|89:117,1,164,4|0,0:0|1:0,0:0:0:0:
185,78,20094,5,2,1:2:0:0:
234,285,20237,1,0,1:0:0:0:
365,138,20380,1,0,1:0:0:0:
133,195,20522,1,0,1:0:0:0:
293,48,20665,1,2,1:2:0:0:
347,257,20808,1,0,1:0:0:0:
173,83,20951,5,2,1:2:0:0:
284,162,21094,2,0,L|367:146,1,82,2|0,1:2|1:0,0:0:0:0:
439,199,21380,1,2,1:2:0:0:
299,64,21522,1,10,0:0:0:0:
278,307,21665,1,10,0:0:0:0:
277,306,21951,6,0,P|212:261|133:274,1,164,4|0,1:2|1:0,0:0:0:0:
53,211,22380,1,0,1:0:0:0:
184,128,22522,1,0,1:0:0:0:
33,61,22665,1,8,0:0:0:0:
86,303,22808,1,8,0:0:0:0:
272,131,22951,1,8,0:0:0:0:
28,211,23094,1,8,0:0:0:0:
234,37,23237,5,8,0:0:0:0:
195,319,23380,1,8,0:0:0:0:
137,99,23522,1,8,0:0:0:0:
202,341,23665,1,8,0:0:0:0:
202,341,24237,6,0,B|295:340|264:295|359:293,1,164,4|0,0:0|1:0,0:0:0:0:
486,207,24665,2,0,L|407:189,1,82,10|0,0:0|0:0,0:0:0:0:
293,117,24951,1,0,1:0:0:0:
293,117,25094,1,0,1:0:0:0:
444,9,25237,2,0,P|452:48|446:88,1,82,10|0,0:0|0:0,0:0:0:0:
333,202,25522,5,2,1:2:0:0:
211,127,25665,2,0,L|297:116,1,82,2|8,1:2|0:0,0:0:0:0:
207,257,25951,2,0,B|141:244|141:244|111:256|111:256|40:244,1,164,2|2,0:0|1:2,0:0:0:0:
87,160,26380,1,8,0:0:0:0:
240,332,26522,6,0,P|253:246|271:165,1,164,2|0,1:2|1:0,0:0:0:0:
173,23,26951,2,0,P|178:63|183:104,1,82,8|0,0:0|0:0,0:0:0:0:
130,198,27237,1,2,1:2:0:0:
350,104,27380,2,0,P|310:86|265:83,1,82,2|8,1:2|0:0,0:0:0:0:
188,278,27665,6,0,L|352:251,1,164,2|0,1:2|1:0,0:0:0:0:
469,233,28094,2,0,P|457:279|450:315,1,82,10|0,0:0|0:0,0:0:0:0:
379,177,28380,2,0,P|370:136|360:97,1,82,2|0,1:2|1:0,0:0:0:0:
486,26,28665,2,0,P|475:65|467:105,1,82,10|0,0:0|0:0,0:0:0:0:
272,136,28951,6,0,B|180:137|207:91|117:90,1,164,2|8,1:2|0:0,0:0:0:0:
16,260,29380,2,0,B|108:261|81:215|170:214,1,164,2|0,0:0|1:0,0:0:0:0:
290,265,29808,2,0,P|282:312|278:348,1,82,10|0,0:0|0:0,0:0:0:0:
169,214,30094,2,0,P|162:132|147:51,1,164,2|8,1:2|0:0,0:0:0:0:
238,10,30522,1,0,0:0:0:0:
346,122,30665,2,0,L|265:106,1,82,2|0,1:2|1:0,0:0:0:0:
411,207,30951,2,0,L|496:191,1,82,10|0,0:0|0:0,0:0:0:0:
280,283,31237,6,0,P|200:287|146:229,2,164,2|8|0,1:2|0:0|1:0,0:0:0:0:
345,171,31951,1,0,1:0:0:0:
265,108,32094,2,0,P|247:145|241:185,1,82,8|0,0:0|0:0,0:0:0:0:
311,262,32380,5,0,1:0:0:0:
311,262,32522,1,0,1:0:0:0:
424,191,32665,2,0,L|342:170,1,82,8|0,0:0|1:0,0:0:0:0:
318,162,32880,1,0,1:0:0:0:
318,161,32951,1,10,0:0:0:0:
172,28,33094,1,2,1:2:0:0:
137,230,33237,1,10,0:0:0:0:
279,50,33380,6,0,B|351:66|351:66|367:82|367:82|440:100,1,164,4|0,0:0|1:0,0:0:0:0:
496,232,33808,2,0,P|452:237|415:247,1,82,10|0,0:0|0:0,0:0:0:0:
320,328,34094,1,0,1:0:0:0:
320,328,34237,1,0,1:0:0:0:
267,153,34380,2,0,P|311:158|348:168,1,82,10|0,0:0|0:0,0:0:0:0:
332,67,34665,5,2,1:2:0:0:
167,134,34808,2,0,P|177:173|186:213,1,82,2|8,1:2|0:0,0:0:0:0:
292,334,35094,2,0,P|371:340|426:283,1,164,2|2,0:0|1:2,0:0:0:0:
339,243,35522,1,8,0:0:0:0:
218,174,35665,6,0,B|127:172|169:223|58:221,1,164,4|0,0:0|1:0,0:0:0:0:
297,236,36094,2,0,P|313:199|316:158,1,82,8|0,0:0|0:0,0:0:0:0:
188,22,36380,2,0,L|205:110,1,82,0|0,1:0|1:0,0:0:0:0:
225,306,36665,1,8,0:0:0:0:
8,242,36808,6,0,P|58:182|137:186,1,164,4|0,0:0|1:0,0:0:0:0:
216,281,37237,2,0,L|197:370,1,82,10|0,0:0|0:0,0:0:0:0:
121,307,37522,5,2,1:2:0:0:
294,341,37665,1,8,3:0:0:0:
106,305,37808,1,4,3:0:0:0:
205,253,37951,6,0,L|183:143,1,98.3999969970704,4|0,0:0|0:0,0:0:0:0:
241,80,38380,1,2,0:0:0:0:
377,176,38665,1,2,0:0:0:0:
377,176,38808,2,0,L|427:164,1,49.1999984985352,2|0,0:0|0:0,0:0:0:0:
491,243,39094,6,0,L|396:267,1,98.3999969970704,2|0,0:0|0:0,0:0:0:0:
307,243,39522,1,2,0:0:0:0:
177,124,39808,1,2,0:0:0:0:
177,124,39951,2,0,L|187:68,1,49.1999984985352,2|0,0:0|0:0,0:0:0:0:
77,119,40237,6,0,L|97:217,1,98.3999969970704,2|0,0:0|0:0,0:0:0:0:
51,292,40665,1,2,0:0:0:0:
237,317,40951,2,0,P|283:301|326:322,1,98.3999969970704,2|2,0:0|0:0,0:0:0:0:
412,302,41380,6,0,L|431:201,1,98.3999969970704,2|0,0:0|0:0,0:0:0:0:
378,128,41808,1,2,0:0:0:0:
177,224,42094,2,0,L|129:211,2,49.1999984985352,2|2|0,0:0|0:0|0:0,0:0:0:0:
236,298,42522,2,0,L|336:280,1,98.3999969970704,4|0,1:2|0:0,0:0:0:0:
409,330,42951,1,2,0:0:0:0:
451,154,43237,1,2,0:0:0:0:
451,154,43380,2,0,L|396:140,1,49.1999984985352,2|0,0:0|0:0,0:0:0:0:
331,70,43665,6,0,L|435:52,1,98.3999969970704,4|0,1:2|0:0,0:0:0:0:
512,89,44094,1,2,0:0:0:0:
333,218,44380,1,2,0:0:0:0:
333,218,44522,2,0,L|235:197,1,98.3999969970704,2|0,0:0|0:0,0:0:0:0:
163,127,44951,6,0,B|121:88|121:88|148:186|148:186|143:234|115:264,1,245.999992492676,4|0,1:2|0:0,0:0:0:0:
39,310,45808,1,2,0:0:0:0:
211,346,46094,6,0,P|246:313|294:309,1,98.3999969970704,2|0,0:0|0:0,0:0:0:0:
374,352,46522,1,2,1:2:0:0:
374,352,46594,1,0,1:0:0:0:
374,352,46665,1,8,0:0:0:0:
410,177,46808,1,8,3:0:0:0:
248,234,46951,1,4,3:0:0:0:
448,277,47094,1,0,1:0:0:0:
448,277,47165,1,0,1:0:0:0:
448,277,47237,6,0,L|365:256,1,82,10|0,0:0|1:0,0:0:0:0:
199,311,47522,1,0,1:0:0:0:
312,112,47665,6,0,B|329:151|329:151|319:193,1,82,10|0,0:0|1:0,0:0:0:0:
181,291,47951,1,0,1:0:0:0:
388,224,48094,5,10,0:0:0:0:
388,224,48237,1,0,1:0:0:0:
185,126,48380,5,8,0:0:0:0:
459,180,48522,1,0,1:0:0:0:
245,59,48665,1,8,0:0:0:0:
283,301,48808,1,8,0:0:0:0:
28,199,48951,6,0,P|11:144|62:169,1,143.5,2|0,0:0|0:0,0:0:0:0:
96,245,49522,6,0,B|226:245|164:180|291:179,1,213.199990240479,4|8,0:0|0:0,0:0:0:0:
365,244,49951,1,0,0:0:0:0:
334,61,50094,1,2,1:2:0:0:
485,149,50237,2,0,P|476:189|469:229,1,82,2|8,1:2|0:0,0:0:0:0:
340,351,50522,6,0,P|273:297|199:311,1,164,2|0,1:2|1:0,0:0:0:0:
34,222,50951,2,0,L|121:204,1,82,10|0,0:0|0:0,0:0:0:0:
259,135,51237,2,0,L|172:117,1,82,2|2,1:2|1:2,0:0:0:0:
96,39,51522,1,8,0:0:0:0:
210,246,51665,6,0,L|373:219,1,164,2|0,1:2|1:0,0:0:0:0:
512,178,52094,2,0,P|501:226|496:261,1,82,8|0,0:0|0:0,0:0:0:0:
389,365,52380,1,0,1:0:0:0:
389,365,52522,1,0,1:0:0:0:
278,204,52665,2,0,L|360:188,1,82,10|2,0:0|0:0,0:0:0:0:
186,293,52951,1,2,1:2:0:0:
186,293,53094,2,0,L|104:277,1,82,2|8,1:2|0:0,0:0:0:0:
3,159,53380,2,0,P|82:168|137:111,1,164,2|2,0:0|1:2,0:0:0:0:
236,23,53808,2,0,L|249:103,1,82,8|0,0:0|0:0,0:0:0:0:
321,192,54094,6,0,B|417:191|373:137|475:140,1,164,4|8,0:0|0:0,0:0:0:0:
465,234,54522,1,0,0:0:0:0:
334,94,54665,1,2,1:2:0:0:
334,94,54808,2,0,L|349:9,1,82,2|8,1:2|0:0,0:0:0:0:
202,69,55094,6,0,L|232:233,1,164,2|0,1:2|1:0,0:0:0:0:
356,358,55522,2,0,L|371:277,1,82,10|0,0:0|0:0,0:0:0:0:
309,124,55808,1,2,1:2:0:0:
498,175,55951,2,0,L|513:256,1,82,2|8,1:2|0:0,0:0:0:0:
265,295,56237,6,0,B|160:294|203:250|107:251,1,164,2|0,1:2|1:0,0:0:0:0:
0,169,56665,2,0,L|80:150,1,82,8|0,0:0|0:0,0:0:0:0:
237,125,56951,1,0,1:0:0:0:
237,125,57094,1,0,1:0:0:0:
161,8,57237,2,0,P|148:51|145:88,1,82,10|0,0:0|0:0,0:0:0:0:
266,218,57522,6,0,B|334:204|334:204|354:186|354:186|424:171,1,164,2|8,1:2|0:0,0:0:0:0:
480,234,57951,1,2,1:2:0:0:
290,119,58094,1,10,0:0:0:0:
365,300,58237,1,8,0:0:0:0:
385,68,58380,1,10,0:0:0:0:
177,169,58522,1,8,0:0:0:0:
388,205,58665,6,0,B|338:186|309:220|319:229|285:261|239:247,1,164,4|10,0:0|0:0,0:0:0:0:
139,167,59094,1,0,0:0:0:0:
227,58,59237,2,0,P|241:96|241:137,1,82,2|2,1:2|1:2,0:0:0:0:
152,257,59522,1,8,0:0:0:0:
6,133,59665,6,0,P|46:65|125:64,1,164,2|0,1:2|1:0,0:0:0:0:
254,152,60094,2,0,L|240:233,1,82,10|0,0:0|0:0,0:0:0:0:
117,349,60380,2,0,L|103:268,1,82,2|2,1:2|1:2,0:0:0:0:
35,194,60665,1,8,0:0:0:0:
190,84,60808,6,0,B|284:67|250:132|345:109,1,164,2|0,1:2|1:0,0:0:0:0:
500,59,61237,2,0,P|491:105|491:143,1,82,10|0,0:0|0:0,0:0:0:0:
360,271,61522,2,0,P|359:230|350:189,1,82,0|2,1:0|1:2,0:0:0:0:
260,245,61808,1,8,0:0:0:0:
334,362,61951,6,0,L|418:346,1,82,2|0,0:0|1:0,0:0:0:0:
253,255,62237,2,0,L|169:239,1,82,2|8,1:2|0:0,0:0:0:0:
5,155,62522,2,0,P|82:169|138:113,1,164,2|2,1:2|1:2,0:0:0:0:
172,21,62951,1,8,0:0:0:0:
224,168,63094,1,0,0:0:0:0:
335,68,63237,6,0,B|434:51|396:101|494:81,2,164,4|8|2,0:0|0:0|1:2,0:0:0:0:
174,32,63951,2,0,P|187:74|192:117,1,82,2|8,1:2|0:0,0:0:0:0:
287,258,64237,2,0,B|352:241|352:241|369:219|369:219|439:200,1,164,2|0,1:2|1:0,0:0:0:0:
508,85,64665,2,0,L|417:69,1,82,10|0,0:0|0:0,0:0:0:0:
256,17,64951,1,2,1:2:0:0:
256,17,65094,1,2,1:2:0:0:
334,205,65237,2,0,P|335:163|343:117,1,82,8|0,0:0|0:0,0:0:0:0:
155,59,65522,6,0,P|172:139|175:220,1,164,10|8,0:0|0:0,0:0:0:0:
114,301,65951,1,0,1:0:0:0:
209,353,66094,2,0,P|249:344|289:337,1,82,10|0,0:0|1:0,0:0:0:0:
462,272,66380,2,0,P|422:263|382:256,1,82,8|0,0:0|1:0,0:0:0:0:
314,138,66665,5,8,0:0:0:0:
287,122,66736,1,0,1:0:0:0:
256,121,66807,1,0,1:0:0:0:
229,134,66880,1,0,1:0:0:0:
212,160,66951,6,0,L|166:143,3,41,0|0|0|0,1:0|1:0|1:0|0:0,0:0:0:0:
77,140,67237,2,0,L|88:187,3,41,0|0|0|0,1:0|1:0|1:0|1:0,0:0:0:0:
114,263,67522,6,0,P|172:249|235:281,1,123,0|0,1:0|1:0,0:0:0:0:
260,296,67792,6,0,P|339:308|393:251,1,164,4|10,0:0|0:0,0:0:0:0:
288,118,68220,2,0,P|291:158|304:197,1,82,2|0,0:0|1:0,0:0:0:0:
410,117,68506,2,0,P|406:76|393:37,1,82,2|8,1:2|0:0,0:0:0:0:
221,34,68792,1,2,0:0:0:0:
272,238,68934,6,0,L|439:210,1,164,0|10,1:2|0:0,0:0:0:0:
298,341,69363,2,0,L|206:324,1,82,2|0,0:0|1:0,0:0:0:0:
49,269,69649,2,0,L|141:252,1,82,2|8,1:2|0:0,0:0:0:0:
272,147,69934,1,2,0:0:0:0:
150,13,70077,6,0,B|118:54|124:111|124:111|158:169,1,164,0|10,1:2|0:0,0:0:0:0:
248,259,70506,2,0,P|294:249|332:240,1,82,2|0,0:0|1:0,0:0:0:0:
479,178,70792,2,0,P|433:168|395:159,1,82,2|8,1:2|0:0,0:0:0:0:
328,77,71077,1,2,0:0:0:0:
192,166,71220,5,2,1:2:0:0:
186,153,71363,1,2,1:2:0:0:
233,54,71506,1,0,1:0:0:0:
80,140,71649,1,0,1:0:0:0:
292,161,71792,5,10,0:0:0:0:
123,47,71934,1,10,0:0:0:0:
185,299,72077,1,8,0:0:0:0:
371,122,72220,1,8,0:0:0:0:
96,151,72363,6,0,L|274:186,1,164,4|10,0:0|0:0,0:0:0:0:
402,119,72792,2,0,P|394:164|388:204,1,82,2|0,0:0|1:0,0:0:0:0:
309,338,73077,2,0,P|302:297|295:257,1,82,2|8,1:2|0:0,0:0:0:0:
221,174,73363,1,2,0:0:0:0:
32,321,73506,6,0,B|133:321|94:276|195:275,1,164,0|10,1:0|0:0,0:0:0:0:
297,197,73934,2,0,P|256:176|212:175,1,82,2|0,0:0|1:0,0:0:0:0:
382,266,74220,2,0,P|422:262|458:242,1,82,2|8,1:2|0:0,0:0:0:0:
394,152,74506,1,2,0:0:0:0:
304,340,74649,6,0,P|245:286|165:291,1,164,0|10,1:0|0:0,0:0:0:0:
51,223,75077,2,0,P|40:181|36:139,1,82,2|0,0:2|1:0,0:0:0:0:
151,59,75363,2,0,P|162:101|166:143,1,82,2|8,1:2|0:0,0:0:0:0:
123,277,75649,1,2,0:0:0:0:
269,154,75792,5,2,1:2:0:0:
275,169,75934,1,2,1:2:0:0:
332,76,76077,1,0,1:0:0:0:
177,194,76220,1,0,1:0:0:0:
350,247,76363,5,8,0:0:0:0:
346,267,76434,1,8,3:0:0:0:
342,287,76505,1,8,3:0:0:0:
338,307,76577,1,8,3:0:0:0:
334,329,76649,2,0,L|281:318,3,41,4|4|4|4,3:0|3:0|3:0|3:0,0:0:0:0:
226,259,76934,6,0,B|154:275|154:275|142:288|142:288|66:308,1,164,4|10,0:0|0:0,0:0:0:0:
2,162,77363,2,0,P|42:167|82:177,1,82,2|0,0:0|1:0,0:0:0:0:
249,96,77649,2,0,P|209:106|168:112,1,82,2|8,1:2|0:0,0:0:0:0:
90,42,77934,1,2,0:0:0:0:
280,184,78077,6,0,L|311:14,1,164,0|10,1:0|0:0,0:0:0:0:
145,137,78506,2,0,P|157:181|166:228,1,82,2|0,0:0|1:0,0:0:0:0:
278,302,78792,2,0,L|362:284,1,82,2|8,1:2|0:0,0:0:0:0:
437,348,79077,1,2,0:0:0:0:
190,363,79220,6,0,P|182:283|164:198,1,164,0|10,1:0|0:0,0:0:0:0:
237,59,79649,2,0,P|283:71|319:79,1,82,2|0,0:0|1:0,0:0:0:0:
476,141,79934,2,0,P|430:153|394:161,1,82,2|8,1:2|0:0,0:0:0:0:
316,231,80220,1,2,0:0:0:0:
391,32,80363,5,2,1:2:0:0:
396,45,80506,1,2,1:2:0:0:
280,128,80649,1,0,1:0:0:0:
487,53,80792,1,0,1:0:0:0:
228,5,80934,5,10,0:0:0:0:
301,265,81077,1,10,0:0:0:0:
444,131,81220,1,8,0:0:0:0:
182,82,81363,1,8,0:0:0:0:
399,201,81506,6,0,L|226:166,1,164,4|10,0:0|0:0,0:0:0:0:
60,112,81934,2,0,P|68:156|74:196,1,82,2|0,0:0|1:0,0:0:0:0:
216,349,82220,2,0,P|222:308|229:268,1,82,2|8,1:2|0:0,0:0:0:0:
167,188,82506,1,2,0:0:0:0:
338,252,82649,6,0,P|417:257|472:200,1,164,0|10,1:0|0:0,0:0:0:0:
364,86,83077,2,0,P|370:126|381:165,1,82,2|0,0:0|1:0,0:0:0:0:
486,93,83363,2,0,P|479:52|468:13,1,82,2|8,1:2|0:0,0:0:0:0:
258,28,83649,1,2,0:0:0:0:
321,221,83792,6,0,L|486:192,1,164,0|10,1:0|0:0,0:0:0:0:
373,342,84220,2,0,P|332:331|286:321,1,82,2|0,0:0|1:0,0:0:0:0:
144,214,84506,2,0,P|185:203|231:193,1,82,2|8,1:2|0:0,0:0:0:0:
321,221,84792,1,2,0:0:0:0:
258,79,84934,5,2,1:2:0:0:
253,92,85077,1,2,1:2:0:0:
179,19,85220,1,0,1:0:0:0:
226,190,85362,1,0,1:0:0:0:
361,68,85506,5,8,0:0:0:0:
130,119,85649,1,8,0:0:0:0:
292,283,85792,1,8,0:0:0:0:
228,22,85934,1,8,0:0:0:0:
33,181,86077,6,0,L|42:224,3,41,0|0|0|0,1:0|1:0|1:0|1:0,0:0:0:0:
103,290,86363,2,0,L|145:278,1,41,8|0,0:2|0:0,0:0:0:0:
229,237,86506,6,0,L|238:280,3,41,0|0|0|0,1:0|1:0|1:0|1:0,0:0:0:0:
303,340,86792,2,0,L|345:329,1,41,8|0,0:2|0:0,0:0:0:0:
463,288,86934,2,0,L|421:277,1,41,0|0,1:0|0:0,0:0:0:0:
309,221,87077,2,0,L|351:210,1,41,2|0,1:2|0:0,0:0:0:0:
418,149,87220,5,8,3:0:0:0:
426,136,87363,1,0,1:0:0:0:
311,37,87506,1,8,3:0:0:0:
507,83,87649,1,0,1:0:0:0:
348,210,87792,6,0,L|287:194,2,54.6666666666667,8|8|0,0:0|3:0|1:0,0:0:0:0:
414,281,88077,2,0,L|475:265,2,54.6666666666667,8|4|4,3:0|3:0|3:0,0:0:0:0:
344,340,88363,5,0,1:0:0:0:
388,121,88506,1,0,1:0:0:0:
193,198,88649,1,10,0:0:0:0:
435,254,88792,6,0,P|443:209|454:170,1,82,12|0,0:0|0:0,0:0:0:0:
249,30,89077,2,0,P|259:69|266:109,1,82,12|0,0:0|0:0,0:0:0:0:
39,269,89363,6,0,B|223:228|148:398|336:338,1,328,12|0,0:0|0:0,0:0:0:0:
