osu file format v14

[General]
AudioFilename: audio.mp3
AudioLeadIn: 0
PreviewTime: 48880
Countdown: 0
SampleSet: Soft
StackLeniency: 0.7
Mode: 0
LetterboxInBreaks: 0
WidescreenStoryboard: 1

[Editor]
Bookmarks: 3808,12808,13951,84506
DistanceSpacing: 1
BeatDivisor: 4
GridSize: 4
TimelineZoom: 2

[Metadata]
Title:PRIDE OF LIONS (Cut Ver.)
TitleUnicode:PRIDE OF LIONS (Cut Ver.)
Artist:SPYAIR
ArtistUnicode:SPYAIR
Creator:HabiHolic
Version:Easy
Source:
Tags:UNITE スパイエアー japanese J-Rock Jrock rock KENTA MOMIKEN IKE UZ
BeatmapID:2948659
BeatmapSetID:1423394

[Difficulty]
HPDrainRate:2
CircleSize:2
OverallDifficulty:2
ApproachRate:3
SliderMultiplier:0.84
SliderTickRate:1

[Events]
//Background and Video events
0,0,"BG.jpeg",0,0
//Break Periods
//Storyboard Layer 0 (Background)
//Storyboard Layer 1 (Fail)
//Storyboard Layer 2 (Pass)
//Storyboard Layer 3 (Foreground)
//Storyboard Layer 4 (Overlay)
//Storyboard Sound Samples

[TimingPoints]
380,285.714285714286,4,2,1,50,1,0
2665,-100,4,2,1,70,0,0
37951,-100,4,2,1,50,0,0
47237,-100,4,2,1,85,0,0
48951,-100,4,2,1,50,0,0
49522,-100,4,2,1,85,0,0
67792,285.714285714286,4,2,1,70,1,0
76363,-100,4,2,1,50,0,0
76934,-100,4,2,1,70,0,0
85506,-100,4,2,1,50,0,0
86077,-100,4,2,1,65,0,0
88649,-100,4,2,1,85,0,0
89934,-100,4,2,1,30,0,0

[Colours]
Combo1 : 108,70,240
Combo2 : 103,228,219
Combo3 : 0,221,143
Combo4 : 115,155,238

[HitObjects]
56,207,380,6,0,P|94:315|205:286,1,252,2|2,0:0|0:0,0:0:0:0:
305,286,1522,2,0,P|416:314|454:206,1,252,2|2,0:0|0:0,0:0:0:0:
379,139,2665,6,0,P|358:80|376:21,2,126,2|0|2,0:0|0:0|0:0,0:0:0:0:
289,186,3808,2,0,P|307:245|286:303,2,126,2|0|2,0:0|0:0|0:0,0:0:0:0:
211,121,4951,6,0,L|86:97,2,126,8|8|8,0:0|0:0|0:0,0:0:0:0:
299,72,6094,2,0,L|424:96,2,126,8|10|0,0:0|0:0|1:0,0:0:0:0:
316,171,7237,2,0,L|441:195,2,126,8|8|8,0:0|0:0|0:0,0:0:0:0:
228,222,8380,2,0,L|134:203,1,84,8|8,0:0|0:0,0:0:0:0:
87,122,8951,1,8,0:0:0:0:
12,190,9237,1,8,0:0:0:0:
255,326,10522,5,12,0:0:0:0:
39,52,12808,2,0,B|-9:167|82:244|82:244|126:182|196:187,1,336,4|4,1:2|1:2,0:0:0:0:
326,186,15237,6,0,B|386:182|430:244|430:244|521:167|473:52,2,336,4|4|4,1:2|1:2|1:2,0:0:0:0:
21,100,19237,2,0,P|7:160|25:219,2,126,8|4|2,3:0|0:0|1:2,0:0:0:0:
112,54,20380,2,0,P|152:45|193:54,1,84,0|2,1:0|1:2,0:0:0:0:
280,106,20951,2,0,P|320:114|361:105,1,84,2|0,1:2|1:0,0:0:0:0:
446,50,21522,1,10,0:0:0:0:
478,196,21951,6,0,P|418:186|371:225,1,126,4|0,1:2|1:0,0:0:0:0:
298,295,22665,2,0,L|211:277,1,84,8|8,0:0|0:0,0:0:0:0:
140,209,23237,1,8,0:0:0:0:
58,267,23522,1,8,0:0:0:0:
192,54,24237,6,0,P|252:39|304:73,1,126,4|10,0:0|0:0,0:0:0:0:
382,133,24951,1,0,1:0:0:0:
301,317,25522,2,0,L|173:291,1,126,2|2,1:2|0:0,0:0:0:0:
90,343,26237,1,2,1:2:0:0:
14,276,26522,6,0,P|-6:217|8:156,1,126,2|8,1:2|0:0,0:0:0:0:
92,101,27237,2,0,L|216:116,2,126,2|2|10,1:2|1:2|0:0,0:0:0:0:
101,201,28380,2,0,L|184:211,1,84,2|10,1:2|0:0,0:0:0:0:
285,213,28951,6,0,B|298:157|298:157|325:134|328:97,2,126,2|2|10,1:2|0:0|0:0,0:0:0:0:
185,232,30094,2,0,L|201:322,1,84,2|8,1:2|0:0,0:0:0:0:
293,353,30665,1,2,1:2:0:0:
462,243,31237,6,0,P|431:169|351:157,1,168,2|0,1:2|1:0,0:0:0:0:
256,123,32094,1,8,0:0:0:0:
187,202,32380,2,0,L|93:184,1,84,0|8,1:0|0:0,0:0:0:0:
20,241,32951,6,0,L|-1:117,2,126,10|4|10,0:0|0:0|0:0,0:0:0:0:
81,320,34094,1,0,1:0:0:0:
252,309,34665,2,0,P|315:311|366:347,1,126,2|2,1:2|0:0,0:0:0:0:
464,327,35380,1,2,1:2:0:0:
414,239,35665,6,0,L|433:106,1,126,4|8,0:0|0:0,0:0:0:0:
333,90,36380,2,0,L|315:214,2,126,0|4|10,1:0|0:0|0:0,0:0:0:0:
253,28,37522,2,0,P|191:23|141:60,1,126,2|4,1:2|0:0,0:0:0:0:
26,281,38665,6,0,B|167:252|114:363|266:323,1,252,2|2,0:0|0:0,0:0:0:0:
337,256,39808,1,2,0:0:0:0:
353,104,40237,6,0,P|452:113|491:205,1,210,2|2,0:0|0:0,0:0:0:0:
342,237,41380,2,0,P|282:247|231:213,1,126,2|2,0:0|0:0,0:0:0:0:
167,133,42094,1,2,0:0:0:0:
289,45,42522,6,0,B|408:19|373:106|488:80,1,210,4|2,1:2|0:0,0:0:0:0:
408,209,43665,2,0,B|294:235|329:148|210:174,1,210,4|2,1:2|0:0,0:0:0:0:
44,289,44951,2,0,B|6:172|6:172|7:97|64:62,1,252,4|2,1:2|0:0,0:0:0:0:
156,25,46094,1,2,0:0:0:0:
309,155,46665,2,0,L|291:241,1,84,8|4,0:0|3:0,0:0:0:0:
268,335,47237,6,0,B|198:322|214:362|139:347,2,126,10|10|10,0:0|0:0|0:0,0:0:0:0:
355,284,48380,1,8,0:0:0:0:
438,339,48665,1,8,0:0:0:0:
266,84,49522,6,0,P|225:72|185:82,1,84,4|8,0:0|0:0,0:0:0:0:
97,130,50094,2,0,L|70:1,2,126,2|2|10,1:2|1:2|0:0,0:0:0:0:
120,228,51237,1,2,1:2:0:0:
220,341,51665,6,0,P|275:310|337:314,1,126,2|8,1:2|0:0,0:0:0:0:
423,262,52380,2,0,L|445:175,1,84,0|10,1:0|0:0,0:0:0:0:
378,104,52951,2,0,B|306:94|329:130|255:114,2,126,2|2|8,1:2|0:0|0:0,0:0:0:0:
358,202,54094,6,0,L|339:288,1,84,4|8,0:0|0:0,0:0:0:0:
247,325,54665,2,0,P|188:307|139:342,2,126,2|2|10,1:2|1:2|0:0,0:0:0:0:
342,358,55808,1,2,1:2:0:0:
469,276,56237,2,0,L|454:146,1,126,2|8,1:2|0:0,0:0:0:0:
428,53,56951,2,0,P|387:51|352:73,1,84,0|10,1:0|0:0,0:0:0:0:
271,134,57522,6,0,L|238:5,2,126,2|2|10,1:2|1:2|0:0,0:0:0:0:
305,228,58665,2,0,B|216:225|239:283|132:278,1,168,4|2,0:0|1:2,0:0:0:0:
54,159,59665,6,0,P|116:158|164:119,1,126,2|10,1:2|0:0,0:0:0:0:
226,39,60380,1,2,1:2:0:0:
360,107,60808,6,0,L|335:233,1,126,2|10,1:2|0:0,0:0:0:0:
382,320,61522,1,0,1:0:0:0:
232,346,61951,2,0,P|192:332|152:343,1,84,2|2,0:0|1:2,0:0:0:0:
67,288,62522,2,0,L|47:160,1,126,2|8,1:2|0:0,0:0:0:0:
128,103,63237,6,0,B|220:86|202:138|291:117,1,168,4|2,0:0|1:2,0:0:0:0:
433,63,64237,2,0,P|450:122|431:181,1,126,2|10,1:2|0:0,0:0:0:0:
357,250,64951,1,2,1:2:0:0:
166,172,65522,6,0,L|83:156,1,84,10|8,0:0|0:0,0:0:0:0:
64,255,66094,2,0,L|147:271,1,84,10|8,0:0|0:0,0:0:0:0:
227,329,66665,2,0,P|292:280|372:295,1,168,8|0,0:0|1:0,0:0:0:0:
366,99,67792,6,0,L|503:117,2,126,4|2|8,0:0|0:0|0:0,0:0:0:0:
296,171,68934,2,0,L|159:189,2,126,0|2|8,1:2|0:0|0:0,0:0:0:0:
357,250,70077,2,0,L|494:268,2,126,0|2|8,1:2|0:0|0:0,0:0:0:0:
257,266,71220,2,0,L|165:246,1,84,2|0,1:2|1:0,0:0:0:0:
91,305,71792,1,10,0:0:0:0:
19,233,72077,1,8,0:0:0:0:
77,150,72363,6,0,L|53:20,2,126,4|2|8,0:0|0:0|0:0,0:0:0:0:
177,162,73506,2,0,L|154:38,2,126,0|2|8,1:0|0:0|0:0,0:0:0:0:
246,235,74649,2,0,L|223:358,2,126,0|2|8,1:0|0:2|0:0,0:0:0:0:
293,145,75792,2,0,P|333:139|368:162,1,84,2|0,1:2|1:0,0:0:0:0:
446,224,76363,1,8,0:0:0:0:
379,300,76649,1,4,3:0:0:0:
289,254,76934,6,0,L|160:220,2,126,4|2|8,0:0|0:0|0:0,0:0:0:0:
379,300,78077,2,0,L|500:267,2,126,0|2|8,1:0|0:0|0:0,0:0:0:0:
289,347,79220,2,0,L|160:313,2,126,0|2|8,1:0|0:0|0:0,0:0:0:0:
379,300,80363,2,0,P|386:258|379:217,1,84,2|0,1:2|1:0,0:0:0:0:
321,134,80934,1,10,0:0:0:0:
236,189,81220,1,8,0:0:0:0:
152,131,81506,6,0,B|169:78|169:78|168:35|147:6,2,126,4|2|8,0:0|0:0|0:0,0:0:0:0:
59,170,82649,2,0,B|42:223|42:223|43:266|60:289,2,126,0|2|8,1:0|0:0|0:0,0:0:0:0:
145,221,83792,2,0,B|220:205|202:243|279:223,2,126,0|2|8,1:0|0:0|0:0,0:0:0:0:
67,156,84934,2,0,L|48:69,1,84,2|0,1:2|1:0,0:0:0:0:
135,20,85506,1,8,0:0:0:0:
225,64,85792,1,8,0:0:0:0:
314,19,86077,6,0,P|340:97|315:175,1,168,0|0,1:0|1:0,0:0:0:0:
160,307,87220,2,0,B|254:295|230:351|322:329,1,168,8|8,3:0|0:0,0:0:0:0:
482,206,88363,6,0,P|438:162|377:159,1,126,0|12,1:0|0:0,0:0:0:0:
296,219,89077,1,12,0:0:0:0:
212,162,89363,1,12,0:0:0:0:
