osu file format v14

[General]
AudioFilename: audio.mp3
AudioLeadIn: 0
PreviewTime: 53051
Countdown: 0
SampleSet: Soft
StackLeniency: 0.4
Mode: 0
LetterboxInBreaks: 0
WidescreenStoryboard: 0

[Editor]
Bookmarks: 1014,12865,24717,36569,48421,54347,66199,75088,78051,83976
DistanceSpacing: 0.4
BeatDivisor: 4
GridSize: 16
TimelineZoom: 1.8

[Metadata]
Title:One Day (TV Size)
TitleUnicode:One Day (TV Size)
Artist:SPYAIR
ArtistUnicode:SPYAIR
Creator:hypercyte
Version:Summit
Source:HAIKYU!! TO THE TOP
Tags:4 ハイキュー!! haikyuu to the top 2nd cour ending 2020 fourth season 4th japanese anime version rock jrock j-rock sakura blossom sakura_blossom daycore haruto haruto_aizawa hypercute
BeatmapID:2647867
BeatmapSetID:1274338

[Difficulty]
HPDrainRate:6
CircleSize:4.4
OverallDifficulty:8.4
ApproachRate:9.3
SliderMultiplier:2
SliderTickRate:1

[Events]
//Background and Video events
Video,-144,"haikyuu one day ed rf 22.mp4"
0,0,"84851224 is the pixiv id.jpg",0,0
//Break Periods
//Storyboard Layer 0 (Background)
//Storyboard Layer 1 (Fail)
//Storyboard Layer 2 (Pass)
//Storyboard Layer 3 (Foreground)
//Storyboard Layer 4 (Overlay)
//Storyboard Sound Samples

[TimingPoints]
-3437,370.37037037037,4,2,44,34,1,0
1007,-133.333333333333,4,2,44,34,0,0
11470,-133.333333333333,4,2,44,5,0,0
11562,-133.333333333333,4,2,44,34,0,0
12859,-100,4,2,44,50,0,0
24711,-117.647058823529,4,2,44,40,0,0
34710,-50,4,2,44,50,0,0
35081,-100,4,2,44,50,0,0
35266,-69.4444444444444,4,2,44,50,0,0
35636,-83.3333333333333,4,2,44,50,0,0
36562,-111.111111111111,4,2,44,40,0,0
46932,-83.3333333333333,4,2,44,50,0,0
48599,-100,4,2,44,55,0,0
48969,-105.263157894737,4,2,44,55,0,0
51747,-86.9565217391304,4,2,44,60,0,0
52118,-74.0740740740741,4,2,44,60,0,0
52488,-69.4444444444444,4,2,44,60,0,0
52673,-227.272727272727,4,2,44,60,0,0
52858,-227.272727272727,4,2,44,22,0,0
53229,-416.666666666667,4,2,44,44,0,0
54248,-416.666666666667,4,2,44,5,0,0
54340,-57.4712643678161,4,2,44,65,0,1
54710,-100,4,2,44,65,0,1
54895,-57.4712643678161,4,2,44,65,0,1
55451,-74.6268656716418,4,2,44,65,0,1
57303,-57.4712643678161,4,2,44,65,0,1
57673,-100,4,2,44,65,0,1
57858,-57.4712643678161,4,2,44,65,0,1
58414,-74.6268656716418,4,2,44,65,0,1
60266,-80.6451612903226,4,2,44,65,0,1
63229,-69.4444444444444,4,2,44,65,0,1
66192,-57.4712643678161,4,2,44,65,0,1
66562,-227.272727272727,4,2,44,65,0,1
66747,-60.9756097560976,4,2,44,65,0,1
67303,-74.6268656716418,4,2,44,65,0,1
69155,-57.4712643678161,4,2,44,65,0,1
69525,-100,4,2,44,65,0,1
69710,-57.4712643678161,4,2,44,65,0,1
70266,-74.6268656716418,4,2,44,65,0,1
72118,-80.6451612903226,4,2,44,65,0,1
75081,-69.4444444444444,4,2,44,65,0,1
78044,-100,4,2,44,50,0,0
86809,-100,4,2,44,5,0,0
86871,-100,4,2,44,5,0,0
86933,-100,4,2,44,50,0,0

[Colours]
Combo1 : 200,192,241
Combo2 : 244,169,85
Combo3 : 221,191,151
Combo4 : 235,216,141

[HitObjects]
348,203,1007,6,0,P|295:216|286:248,1,75.0000028610231,10|8,0:0|0:0,0:0:0:0:
365,120,1285,2,0,P|371:175|374:214,1,75.0000028610231,2|0,0:0|0:0,0:0:0:0:
399,282,1562,2,0,P|439:288|464:236,1,75.0000028610231,10|8,0:1|0:0,0:0:0:0:
283,341,1933,2,0,B|245:352|218:324|229:315|201:267|148:283,1,150.000005722046,10|10,0:0|0:1,0:0:0:0:
290,203,2488,6,0,P|302:243|276:268,1,75.0000028610231,10|8,0:0|0:0,0:0:0:0:
149,302,2766,2,0,P|88:298|47:295,1,75.0000028610231,2|0,0:0|0:0,0:0:0:0:
16,229,3044,1,10,0:1:0:0:
25,234,3229,5,8,0:0:0:0:
82,178,3414,1,8,0:0:0:0:
44,99,3600,2,0,P|51:45|57:7,1,75.0000028610231,8|8,0:1|0:0,0:0:0:0:
178,198,3970,6,0,P|247:175|266:168,1,75.0000028610231,10|8,0:0|0:0,0:0:0:0:
300,235,4248,2,0,P|369:212|388:205,1,75.0000028610231,2|0,0:0|0:0,0:0:0:0:
175,189,4525,2,0,P|246:164|322:131,1,150.000005722046,10|10,0:1|0:0,0:0:0:0:
361,42,5081,1,10,0:1:0:0:
325,133,5266,1,2,0:0:0:0:
424,200,5451,6,0,P|409:255|400:298,1,75.0000028610231,10|8,0:0|0:0,0:0:0:0:
334,288,5729,2,0,P|367:267|411:288,1,75.0000028610231,2|0,0:0|0:0,0:0:0:0:
434,355,6007,1,10,0:1:0:0:
452,344,6192,5,8,0:0:0:0:
349,364,6377,1,8,0:0:0:0:
243,379,6562,2,0,L|265:299,1,75.0000028610231,8|8,0:1|0:0,0:0:0:0:
122,189,6933,6,0,P|143:233|166:235,1,75.0000028610231,10|8,0:0|0:0,0:0:0:0:
175,133,7211,2,0,P|143:113|83:130,1,75.0000028610231,2|0,0:0|0:0,0:0:0:0:
246,219,7488,2,0,L|329:200,1,75.0000028610231,10|8,0:1|0:0,0:0:0:0:
429,92,7859,2,0,B|450:118|430:152|416:147|394:171|406:202,1,112.500004291535,10|0,0:0|0:0,0:0:0:0:
443,257,8229,6,0,P|484:249|501:210,1,75.0000028610231,2|8,0:0|0:0,0:0:0:0:
347,322,8600,2,0,P|269:313|243:309,1,75.0000028610231,10|8,0:0|0:1,0:0:0:0:
445,375,8970,5,10,0:1:0:0:
445,375,9155,1,8,0:0:0:0:
347,322,9340,2,0,P|272:318|263:378,1,150.000005722046,10|8,0:0|0:0,0:0:0:0:
207,199,9896,6,0,B|166:191|132:221|144:229|117:264|72:256,1,150.000005722046,10|8,0:0|0:1,0:0:0:0:
194,283,10451,1,10,0:1:0:0:
81,175,10637,2,8,P|88:134|93:77,1,75.0000028610231,10|8,0:0|0:0,0:0:0:0:
74,186,11007,1,8,0:1:0:0:
115,33,11192,1,8,0:0:0:0:
309,218,11377,6,0,L|364:210,1,37.5000014305115,10|0,0:1|0:0,0:0:0:0:
150,98,12859,5,12,0:0:0:0:
316,253,13044,1,8,0:0:0:0:
350,184,13229,2,0,B|305:165|305:165|264:197,1,100,10|8,0:1|0:0,0:0:0:0:
40,235,13600,1,10,0:0:0:0:
112,274,13785,1,8,0:0:0:0:
298,360,13970,5,8,0:1:0:0:
224,327,14155,2,0,P|161:348|120:361,1,100,10|8,0:0|0:0,0:0:0:0:
375,251,14525,2,0,P|438:272|479:285,1,100,10|8,0:0|0:1,0:0:0:0:
362,228,14896,5,8,0:0:0:0:
224,327,15081,2,0,P|161:312|144:267,1,100,10|8,0:0|0:0,0:0:0:0:
292,98,15451,1,10,0:1:0:0:
261,173,15637,1,8,0:0:0:0:
117,85,15822,5,12,0:0:0:0:
117,85,16007,1,8,0:0:0:0:
233,244,16192,2,0,P|291:245|324:212,1,100,10|8,0:1|0:0,0:0:0:0:
106,352,16562,1,10,0:0:0:0:
33,302,16748,1,8,0:0:0:0:
233,244,16933,5,8,0:1:0:0:
294,314,17118,2,0,P|307:255|317:190,1,100,10|8,0:0|0:0,0:0:0:0:
196,80,17488,2,0,P|223:131|269:132,1,100,10|8,0:0|0:1,0:0:0:0:
485,64,17859,6,0,P|470:35|463:20,1,50,10|0,0:0|0:0,0:0:0:0:
448,158,18044,1,10,0:0:0:0:
339,132,18229,1,10,0:0:0:0:
292,199,18414,1,10,0:1:0:0:
292,199,18600,1,8,0:0:0:0:
188,351,18785,5,12,0:0:0:0:
118,287,18970,1,8,0:0:0:0:
275,356,19155,2,0,P|326:309|355:333,1,100,10|8,0:1|0:0,0:0:0:0:
107,187,19525,2,0,P|115:256|118:301,1,100,10|8,0:0|0:0,0:0:0:0:
96,172,19896,5,8,0:1:0:0:
275,356,20081,2,0,P|331:309|303:270,1,100,10|8,0:0|0:0,0:0:0:0:
272,100,20451,1,10,0:0:0:0:
224,162,20637,1,8,0:1:0:0:
379,227,20822,5,8,0:0:0:0:
327,294,21007,2,0,P|277:295|249:241,1,100,10|8,0:0|0:0,0:0:0:0:
438,60,21377,2,0,P|431:125|426:172,1,100,10|8,0:1|0:0,0:0:0:0:
390,360,21748,5,12,0:0:0:0:
390,360,21933,1,8,0:0:0:0:
249,257,22118,2,0,P|190:259|170:300,1,100,10|8,0:1|0:0,0:0:0:0:
27,377,22488,2,0,P|38:307|45:257,1,100,10|8,0:0|0:0,0:0:0:0:
40,384,22859,5,8,0:1:0:0:
4,213,23044,2,0,P|15:143|22:93,1,100,10|8,0:0|0:0,0:0:0:0:
143,249,23414,1,10,0:0:0:0:
157,166,23600,1,8,0:1:0:0:
164,242,23785,1,10,0:0:0:0:
105,107,23970,6,0,P|117:75|121:49,1,50,10|0,0:0|0:0,0:0:0:0:
176,156,24155,1,8,0:1:0:0:
209,135,24248,1,8,0:1:0:0:
249,136,24340,1,8,0:1:0:0:
282,156,24433,1,8,0:1:0:0:
307,186,24525,1,8,0:1:0:0:
309,226,24618,1,8,0:1:0:0:
320,205,24711,6,0,P|371:189|402:231,1,85.0000016212464,10|0,0:0|0:0,0:0:0:0:
372,285,24988,2,0,P|407:317|368:365,1,85.0000016212464,2|0,0:0|0:0,0:0:0:0:
319,366,25266,2,0,P|234:357|145:349,1,170.000003242493,10|8,0:0|0:0,0:0:0:0:
31,254,25822,2,0,P|82:264|88:294,1,85.0000016212464,8|0,0:1|0:0,0:0:0:0:
319,366,26192,6,0,P|309:286|304:245,1,85.0000016212464,10|0,0:0|0:0,0:0:0:0:
332,154,26470,2,0,P|385:192|380:228,1,85.0000016212464,2|0,0:0|0:0,0:0:0:0:
246,221,26748,2,0,P|160:208|143:206,1,85.0000016212464,10|8,0:0|0:0,0:0:0:0:
154,215,27118,6,0,P|129:211|103:206,1,42.5000008106232,8|0,0:0|0:0,0:0:0:0:
263,142,27303,2,0,B|271:156|271:156|240:235,1,85.0000016212464,8|0,0:1|0:0,0:0:0:0:
42,334,27674,6,0,P|86:290|121:300,1,85.0000016212464,10|0,0:0|0:0,0:0:0:0:
112,207,27951,2,0,P|105:283|103:327,1,85.0000016212464,2|0,0:0|0:0,0:0:0:0:
187,375,28229,2,0,B|239:392|264:344|252:337|277:291|331:308,1,170.000003242493,10|8,0:0|0:0,0:0:0:0:
104,291,28785,1,8,0:1:0:0:
29,353,28970,1,8,0:0:0:0:
177,228,29155,6,0,B|194:234|194:234|289:210,1,85.0000016212464,10|0,0:0|0:0,0:0:0:0:
221,305,29433,2,0,P|216:264|180:245,1,85.0000016212464,2|0,0:0|0:0,0:0:0:0:
111,197,29711,2,0,P|118:133|122:99,1,85.0000016212464,10|8,0:0|0:0,0:0:0:0:
115,105,30081,6,0,L|121:54,1,42.5000008106232,8|0,0:0|0:0,0:0:0:0:
40,251,30266,2,0,P|60:306|106:309,1,85.0000016212464,8|0,0:1|0:0,0:0:0:0:
217,222,30637,6,0,B|234:228|234:228|314:206,1,85.0000016212464,10|0,0:0|0:0,0:0:0:0:
379,336,30914,2,0,P|350:290|374:252,1,85.0000016212464,2|0,0:0|0:0,0:0:0:0:
317,130,31192,2,0,P|361:148|371:197,1,85.0000016212464,10|8,0:0|0:0,0:0:0:0:
379,336,31562,1,8,0:0:0:0:
432,277,31748,1,8,0:1:0:0:
486,223,31933,5,8,0:0:0:0:
486,223,32025,1,8,0:0:0:0:
486,223,32118,2,0,P|478:163|473:123,1,85.0000016212464,10|0,0:0|0:0,0:0:0:0:
432,277,32396,2,0,P|437:306|441:333,1,42.5000008106232,2|10,0:0|0:1,0:0:0:0:
238,204,32674,6,0,P|196:232|202:324,1,127.50000243187,10|0,0:0|0:0,0:0:0:0:
188,304,33044,2,0,P|237:307|257:260,1,85.0000016212464,10|8,0:0|0:1,0:0:0:0:
213,77,33414,1,2,0:0:0:0:
289,55,33600,6,0,B|312:106|267:146|260:133|222:157|238:206,1,170.000003242493,10|8,0:0|0:1,0:0:0:0:
213,77,34155,1,8,0:0:0:0:
271,136,34340,1,8,0:0:0:0:
289,55,34525,1,8,0:0:0:0:
239,270,34711,6,0,P|227:277|236:266,8,33.3333333333333,12|0|0|0|0|0|0|0|0,0:1|0:0|0:0|0:0|0:0|0:0|0:0|0:0|0:0,0:0:0:0:
234,272,35081,6,0,P|239:216|212:200,1,50,12|0,0:0|0:0,0:0:0:0:
163,174,35266,2,0,P|120:238|147:296,1,144.000003515625,8|8,0:0|0:1,0:0:0:0:
442,295,35637,6,0,B|381:269|356:319|367:328|332:379|270:341,1,179.999994506836,12|0,0:0|0:0,0:0:0:0:
279,360,36007,1,8,0:0:0:0:
163,174,36192,1,8,0:1:0:0:
130,247,36377,1,8,0:1:0:0:
149,260,36470,1,8,0:1:0:0:
172,255,36562,1,12,0:1:0:0:
239,144,36748,1,8,0:0:0:0:
355,233,36933,6,0,P|420:225|449:222,1,89.9999972534181,10|0,0:1|0:0,0:0:0:0:
286,361,37303,2,0,P|238:353|230:288,1,89.9999972534181,10|0,0:0|0:0,0:0:0:0:
230,248,37581,2,0,P|211:311|162:316,1,89.9999972534181,2|0,0:0|0:0,0:0:0:0:
115,320,37859,5,2,0:0:0:0:
103,325,37951,1,2,0:0:0:0:
97,335,38044,2,0,P|32:340|19:383,1,89.9999972534181,10|0,0:0|0:0,0:0:0:0:
45,248,38322,2,0,P|39:186|31:135,1,89.9999972534181,2|0,0:0|0:0,0:0:0:0:
111,323,38600,1,8,0:0:0:0:
168,143,38785,6,0,P|237:160|245:187,1,89.9999972534181,10|0,0:0|0:0,0:0:0:0:
119,83,39062,2,0,P|125:31|133:-22,1,89.9999972534181,2|0,0:0|0:0,0:0:0:0:
54,128,39340,1,2,0:0:0:0:
111,323,39525,5,8,0:0:0:0:
111,323,39711,1,8,0:0:0:0:
223,240,39896,6,0,P|317:267|371:282,1,134.999995880127,8|0,0:1|0:0,0:0:0:0:
352,276,40266,2,0,P|374:226|322:186,1,89.9999972534181,10|0,0:0|0:0,0:0:0:0:
282,295,40544,2,0,P|289:357|294:397,1,89.9999972534181,2|0,0:0|0:0,0:0:0:0:
223,240,40822,1,10,0:0:0:0:
243,46,41007,5,10,0:0:0:0:
235,150,41285,1,2,0:0:0:0:
235,150,41377,1,10,0:1:0:0:
223,240,41562,1,10,0:0:0:0:
405,351,41748,6,0,P|446:326|441:281,1,89.9999972534181,8|0,0:0|0:0,0:0:0:0:
294,381,42025,2,0,P|222:364|189:361,1,89.9999972534181,2|0,0:0|0:0,0:0:0:0:
116,254,42303,2,0,P|123:273|133:317,1,44.999998626709,10|0,0:0|0:0,0:0:0:0:
94,367,42488,5,8,0:0:0:0:
48,300,42674,1,8,0:0:0:0:
129,296,42859,1,8,0:1:0:0:
274,304,43044,5,10,0:0:0:0:
285,300,43137,1,10,0:0:0:0:
299,295,43229,2,0,P|295:226|256:218,1,89.9999972534181,10|0,0:0|0:0,0:0:0:0:
197,98,43507,2,0,P|209:155|216:207,1,89.9999972534181,2|0,0:0|0:0,0:0:0:0:
119,311,43785,1,10,0:0:0:0:
167,250,43970,5,8,0:0:0:0:
167,250,44155,1,8,0:0:0:0:
291,104,44340,1,8,0:1:0:0:
190,14,44525,5,10,0:0:0:0:
189,25,44618,1,10,0:0:0:0:
195,34,44711,2,0,P|202:83|158:117,1,89.9999972534181,10|0,0:0|0:0,0:0:0:0:
120,175,44988,2,0,P|60:149|41:169,1,89.9999972534181,2|0,0:0|0:0,0:0:0:0:
169,249,45266,2,0,P|190:250|175:235,1,44.999998626709,10|0,0:0|0:0,0:0:0:0:
100,287,45451,5,10,0:0:0:0:
100,287,45637,1,8,0:0:0:0:
176,111,45822,1,8,0:1:0:0:
230,203,46007,5,8,0:0:0:0:
230,203,46192,1,8,0:0:0:0:
230,203,46377,1,8,0:0:0:0:
25,114,46562,1,8,0:1:0:0:
98,144,46748,1,8,0:0:0:0:
301,37,46933,6,0,P|285:78|277:104,1,59.9999981689454,12|0,0:0|0:0,0:0:0:0:
230,203,47118,5,8,0:1:0:0:
261,229,47211,1,8,0:1:0:0:
303,232,47303,1,8,0:1:0:0:
338,209,47396,1,8,0:1:0:0:
344,167,47488,2,0,P|338:146|337:168,1,59.9999981689454,12|0,0:0|0:0,0:0:0:0:
450,112,47674,5,8,0:1:0:0:
487,131,47766,1,8,0:1:0:0:
502,169,47859,1,8,0:1:0:0:
496,210,47951,1,8,0:1:0:0:
457,226,48044,2,0,P|435:222|457:218,1,59.9999981689454,12|0,0:0|0:0,0:0:0:0:
350,312,48229,5,8,0:1:0:0:
345,346,48322,1,8,0:1:0:0:
381,371,48414,2,0,P|436:353|471:346,1,59.9999981689454,12|0,0:0|0:0,0:0:0:0:
360,229,48600,2,0,P|308:226|281:293,1,100,8|8,0:0|0:1,0:0:0:0:
172,356,48970,5,8,0:0:0:0:
172,356,49155,2,0,P|114:351|103:297,1,94.9999974632264,10|0,0:0|0:0,0:0:0:0:
168,273,49433,2,0,P|229:281|283:289,1,94.9999974632264,2|0,0:0|0:0,0:0:0:0:
116,210,49711,1,10,0:0:0:0:
47,331,49896,6,0,B|57:316|57:316|21:169,1,142.49999619484,8|0,0:0|0:0,0:0:0:0:
36,178,50266,1,8,0:1:0:0:
11,257,50451,1,10,0:0:0:0:
113,98,50637,5,10,0:0:0:0:
174,54,50822,1,8,0:0:0:0:
249,39,51007,1,8,0:1:0:0:
326,50,51192,5,8,0:0:0:0:
329,54,51285,1,8,0:0:0:0:
332,58,51377,2,0,P|322:94|296:112,1,47.4999987316132,8|0,0:1|0:0,0:0:0:0:
238,120,51562,1,8,0:0:0:0:
366,217,51748,6,0,P|334:240|299:232,1,57.5000010967255,8|0,0:1|0:0,0:0:0:0:
252,200,51933,1,8,0:0:0:0:
247,349,52118,6,0,P|210:340|190:307,1,67.5000002574921,8|0,0:1|0:0,0:0:0:0:
183,243,52303,1,8,0:0:0:0:
2,257,52488,6,0,P|15:214|43:200,1,72.0000017578125,8|0,0:1|0:0,0:0:0:0:
111,203,52674,2,0,P|104:238|94:249,1,44.0000013427735,8|0,0:1|0:0,0:0:0:0:
258,376,53229,5,2,0:0:0:0:
258,376,53600,2,0,L|253:348,1,24.0000005859375,2|2,0:0|0:0,0:0:0:0:
278,287,53970,6,0,P|276:273|272:287,1,36.0000008789063,2|0,0:0|0:0,0:0:0:0:
275,280,54340,6,0,B|309:237|304:194|242:162|233:178|182:154|168:90|214:47,1,261.000002190399,14|0,0:0|0:0,0:0:0:0:
270,34,54711,6,2,P|288:37|269:44,1,50,10|2,0:0|0:0,0:0:0:0:
188,322,54896,6,0,B|152:281|162:207|229:173|240:193|310:159|326:75|264:29,1,348.000002920532,10|8,0:0|0:0,0:0:0:0:
386,293,55451,5,10,0:0:0:0:
414,188,55637,2,0,P|435:94|452:18,1,133.999993661499,10|0,0:0|0:0,0:0:0:0:
246,271,56007,5,10,0:1:0:0:
287,146,56192,1,8,0:0:0:0:
207,42,56377,1,10,0:0:0:0:
150,242,56562,5,10,0:1:0:0:
73,184,56748,1,10,0:0:0:0:
118,97,56933,1,10,0:0:0:0:
14,289,57118,5,8,0:0:0:0:
14,289,57211,1,8,0:0:0:0:
14,289,57303,2,0,P|110:237|117:94,1,261.000002190399,14|0,0:0|0:0,0:0:0:0:
190,62,57674,6,0,B|198:51|212:52|212:52|206:65|193:70,1,50,8|0,0:0|0:0,0:0:0:0:
261,352,57859,6,0,P|132:282|122:90,1,348.000002920532,14|8,0:0|0:0,0:0:0:0:
317,290,58414,5,10,0:0:0:0:
282,216,58600,2,0,P|295:156|360:130,1,133.999993661499,10|0,0:0|0:0,0:0:0:0:
166,334,58970,5,10,0:1:0:0:
78,290,59155,1,8,0:0:0:0:
93,187,59340,1,10,0:0:0:0:
292,330,59525,5,10,0:1:0:0:
386,190,59711,1,10,0:0:0:0:
226,63,59896,5,8,0:3:0:0:
251,72,59988,1,4,0:3:0:0:
270,91,60081,1,4,0:3:0:0:
279,115,60174,1,4,0:3:0:0:
273,141,60266,6,0,P|303:118|296:9,1,123.999995080567,14|2,0:0|0:0,0:0:0:0:
95,240,60637,1,8,0:1:0:0:
85,152,60822,2,0,P|76:84|57:15,1,123.999995080567,10|8,0:0|0:0,0:0:0:0:
235,309,61192,5,10,0:0:0:0:
275,238,61377,1,8,0:1:0:0:
199,90,61562,2,0,P|213:18|262:0,1,123.999995080567,2|8,0:0|0:0,0:0:0:0:
451,264,61933,5,10,0:0:0:0:
500,177,62118,1,8,0:1:0:0:
427,103,62303,1,10,0:0:0:0:
469,271,62488,5,10,0:0:0:0:
343,142,62674,1,10,0:0:0:0:
469,5,62859,1,10,0:1:0:0:
469,5,63044,1,8,0:0:0:0:
469,271,63229,6,0,B|461:240|461:240|462:233|462:233|453:200,1,72.0000017578125,14|0,0:1|0:0,0:0:0:0:
427,103,63414,1,8,0:0:0:0:
427,103,63600,1,8,0:0:0:0:
246,281,63785,6,0,B|214:231|265:182|278:197|335:157|306:91,1,216.000005273438,12|0,0:1|0:0,0:0:0:0:
296,81,64155,1,8,0:0:0:0:
109,326,64340,6,0,P|97:259|89:229,1,72.0000017578125,12|0,0:1|0:0,0:0:0:0:
38,178,64525,1,8,0:0:0:0:
93,68,64711,1,8,0:0:0:0:
246,281,64896,6,0,B|278:231|227:182|214:197|157:157|186:91,1,216.000005273438,12|0,0:1|0:0,0:0:0:0:
201,208,65266,1,8,0:0:0:0:
321,135,65451,5,8,0:3:0:0:
347,126,65544,1,8,0:3:0:0:
374,133,65637,1,8,0:3:0:0:
395,152,65729,1,8,0:3:0:0:
377,220,65822,5,4,0:3:0:0:
393,234,65914,1,4,0:3:0:0:
398,254,66007,1,4,0:3:0:0:
391,274,66100,1,4,0:3:0:0:
380,282,66192,6,0,B|360:270|360:270|406:20,1,261.000002190399,14|0,0:0|0:0,0:0:0:0:
342,104,66562,6,0,L|347:130,1,22.0000006713867,8|0,0:0|0:0,0:0:0:0:
447,346,66748,6,0,B|467:334|467:334|401:27,1,328.000005004883,10|0,0:0|0:0,0:0:0:0:
248,225,67303,5,10,0:0:0:0:
292,279,67488,2,0,B|262:229|307:182|319:202|370:157|340:102,1,200.999990492249,10|0,0:0|0:0,0:0:0:0:
357,182,67859,5,8,0:1:0:0:
255,117,68044,1,8,0:0:0:0:
332,22,68229,1,8,0:0:0:0:
437,187,68414,5,10,0:1:0:0:
255,117,68600,1,10,0:0:0:0:
76,52,68785,1,2,0:0:0:0:
148,236,68970,5,8,0:0:0:0:
159,235,69062,1,8,0:0:0:0:
168,231,69155,2,0,B|200:202|196:144|144:131|144:131|88:144|53:91|75:52,1,261.000002190399,14|0,0:0|0:0,0:0:0:0:
159,31,69525,6,0,P|159:48|155:35,1,50,8|0,0:0|0:0,0:0:0:0:
67,250,69711,6,0,B|47:200|84:141|159:128|151:163|243:162|288:67|253:5,1,348.000002920532,14|0,0:0|0:0,0:0:0:0:
310,261,70266,5,10,0:0:0:0:
378,216,70451,2,0,P|376:149|317:140,1,133.999993661499,10|0,0:0|0:0,0:0:0:0:
172,280,70822,5,10,0:1:0:0:
101,231,71007,1,8,0:0:0:0:
149,161,71192,1,10,0:0:0:0:
110,327,71377,5,10,0:1:0:0:
152,164,71562,1,10,0:0:0:0:
187,24,71748,5,4,0:3:0:0:
175,38,71840,1,4,0:3:0:0:
187,43,71933,1,4,0:3:0:0:
183,50,72025,1,4,0:3:0:0:
184,59,72118,6,0,P|250:51|269:4,1,123.999995080567,14|2,0:0|0:0,0:0:0:0:
422,191,72488,1,8,0:1:0:0:
368,128,72674,2,0,P|373:68|442:47,1,123.999995080567,10|8,0:0|0:0,0:0:0:0:
251,239,73044,5,10,0:0:0:0:
177,211,73229,1,8,0:1:0:0:
46,161,73414,6,0,B|63:138|63:138|39:1,1,123.999995080567,2|8,0:0|0:0,0:0:0:0:
212,83,73785,1,10,0:0:0:0:
257,163,73970,1,8,0:1:0:0:
177,211,74155,5,10,0:0:0:0:
225,94,74340,1,10,0:0:0:0:
334,102,74525,1,10,0:0:0:0:
411,2,74711,1,10,0:1:0:0:
411,2,74896,1,8,0:0:0:0:
475,216,75081,6,0,P|473:190|468:213,1,72.0000017578125,14|0,0:1|0:0,0:0:0:0:
446,114,75266,1,10,0:0:0:0:
446,114,75451,1,8,0:0:0:0:
274,282,75637,6,0,B|264:262|264:262|313:112|313:112|290:72,1,216.000005273438,14|0,0:1|0:0,0:0:0:0:
322,173,76007,1,10,0:0:0:0:
173,223,76192,6,0,P|131:205|130:152,1,72.0000017578125,12|0,0:1|0:0,0:0:0:0:
196,140,76377,2,0,P|215:75|163:20,1,144.000003515625,10|8,0:0|0:0,0:0:0:0:
326,270,76748,6,0,B|314:252|314:252|353:59,1,216.000005273438,14|0,0:1|0:0,0:0:0:0:
360,161,77118,1,10,0:0:0:0:
233,231,77303,5,8,0:3:0:0:
207,240,77396,1,8,0:3:0:0:
180,233,77488,1,8,0:3:0:0:
159,214,77581,1,8,0:3:0:0:
177,146,77674,5,4,0:3:0:0:
161,132,77766,1,4,0:3:0:0:
156,112,77859,1,4,0:3:0:0:
163,92,77951,1,4,0:3:0:0:
175,81,78044,5,12,0:0:0:0:
360,161,78229,1,0,0:0:0:0:
426,106,78414,2,0,P|350:83|300:69,1,100,10|8,0:1|0:0,0:0:0:0:
115,208,78785,2,0,B|86:168|86:168|115:116,1,100,10|8,0:0|0:0,0:0:0:0:
317,274,79155,5,8,0:1:0:0:
270,210,79340,2,0,P|279:160|290:104,1,100,10|8,0:0|0:0,0:0:0:0:
432,264,79711,2,0,P|478:221|458:175,1,100,10|8,0:0|0:1,0:0:0:0:
204,111,80081,5,8,0:0:0:0:
146,159,80266,2,0,P|63:144|24:138,1,100,10|8,0:0|0:0,0:0:0:0:
254,54,80637,2,0,P|301:59|325:101,1,100,10|8,0:1|0:0,0:0:0:0:
242,284,81007,5,8,0:0:0:0:
363,210,81192,1,8,0:0:0:0:
387,293,81377,2,0,B|409:248|409:248|370:196,1,100,10|8,0:1|0:0,0:0:0:0:
151,172,81748,2,0,P|119:127|147:79,1,100,10|8,0:0|0:0,0:0:0:0:
363,210,82118,5,8,0:1:0:0:
476,209,82303,2,0,P|395:219|360:226,1,100,10|8,0:0|0:0,0:0:0:0:
217,301,82674,2,0,P|157:285|148:239,1,100,10|8,0:0|0:1,0:0:0:0:
238,67,83044,5,10,0:0:0:0:
363,210,83229,1,10,0:0:0:0:
383,106,83414,5,8,0:1:0:0:
351,91,83507,1,8,0:1:0:0:
316,99,83600,1,8,0:1:0:0:
296,128,83692,1,8,0:1:0:0:
282,160,83785,1,8,0:1:0:0:
251,178,83877,1,8,0:1:0:0:
218,165,83970,1,14,0:0:0:0:
256,192,84062,12,0,86809,0:0:0:0:
312,133,86933,5,8,0:3:0:0:
323,138,86995,2,0,L|361:128,2,33.3333333333333,4|4|4,0:3|0:3|0:3,0:0:0:0:
