osu file format v14

[General]
AudioFilename: audio.mp3
AudioLeadIn: 0
PreviewTime: 53051
Countdown: 0
SampleSet: Soft
StackLeniency: 0.4
Mode: 0
LetterboxInBreaks: 0
WidescreenStoryboard: 0

[Editor]
DistanceSpacing: 1
BeatDivisor: 4
GridSize: 32
TimelineZoom: 1

[Metadata]
Title:One Day (TV Size)
TitleUnicode:One Day (TV Size)
Artist:SPYAIR
ArtistUnicode:SPYAIR
Creator:hypercyte
Version:Sakura's Normal
Source:HAIKYU!! TO THE TOP
Tags:4 ハイキュー!! haikyuu to the top 2nd cour ending 2020 fourth season 4th japanese anime version rock jrock j-rock sakura blossom sakura_blossom daycore haruto haruto_aizawa hypercute
BeatmapID:2680102
BeatmapSetID:1274338

[Difficulty]
HPDrainRate:3
CircleSize:3.5
OverallDifficulty:4
ApproachRate:5
SliderMultiplier:0.999999999999999
SliderTickRate:1

[Events]
//Background and Video events
0,0,"84851224 is the pixiv id.jpg",0,0
Video,-144,"haikyuu one day ed rf 22.mp4"
//Break Periods
//Storyboard Layer 0 (Background)
//Storyboard Layer 1 (Fail)
//Storyboard Layer 2 (Pass)
//Storyboard Layer 3 (Foreground)
//Storyboard Layer 4 (Overlay)
//Storyboard Sound Samples

[TimingPoints]
-3437,370.37037037037,4,2,44,34,1,0
11470,-100,4,2,44,5,0,0
11562,-100,4,2,44,34,0,0
12858,-90.9090909090909,4,2,44,50,0,0
24710,-100,4,2,44,40,0,0
34710,-100,4,2,44,50,0,0
36562,-100,4,2,44,40,0,0
46932,-100,4,2,44,50,0,0
48599,-100,4,2,44,55,0,0
51747,-100,4,2,44,60,0,0
52858,-100,4,2,44,22,0,0
53229,-100,4,2,44,44,0,0
54248,-100,4,2,44,5,0,0
54340,-90.9090909090909,4,2,44,65,0,1
78044,-90.9090909090909,4,2,44,50,0,0
86809,-90.9090909090909,4,2,44,5,0,0
86871,-90.9090909090909,4,2,44,5,0,0
86933,-90.9090909090909,4,2,44,50,0,0
87118,-90.9090909090909,4,2,44,50,0,0

[Colours]
Combo1 : 200,192,241
Combo2 : 244,169,85
Combo3 : 221,191,151
Combo4 : 235,216,141

[HitObjects]
136,344,822,5,0,0:0:0:0:
166,304,1007,2,0,P|198:283|248:282,2,74.9999999999999,10|2|10,0:0|0:0|0:1,0:0:0:0:
75,260,1933,1,10,0:0:0:0:
106,165,2303,1,2,0:0:0:0:
73,127,2488,6,0,L|56:41,2,74.9999999999999,10|2|10,0:0|0:0|0:1,0:0:0:0:
253,39,3785,1,0,0:0:0:0:
299,57,3970,6,0,P|348:48|375:17,2,74.9999999999999,10|2|10,0:0|0:0|0:1,0:0:0:0:
246,142,4896,2,0,L|195:154,2,50,10|10|2,0:0|0:1|0:0,0:0:0:0:
292,160,5451,2,0,P|313:196|314:245,2,74.9999999999999,10|2|10,0:0|0:0|0:1,0:0:0:0:
469,253,6748,1,8,0:0:0:0:
460,302,6933,6,0,L|442:379,2,74.9999999999999,10|2|10,0:0|0:0|0:1,0:0:0:0:
366,265,7859,1,10,0:0:0:0:
310,182,8229,2,0,L|333:83,2,99.9999999999999,2|10|10,0:0|0:0|0:1,0:0:0:0:
232,246,9340,1,8,0:0:0:0:
134,223,9711,1,8,0:0:0:0:
94,192,9896,6,0,P|62:137|91:53,1,150,10|8,0:0|0:1,0:0:0:0:
126,29,10637,2,0,L|233:17,1,99.9999999999999,10|8,0:0|0:1,0:0:0:0:
323,1,11377,1,2,0:0:0:0:
217,355,12859,6,0,L|143:374,1,55.0000016784668,12|8,0:0|0:0,0:0:0:0:
114,344,13229,2,0,L|40:363,1,55.0000016784668,10|8,0:1|0:0,0:0:0:0:
14,328,13600,2,0,P|4:273|36:202,1,110.000003356934,10|8,0:0|0:1,0:0:0:0:
64,189,14155,1,10,0:0:0:0:
169,218,14525,2,0,P|226:220|274:189,1,110.000003356934,10|8,0:0|0:0,0:0:0:0:
302,148,15081,1,10,0:0:0:0:
283,39,15451,1,10,0:1:0:0:
389,10,15822,6,0,P|427:16|452:37,1,55.0000016784668,12|8,0:0|0:0,0:0:0:0:
475,67,16192,2,0,L|458:133,1,55.0000016784668,10|8,0:1|0:0,0:0:0:0:
435,168,16562,2,0,P|483:234|477:280,1,110.000003356934,10|8,0:0|0:1,0:0:0:0:
465,311,17118,1,10,0:0:0:0:
383,384,17488,2,0,P|321:354|275:359,1,110.000003356934,10|10,0:0|0:0,0:0:0:0:
230,377,18044,2,0,L|216:317,2,55.0000016784668,10|10|10,0:0|0:0|0:1,0:0:0:0:
121,361,18785,6,0,P|79:352|56:331,1,55.0000016784668,12|8,0:0|0:0,0:0:0:0:
21,318,19155,2,0,L|39:245,1,55.0000016784668,10|8,0:1|0:0,0:0:0:0:
18,211,19525,2,0,P|71:173|137:185,1,110.000003356934,10|8,0:0|0:1,0:0:0:0:
159,205,20081,1,10,0:0:0:0:
238,280,20451,2,0,L|361:293,1,110.000003356934,10|8,0:0|0:0,0:0:0:0:
398,311,21007,1,10,0:0:0:0:
453,216,21377,1,10,0:1:0:0:
417,112,21748,6,0,P|386:91|357:88,1,55.0000016784668,12|8,0:0|0:0,0:0:0:0:
321,60,22118,2,0,L|309:127,1,55.0000016784668,10|8,0:1|0:0,0:0:0:0:
290,164,22488,2,0,P|245:196|187:187,1,110.000003356934,10|8,0:0|0:1,0:0:0:0:
149,155,23044,1,10,0:0:0:0:
99,57,23414,1,10,0:0:0:0:
11,123,23785,1,10,0:0:0:0:
17,177,23970,2,0,L|29:235,1,55.0000016784668,10|8,0:0|0:1,0:0:0:0:
78,252,24340,2,0,L|90:310,1,55.0000016784668,8|8,0:1|0:1,0:0:0:0:
85,355,24711,6,0,P|129:321|188:317,1,99.9999999999999,10|8,0:0|0:1,0:0:0:0:
217,334,25266,1,10,0:0:0:0:
311,301,25637,1,8,0:0:0:0:
344,338,25822,2,0,P|375:356|400:360,1,50,8|0,0:1|0:0,0:0:0:0:
438,352,26192,2,0,L|510:333,2,74.9999999999999,10|2|10,0:0|0:0|0:0,0:0:0:0:
433,151,27488,1,2,0:0:0:0:
383,141,27674,6,0,L|278:160,1,99.9999999999999,10|8,0:0|0:1,0:0:0:0:
250,195,28229,1,10,0:0:0:0:
132,202,28600,1,8,0:0:0:0:
86,222,28785,2,0,P|62:212|33:187,1,50,8|8,0:1|0:0,0:0:0:0:
5,164,29155,2,0,P|3:106|-5:69,2,74.9999999999999,10|2|10,0:0|0:0|0:0,0:0:0:0:
161,39,30451,1,0,0:0:0:0:
206,18,30637,6,0,P|266:32|299:78,1,99.9999999999999,10|8,0:0|0:1,0:0:0:0:
307,106,31192,1,10,0:0:0:0:
244,183,31562,1,8,0:0:0:0:
202,210,31748,2,0,P|193:239|194:273,1,50,8|8,0:1|0:0,0:0:0:0:
217,302,32118,2,0,L|107:284,1,99.9999999999999,10|10,0:0|0:1,0:0:0:0:
76,258,32674,2,0,P|45:321|58:366,1,99.9999999999999,10|10,0:0|0:0,0:0:0:0:
84,384,33229,1,8,0:1:0:0:
183,372,33600,6,0,L|300:356,1,99.9999999999999,10|8,0:0|0:1,0:0:0:0:
330,370,34155,1,8,0:0:0:0:
378,380,34340,2,0,P|414:332|415:277,1,99.9999999999999,8|12,0:0|0:1,0:0:0:0:
460,204,35081,5,12,0:0:0:0:
460,204,35266,1,8,0:0:0:0:
363,177,35637,1,12,0:0:0:0:
311,263,36007,1,8,0:0:0:0:
311,263,36192,1,8,0:1:0:0:
232,203,36562,6,0,P|226:173|230:147,1,50,12|8,0:1|0:0,0:0:0:0:
250,109,36933,2,0,P|181:76|144:77,1,99.9999999999999,10|10,0:1|0:0,0:0:0:0:
115,100,37488,1,8,0:0:0:0:
100,202,37859,1,2,0:0:0:0:
71,243,38044,2,0,L|-15:220,2,74.9999999999999,10|2|8,0:0|0:0|0:0,0:0:0:0:
84,291,38785,2,0,P|125:342|154:359,1,99.9999999999999,10|8,0:0|0:1,0:0:0:0:
219,287,39525,6,0,P|240:305|254:327,1,50,8|8,0:0|0:0,0:0:0:0:
249,373,39896,2,0,L|369:387,1,99.9999999999999,8|10,0:1|0:0,0:0:0:0:
383,348,40451,1,8,0:0:0:0:
414,253,40822,1,10,0:0:0:0:
439,210,41007,2,0,L|518:190,2,74.9999999999999,10|2|10,0:0|0:0|0:0,0:0:0:0:
407,170,41748,2,0,L|295:190,1,99.9999999999999,8|8,0:0|0:1,0:0:0:0:
210,167,42488,6,0,P|192:124|195:60,1,99.9999999999999,8|8,0:0|0:1,0:0:0:0:
220,30,43044,1,10,0:0:0:0:
264,6,43229,2,0,L|372:24,1,99.9999999999999,10|8,0:0|0:1,0:0:0:0:
462,19,43970,2,0,P|485:57|484:130,1,99.9999999999999,8|8,0:0|0:1,0:0:0:0:
464,155,44525,1,10,0:0:0:0:
431,192,44711,2,0,L|452:300,1,99.9999999999999,10|8,0:0|0:1,0:0:0:0:
406,380,45451,6,0,P|345:358|295:365,1,99.9999999999999,10|8,0:0|0:1,0:0:0:0:
213,383,46192,1,8,0:0:0:0:
136,318,46562,1,8,0:1:0:0:
36,306,46933,2,0,L|23:364,2,50,12|8|8,0:0|0:1|0:1,0:0:0:0:
48,257,47488,1,10,0:0:0:0:
28,158,47859,2,0,P|46:104|89:64,1,99.9999999999999,8|8,0:1|0:1,0:0:0:0:
125,65,48414,5,12,0:0:0:0:
249,149,48970,1,8,0:0:0:0:
297,162,49155,2,0,L|276:73,2,74.9999999999999,10|2|10,0:0|0:0|0:0,0:0:0:0:
326,202,49896,1,8,0:0:0:0:
423,179,50266,2,0,P|462:193|477:209,1,50,8|10,0:1|0:0,0:0:0:0:
495,239,50637,2,0,L|470:352,1,99.9999999999999,10|8,0:0|0:1,0:0:0:0:
378,368,51377,5,8,0:1:0:0:
297,308,51748,1,8,0:1:0:0:
202,339,52118,1,8,0:1:0:0:
124,284,52488,5,8,0:1:0:0:
124,284,52674,1,8,0:1:0:0:
478,335,54340,6,0,L|496:208,1,110.000003356934,14|10,0:0|0:0,0:0:0:0:
468,182,54896,1,10,0:0:0:0:
468,182,55081,1,8,0:1:0:0:
363,148,55451,1,10,0:0:0:0:
323,186,55637,2,0,P|302:237|312:299,2,110.000003356934,10|10|8,0:0|0:1|0:0,0:0:0:0:
268,181,56562,2,0,L|193:191,1,55.0000016784668,8|8,0:1|0:0,0:0:0:0:
158,191,56933,1,8,0:0:0:0:
79,114,57303,6,0,P|105:42|145:14,1,110.000003356934,14|8,0:0|0:0,0:0:0:0:
183,2,57859,1,14,0:0:0:0:
183,2,58044,1,8,0:1:0:0:
287,35,58414,1,10,0:0:0:0:
310,84,58600,2,0,L|437:104,2,110.000003356934,10|10|10,0:0|0:1|0:0,0:0:0:0:
280,130,59525,2,0,P|285:178|298:201,1,55.0000016784668,8|8,0:1|0:0,0:0:0:0:
332,216,59896,1,8,0:0:0:0:
406,304,60266,5,14,0:0:0:0:
406,304,60451,1,2,0:0:0:0:
324,378,60822,2,0,L|205:354,1,110.000003356934,10|10,0:0|0:0,0:0:0:0:
162,346,61377,1,8,0:1:0:0:
108,334,61562,2,0,P|97:272|119:224,1,110.000003356934,2|10,0:0|0:0,0:0:0:0:
114,119,62303,1,10,0:0:0:0:
70,86,62488,2,0,P|26:89|-6:102,2,55.0000016784668,10|10|10,0:0|0:0|0:1,0:0:0:0:
159,21,63229,6,0,L|274:35,1,110.000003356934,14|8,0:1|0:0,0:0:0:0:
318,12,63785,2,0,P|358:62|355:125,1,110.000003356934,12|8,0:1|0:0,0:0:0:0:
344,161,64340,1,12,0:1:0:0:
344,161,64525,1,8,0:0:0:0:
427,232,64896,1,12,0:1:0:0:
511,302,65266,1,8,0:0:0:0:
491,353,65451,2,0,P|459:376|424:385,1,55.0000016784668,8|8,0:3|0:3,0:0:0:0:
389,378,65822,1,4,0:3:0:0:
293,323,66192,6,0,P|234:250|234:214,1,110.000003356934,14|8,0:0|0:0,0:0:0:0:
250,188,66748,1,10,0:0:0:0:
250,188,66933,1,8,0:1:0:0:
204,88,67303,1,10,0:0:0:0:
156,115,67488,2,0,L|38:137,2,110.000003356934,10|8|8,0:0|0:1|0:0,0:0:0:0:
160,170,68414,2,0,P|144:213|122:233,1,55.0000016784668,8|8,0:1|0:0,0:0:0:0:
88,242,68785,1,8,0:0:0:0:
132,342,69155,6,0,P|214:332|239:308,1,110.000003356934,14|8,0:0|0:0,0:0:0:0:
260,269,69711,1,14,0:0:0:0:
260,269,69896,1,8,0:1:0:0:
368,252,70266,1,10,0:0:0:0:
422,263,70451,2,0,P|455:304|461:373,2,110.000003356934,10|10|8,0:0|0:1|0:0,0:0:0:0:
456,220,71377,2,0,L|471:155,1,55.0000016784668,8|8,0:1|0:0,0:0:0:0:
481,112,71748,1,8,0:1:0:0:
411,33,72118,5,14,0:0:0:0:
411,33,72303,1,2,0:0:0:0:
301,44,72674,2,0,P|223:14|192:21,1,110.000003356934,10|10,0:0|0:0,0:0:0:0:
152,46,73229,1,8,0:1:0:0:
116,87,73414,2,0,L|100:202,1,110.000003356934,2|10,0:0|0:0,0:0:0:0:
27,278,74155,1,10,0:0:0:0:
29,332,74340,2,0,P|40:362|45:394,2,55.0000016784668,10|10|10,0:0|0:0|0:1,0:0:0:0:
122,274,75081,6,0,P|174:280|237:331,1,110.000003356934,14|8,0:1|0:0,0:0:0:0:
259,351,75637,2,0,L|371:325,1,110.000003356934,14|10,0:1|0:0,0:0:0:0:
415,360,76192,1,12,0:1:0:0:
415,360,76377,1,10,0:0:0:0:
449,255,76748,1,14,0:1:0:0:
480,150,77118,1,10,0:0:0:0:
463,97,77303,2,0,P|435:69|397:63,1,55.0000016784668,8|8,0:3|0:3,0:0:0:0:
366,72,77674,1,4,0:3:0:0:
264,31,78044,6,0,L|248:102,1,55.0000016784668,12|0,0:0|0:0,0:0:0:0:
200,103,78414,2,0,P|213:152|229:175,1,55.0000016784668,10|8,0:1|0:0,0:0:0:0:
202,208,78785,2,0,P|266:204|323:235,1,110.000003356934,10|8,0:0|0:1,0:0:0:0:
339,266,79340,1,10,0:0:0:0:
267,351,79711,2,0,L|152:369,1,110.000003356934,10|8,0:0|0:0,0:0:0:0:
105,382,80266,1,10,0:0:0:0:
22,309,80637,1,10,0:1:0:0:
3,200,81007,6,0,L|24:134,1,55.0000016784668,8|8,0:0|0:0,0:0:0:0:
12,92,81377,2,0,P|46:75|75:74,1,55.0000016784668,10|8,0:1|0:0,0:0:0:0:
113,93,81748,2,0,L|224:75,1,110.000003356934,10|8,0:0|0:1,0:0:0:0:
269,102,82303,1,10,0:0:0:0:
343,21,82674,2,0,P|407:41|437:85,1,110.000003356934,10|10,0:0|0:0,0:0:0:0:
449,125,83229,2,0,P|445:156|433:183,2,55.0000016784668,10|8|8,0:0|0:1|0:1,0:0:0:0:
505,30,83970,1,14,0:0:0:0:
256,192,84062,12,4,87118,0:3:0:0:
