osu file format v14

[General]
AudioFilename: audio.mp3
AudioLeadIn: 0
PreviewTime: 53051
Countdown: 0
SampleSet: Soft
StackLeniency: 0.4
Mode: 0
LetterboxInBreaks: 0
WidescreenStoryboard: 1

[Editor]
DistanceSpacing: 0.4
BeatDivisor: 4
GridSize: 32
TimelineZoom: 1

[Metadata]
Title:One Day (TV Size)
TitleUnicode:One Day (TV Size)
Artist:SPYAIR
ArtistUnicode:SPYAIR
Creator:hypercyte
Version:Easy
Source:HAIKYU!! TO THE TOP
Tags:4 ハイキュー!! haikyuu to the top 2nd cour ending 2020 fourth season 4th japanese anime version rock jrock j-rock sakura blossom sakura_blossom daycore haruto haruto_aizawa hypercute
BeatmapID:2685025
BeatmapSetID:1274338

[Difficulty]
HPDrainRate:2
CircleSize:3.2
OverallDifficulty:2
ApproachRate:4
SliderMultiplier:0.799999999999999
SliderTickRate:1

[Events]
//Background and Video events
Video,-144,"haikyuu one day ed rf 22.mp4"
0,0,"84851224 is the pixiv id.jpg",0,0
//Break Periods
//Storyboard Layer 0 (Background)
//Storyboard Layer 1 (Fail)
//Storyboard Layer 2 (Pass)
//Storyboard Layer 3 (Foreground)
//Storyboard Layer 4 (Overlay)
//Storyboard Sound Samples

[TimingPoints]
-3437,370.37037037037,4,2,44,34,1,0
11470,-100,4,2,44,5,0,0
11562,-100,4,2,44,34,0,0
12858,-100,4,2,44,50,0,0
24710,-100,4,2,44,40,0,0
34710,-100,4,2,44,50,0,0
36562,-100,4,2,44,40,0,0
46932,-100,4,2,44,50,0,0
48599,-100,4,2,44,55,0,0
51747,-100,4,2,44,60,0,0
52858,-100,4,2,44,22,0,0
53229,-100,4,2,44,44,0,0
54248,-100,4,2,44,5,0,0
54340,-100,4,2,44,65,0,1
78044,-100,4,2,44,50,0,0
86809,-100,4,2,44,5,0,0
86933,-100,4,2,44,50,0,0
87118,-100,4,2,44,50,0,0

[Colours]
Combo1 : 200,192,241
Combo2 : 244,169,85
Combo3 : 221,191,151
Combo4 : 235,216,141

[HitObjects]
133,104,1007,6,0,L|257:125,1,120,10|10,0:0|0:1,0:0:0:0:
329,105,1933,1,10,0:0:0:0:
366,218,2488,2,0,B|355:278|355:278|296:269,1,120,10|10,0:0|0:1,0:0:0:0:
143,139,3970,6,0,P|80:149|59:211,2,120,10|10|10,0:0|0:1|0:1,0:0:0:0:
205,189,5451,2,0,B|257:181|257:181|273:167|273:167|334:155,1,120,10|10,0:0|0:1,0:0:0:0:
458,300,6933,6,0,B|486:247|486:247|432:210,1,120,10|10,0:0|0:1,0:0:0:0:
364,177,7859,1,10,0:0:0:0:
296,220,8229,2,0,P|236:218|200:216,1,79.9999999999999,2|10,0:0|0:0,0:0:0:0:
150,262,8970,1,10,0:1:0:0:
87,211,9340,1,10,0:0:0:0:
134,100,9896,6,0,B|182:76|215:118|201:126|239:167|286:138,2,160,10|10|10,0:0|0:0|0:1,0:0:0:0:
108,165,12859,5,12,0:0:0:0:
170,214,13229,1,10,0:1:0:0:
235,260,13600,2,0,L|362:237,1,120,10|10,0:0|0:0,0:0:0:0:
426,206,14525,1,10,0:0:0:0:
405,87,15081,1,10,0:0:0:0:
327,101,15451,1,10,0:1:0:0:
282,167,15822,6,0,L|200:152,1,79.9999999999999,12|10,0:0|0:1,0:0:0:0:
123,143,16562,2,0,P|92:196|119:244,1,120,10|10,0:0|0:0,0:0:0:0:
194,264,17488,1,10,0:0:0:0:
271,172,18044,1,10,0:0:0:0:
334,220,18414,1,10,0:1:0:0:
397,269,18785,6,0,L|373:359,1,79.9999999999999,12|10,0:0|0:1,0:0:0:0:
297,357,19525,2,0,B|241:345|241:345|227:348|227:348|175:338,1,120,10|10,0:0|0:0,0:0:0:0:
122,282,20451,1,10,0:0:0:0:
180,176,21007,1,10,0:0:0:0:
125,117,21377,1,10,0:1:0:0:
58,161,21748,6,0,P|59:216|60:252,1,79.9999999999999,12|10,0:0|0:1,0:0:0:0:
45,319,22488,2,0,B|70:333|70:333|163:304,1,120,10|10,0:0|0:0,0:0:0:0:
233,282,23414,1,10,0:0:0:0:
339,337,23970,2,0,L|426:314,1,79.9999999999999,10|8,0:0|0:1,0:0:0:0:
469,256,24711,6,0,P|476:192|424:157,1,120,10|10,0:0|0:0,0:0:0:0:
317,168,25822,1,8,0:1:0:0:
252,120,26192,2,0,B|199:128|199:128|186:138|186:138|122:150,1,120,10|10,0:0|0:0,0:0:0:0:
56,330,27674,6,0,P|96:355|159:312,2,120,10|10|8,0:0|0:0|0:1,0:0:0:0:
30,254,29155,2,0,L|43:127,1,120,10|10,0:0|0:0,0:0:0:0:
219,40,30637,6,0,P|278:54|294:118,1,120,10|10,0:0|0:0,0:0:0:0:
255,173,31562,2,0,L|130:160,1,120,8|10,0:0|0:0,0:0:0:0:
39,232,32674,1,10,0:0:0:0:
84,297,33044,2,0,L|203:309,1,120,10|10,0:0|0:0,0:0:0:0:
307,187,34340,5,8,0:0:0:0:
217,54,35081,2,0,B|171:49|171:49|136:57|136:57|83:51,2,120,12|12|8,0:0|0:0|0:1,0:0:0:0:
286,14,36562,5,12,0:1:0:0:
336,76,36933,2,0,P|320:151|300:245,1,160,10|8,0:1|0:1,0:0:0:0:
260,300,38044,1,10,0:0:0:0:
104,263,38785,2,0,L|19:239,1,79.9999999999999,10|8,0:0|0:1,0:0:0:0:
57,167,39525,1,8,0:0:0:0:
92,94,39896,6,0,L|251:139,1,160,8|8,0:1|0:1,0:0:0:0:
323,113,41007,1,10,0:0:0:0:
472,54,41748,2,0,P|501:102|490:134,1,79.9999999999999,8|8,0:0|0:1,0:0:0:0:
441,180,42488,1,8,0:0:0:0:
313,276,43229,6,0,L|224:264,1,79.9999999999999,10|8,0:0|0:1,0:0:0:0:
169,217,43970,1,8,0:0:0:0:
38,309,44711,2,0,P|3:246|26:166,1,160,10|10,0:0|0:0,0:0:0:0:
176,108,46192,1,8,0:0:0:0:
302,206,46933,6,0,L|425:187,2,120,12|12|12,0:0|0:0|0:0,0:0:0:0:
247,269,48414,1,12,0:0:0:0:
121,169,49155,6,0,P|123:102|126:6,1,160,10|8,0:0|0:0,0:0:0:0:
244,116,50637,2,0,L|330:105,1,79.9999999999999,8|8,0:0|0:1,0:0:0:0:
402,96,51377,5,8,0:1:0:0:
464,145,51748,1,8,0:1:0:0:
465,224,52118,1,8,0:1:0:0:
393,260,52488,1,8,0:1:0:0:
7,152,54340,6,0,P|78:130|96:79,1,120,14|10,0:0|0:0,0:0:0:0:
239,23,55637,2,0,P|310:36|302:157,1,200,10|10,0:0|0:1,0:0:0:0:
238,170,56933,1,10,0:0:0:0:
177,117,57303,6,0,P|98:91|92:49,1,120,14|14,0:0|0:0,0:0:0:0:
247,30,58600,2,0,L|453:76,1,200,10|10,0:0|0:1,0:0:0:0:
469,148,59896,1,8,0:3:0:0:
408,200,60266,6,0,P|355:205|328:269,1,120,14|10,0:0|0:0,0:0:0:0:
305,337,61192,1,10,0:0:0:0:
230,308,61562,1,2,0:0:0:0:
156,339,61933,2,0,L|27:314,1,120,10|10,0:0|0:0,0:0:0:0:
21,237,62859,1,10,0:1:0:0:
77,180,63229,6,0,B|70:136|70:136|58:115|58:115|50:57,1,120,14|12,0:1|0:1,0:0:0:0:
125,33,64155,1,8,0:0:0:0:
195,70,64525,1,8,0:0:0:0:
272,51,64896,1,12,0:1:0:0:
338,95,65266,2,0,P|409:116|418:160,1,120,8|4,0:0|0:3,0:0:0:0:
389,228,66192,6,0,P|325:239|290:202,1,120,14|10,0:0|0:0,0:0:0:0:
177,89,67488,2,0,P|114:91|96:206,1,200,10|10,0:0|0:1,0:0:0:0:
163,248,68785,1,2,0:0:0:0:
241,231,69155,6,0,P|255:174|285:113,1,120,14|14,0:0|0:0,0:0:0:0:
435,74,70451,2,0,P|494:132|439:234,1,200,10|10,0:0|0:1,0:0:0:0:
372,234,71748,1,4,0:3:0:0:
306,280,72118,6,0,L|178:264,1,120,14|10,0:0|0:0,0:0:0:0:
139,200,73044,1,10,0:0:0:0:
66,233,73414,2,0,P|39:292|49:318,1,79.9999999999999,2|10,0:0|0:0,0:0:0:0:
158,330,74340,1,10,0:0:0:0:
226,289,74711,1,10,0:1:0:0:
299,319,75081,6,0,L|432:333,1,120,14|14,0:1|0:1,0:0:0:0:
475,275,76007,1,10,0:0:0:0:
415,221,76377,1,10,0:0:0:0:
473,166,76748,2,0,P|473:110|406:87,1,120,14|8,0:1|0:3,0:0:0:0:
348,117,77674,1,4,0:3:0:0:
320,192,78044,6,0,L|230:183,1,79.9999999999999,12|10,0:0|0:1,0:0:0:0:
167,150,78785,2,0,P|133:186|151:261,1,120,10|10,0:0|0:0,0:0:0:0:
207,298,79711,1,10,0:0:0:0:
300,223,80266,1,10,0:0:0:0:
366,266,80637,1,10,0:1:0:0:
445,254,81007,6,0,P|480:294|469:329,1,79.9999999999999,8|10,0:0|0:1,0:0:0:0:
423,377,81748,2,0,L|288:365,1,120,10|10,0:0|0:0,0:0:0:0:
245,311,82674,1,10,0:0:0:0:
133,355,83229,2,0,L|54:343,1,79.9999999999999,10|8,0:0|0:1,0:0:0:0:
256,192,83970,12,4,87118,0:3:0:0:
