osu file format v14

[General]
AudioFilename: audio.mp3
AudioLeadIn: 0
PreviewTime: 53051
Countdown: 0
SampleSet: Soft
StackLeniency: 0.7
Mode: 0
LetterboxInBreaks: 0
WidescreenStoryboard: 0

[Editor]
Bookmarks: 1014,12865,24717,36569,48421,54347,66199,75088,78051,83976
DistanceSpacing: 1
BeatDivisor: 4
GridSize: 8
TimelineZoom: 1

[Metadata]
Title:One Day (TV Size)
TitleUnicode:One Day (TV Size)
Artist:SPYAIR
ArtistUnicode:SPYAIR
Creator:hypercyte
Version:Daycore's Hard
Source:HAIKYU!! TO THE TOP
Tags:4 ハイキュー!! haikyuu to the top 2nd cour ending 2020 fourth season 4th japanese anime version rock jrock j-rock sakura blossom sakura_blossom daycore haruto haruto_aizawa hypercute
BeatmapID:2681100
BeatmapSetID:1274338

[Difficulty]
HPDrainRate:4
CircleSize:4.5
OverallDifficulty:6.5
ApproachRate:7.5
SliderMultiplier:1.62
SliderTickRate:1

[Events]
//Background and Video events
0,0,"84851224 is the pixiv id.jpg",0,0
Video,-144,"haikyuu one day ed rf 22.mp4"
//Break Periods
//Storyboard Layer 0 (Background)
//Storyboard Layer 1 (Fail)
//Storyboard Layer 2 (Pass)
//Storyboard Layer 3 (Foreground)
//Storyboard Layer 4 (Overlay)
//Storyboard Sound Samples

[TimingPoints]
-3437,370.37037037037,4,2,44,34,1,0
1007,-111.111111111111,4,2,44,34,0,0
11470,-111.111111111111,4,2,44,5,0,0
11562,-111.111111111111,4,2,44,34,0,0
12858,-100,4,2,44,50,0,0
24710,-100,4,2,44,40,0,0
34710,-100,4,2,44,50,0,0
35081,-100,4,2,44,50,0,0
35266,-100,4,2,44,50,0,0
35636,-100,4,2,44,50,0,0
36562,-100,4,2,44,40,0,0
46932,-100,4,2,44,50,0,0
48599,-100,4,2,44,55,0,0
48969,-100,4,2,44,55,0,0
51747,-100,4,2,44,60,0,0
52118,-100,4,2,44,60,0,0
52488,-100,4,2,44,60,0,0
52673,-100,4,2,44,60,0,0
52858,-100,4,2,44,22,0,0
53229,-100,4,2,44,44,0,0
54248,-100,4,2,44,5,0,0
54340,-83.3333333333333,4,2,44,65,0,1
54710,-83.3333333333333,4,2,44,65,0,1
54895,-83.3333333333333,4,2,44,65,0,1
55451,-83.3333333333333,4,2,44,65,0,1
57303,-83.3333333333333,4,2,44,65,0,1
57673,-83.3333333333333,4,2,44,65,0,1
57858,-83.3333333333333,4,2,44,65,0,1
58414,-83.3333333333333,4,2,44,65,0,1
60266,-83.3333333333333,4,2,44,65,0,1
63229,-83.3333333333333,4,2,44,65,0,1
66192,-83.3333333333333,4,2,44,65,0,1
66562,-83.3333333333333,4,2,44,65,0,1
66747,-83.3333333333333,4,2,44,65,0,1
67303,-83.3333333333333,4,2,44,65,0,1
69155,-83.3333333333333,4,2,44,65,0,1
69525,-83.3333333333333,4,2,44,65,0,1
69710,-83.3333333333333,4,2,44,65,0,1
70266,-83.3333333333333,4,2,44,65,0,1
72118,-83.3333333333333,4,2,44,65,0,1
75081,-83.3333333333333,4,2,44,65,0,1
78044,-100,4,2,44,50,0,0
83969,-133.333333333333,4,2,44,50,0,0
84062,-133.333333333333,4,2,44,50,0,0
86809,-133.333333333333,4,2,44,5,0,0
86933,-133.333333333333,4,2,44,50,0,0

[Colours]
Combo1 : 200,192,241
Combo2 : 244,169,85
Combo3 : 221,191,151
Combo4 : 235,216,141

[HitObjects]
129,51,822,5,0,0:0:0:0:
129,51,1007,2,0,B|169:92|169:92|147:197,1,145.799995550537,10|0,0:0|0:0,0:0:0:0:
100,239,1562,2,0,B|170:244|152:188|232:189,1,145.799995550537,10|10,0:1|0:0,0:0:0:0:
293,241,2118,2,0,L|284:318,1,72.8999977752686,0|2,0:0|0:0,0:0:0:0:
212,342,2488,6,0,P|258:384|338:367,1,145.799995550537,10|0,0:0|0:0,0:0:0:0:
364,295,3044,2,0,B|370:225|370:225|374:220|374:220|381:146,1,145.799995550537,10|8,0:1|0:0,0:0:0:0:
343,79,3600,1,8,0:1:0:0:
443,97,3785,1,10,0:0:0:0:
397,21,3970,6,0,P|344:0|271:51,1,145.799995550537,10|0,0:0|0:0,0:0:0:0:
343,79,4525,2,0,B|377:98|387:137|387:137|408:102|448:95,1,145.799995550537,10|10,0:1|0:0,0:0:0:0:
455,175,5081,2,0,L|446:247,1,72.8999977752686,10|2,0:1|0:0,0:0:0:0:
506,303,5451,6,0,B|450:293|450:293|416:303|416:303|345:290,1,145.799995550537,10|0,0:0|0:0,0:0:0:0:
301,244,6007,2,0,B|266:287|266:287|150:252,1,145.799995550537,10|8,0:1|0:0,0:0:0:0:
116,211,6562,2,0,P|100:258|105:292,1,72.8999977752686,8|10,0:1|0:0,0:0:0:0:
128,355,6933,6,0,B|65:350|99:260|-4:265,1,145.799995550537,10|8,0:0|0:1,0:0:0:0:
21,183,7488,2,0,B|83:178|49:88|153:93,1,145.799995550537,10|8,0:1|0:0,0:0:0:0:
175,30,8044,1,0,0:0:0:0:
218,97,8229,6,0,P|168:110|98:42,1,145.799995550537,2|10,0:0|0:0,0:0:0:0:
175,30,8785,1,8,0:1:0:0:
221,104,8970,2,0,P|266:115|305:98,1,72.8999977752686,10|8,0:1|0:0,0:0:0:0:
333,39,9340,2,0,L|304:202,1,145.799995550537,10|8,0:0|0:0,0:0:0:0:
243,230,9896,6,0,P|304:262|376:222,1,145.799995550537,10|8,0:0|0:1,0:0:0:0:
307,182,10451,1,10,0:1:0:0:
392,164,10637,2,0,P|391:228|381:323,1,145.799995550537,10|8,0:0|0:1,0:0:0:0:
392,164,11377,5,8,0:1:0:0:
342,100,11562,2,0,P|361:58|430:100,3,145.799995550537
396,168,12859,5,12,0:0:0:0:
396,168,13044,1,8,0:0:0:0:
319,194,13229,2,0,B|287:188|287:188|267:190|267:190|225:184,1,81,10|8,0:1|0:0,0:0:0:0:
244,105,13600,2,0,B|212:111|212:111|192:108|192:108|150:115,1,81,10|8,0:0|0:0,0:0:0:0:
112,175,13970,1,8,0:1:0:0:
47,125,14155,6,0,P|30:175|43:218,1,81,10|8,0:0|0:0,0:0:0:0:
112,175,14525,2,0,P|115:214|99:251,1,81,10|8,0:0|0:1,0:0:0:0:
32,296,14896,1,8,0:0:0:0:
82,359,15081,2,0,B|122:371|122:371|160:350,1,81,10|8,0:0|0:0,0:0:0:0:
211,293,15451,1,10,0:1:0:0:
362,345,15822,6,0,L|450:334,2,81,12|8|10,0:0|0:0|0:1,0:0:0:0:
285,286,16377,1,8,0:0:0:0:
365,274,16562,2,0,L|453:263,1,81,10|8,0:0|0:0,0:0:0:0:
496,201,16933,1,8,0:1:0:0:
432,150,17118,6,0,L|351:160,1,81,10|8,0:0|0:0,0:0:0:0:
271,170,17488,2,0,L|190:180,1,81,10|8,0:0|0:1,0:0:0:0:
146,111,17859,1,10,0:0:0:0:
201,52,18044,1,8,0:0:0:0:
201,52,18229,1,8,0:0:0:0:
277,78,18414,2,0,B|315:91|315:91|354:69,1,81,10|8,0:1|0:0,0:0:0:0:
431,59,18785,6,0,B|504:46|505:140|452:200,1,162,12|10,0:0|0:1,0:0:0:0:
445,263,19340,1,8,0:0:0:0:
485,333,19525,2,0,P|439:344|393:323,1,81,10|8,0:0|0:0,0:0:0:0:
445,263,19896,1,8,0:1:0:0:
363,266,20081,6,0,L|271:273,1,81,10|8,0:0|0:0,0:0:0:0:
224,327,20451,2,0,L|143:332,1,81,10|8,0:0|0:1,0:0:0:0:
91,269,20822,1,8,0:0:0:0:
18,304,21007,2,0,P|11:262|28:218,1,81,10|8,0:0|0:0,0:0:0:0:
95,191,21377,2,0,P|102:233|85:277,1,81,10|8,0:1|0:0,0:0:0:0:
144,349,21748,6,0,L|224:343,2,81,12|8|10,0:0|0:0|0:1,0:0:0:0:
90,268,22303,1,8,0:0:0:0:
95,191,22488,2,0,P|83:152|90:113,1,81,10|8,0:0|0:0,0:0:0:0:
163,78,22859,1,8,0:1:0:0:
122,7,23044,6,0,P|170:-3|224:22,1,81,10|8,0:0|0:0,0:0:0:0:
244,72,23414,2,0,P|283:80|322:70,1,81,10|8,0:0|0:1,0:0:0:0:
382,16,23785,1,10,0:0:0:0:
412,91,23970,1,10,0:0:0:0:
473,37,24155,1,8,0:1:0:0:
474,40,24248,1,8,0:1:0:0:
475,43,24340,2,0,P|489:72|494:97,3,40.5,8|8|8|8,0:1|0:1|0:1|0:1,0:0:0:0:
480,117,24711,6,0,P|475:145|473:202,1,81,10|0,0:0|0:0,0:0:0:0:
468,208,24988,1,2,0:0:0:0:
501,319,25266,2,0,B|421:287|426:380|346:378,1,162,10|8,0:0|0:0,0:0:0:0:
343,297,25822,1,8,0:1:0:0:
187,340,26192,5,10,0:0:0:0:
114,376,26377,2,0,P|68:372|32:336,1,81,0|8,0:0|0:1,0:0:0:0:
51,270,26748,2,0,B|45:233|61:207|61:207|43:177|43:177|57:153|47:115,1,162,10|8,0:0|0:0,0:0:0:0:
117,74,27303,1,8,0:1:0:0:
54,22,27488,1,0,0:0:0:0:
167,17,27674,6,0,P|190:54|182:107,1,81,10|0,0:0|0:0,0:0:0:0:
184,105,27951,1,2,0:0:0:0:
177,120,28044,1,8,0:1:0:0:
160,204,28229,1,10,0:0:0:0:
160,204,28322,1,0,0:0:0:0:
160,204,28414,2,0,P|175:249|217:271,1,81,0|8,0:0|0:0,0:0:0:0:
284,267,28785,2,0,P|315:242|326:204,1,81,8|8,0:1|0:0,0:0:0:0:
318,123,29155,6,0,P|328:84|359:59,1,81,10|0,0:0|0:0,0:0:0:0:
423,107,29525,1,8,0:1:0:0:
428,32,29711,1,10,0:0:0:0:
428,32,29803,1,0,0:0:0:0:
428,32,29896,2,0,L|537:39,1,81,8|10,0:0|0:0,0:0:0:0:
504,113,30266,2,0,L|423:107,1,81,8|0,0:1|0:0,0:0:0:0:
412,187,30637,6,0,B|448:174|477:216|445:271,1,121.5,10|2,0:0|0:0,0:0:0:0:
446,271,31007,1,8,0:1:0:0:
401,338,31192,2,0,B|324:338|346:267|259:275,1,162,10|8,0:0|0:0,0:0:0:0:
178,280,31748,2,0,B|190:309|190:309|168:365,1,81,8|8,0:1|0:0,0:0:0:0:
131,360,32025,1,8,0:0:0:0:
131,360,32118,6,0,P|94:376|33:320,1,121.5,10|2,0:0|0:0,0:0:0:0:
34,331,32488,1,10,0:1:0:0:
66,256,32674,2,0,L|54:172,1,81,10|0,0:0|0:0,0:0:0:0:
113,120,33044,2,0,L|124:200,1,81,10|8,0:0|0:1,0:0:0:0:
204,202,33414,1,2,0:0:0:0:
266,254,33600,6,0,B|220:225|220:225|237:81,1,162,10|8,0:0|0:1,0:0:0:0:
172,64,34155,1,8,0:0:0:0:
253,48,34340,2,0,B|220:54|193:37|193:37|149:45|149:45|122:28|86:36,1,162,8|12,0:0|0:1,0:0:0:0:
253,48,35081,5,12,0:0:0:0:
306,108,35266,2,0,P|350:73|398:70,1,81,8|8,0:0|0:1,0:0:0:0:
451,91,35637,2,0,P|478:119|490:158,1,81,12|0,0:0|0:0,0:0:0:0:
444,223,36007,2,0,B|401:229|365:250|365:250|348:208|310:187,1,162,8|8,0:0|0:1,0:0:0:0:
283,214,36470,1,8,0:1:0:0:
283,214,36562,5,12,0:1:0:0:
163,322,36933,2,0,P|115:315|78:268,1,81,10|0,0:1|0:0,0:0:0:0:
118,217,37303,2,0,B|92:229|77:265|77:265|44:248|-5:261,2,121.5,10|2|2,0:0|0:0|0:0,0:0:0:0:
126,136,38044,6,0,L|81:52,1,81,10|0,0:0|0:0,0:0:0:0:
116,35,38322,1,2,0:0:0:0:
159,24,38414,2,0,L|197:95,1,81,8|8,0:1|0:0,0:0:0:0:
246,157,38785,2,0,B|190:157|207:235|118:217,2,121.5,10|0|0,0:0|0:0|0:0,0:0:0:0:
250,239,39525,6,0,B|331:238|311:308|407:314,1,162,8|8,0:0|0:1,0:0:0:0:
392,230,40081,1,0,0:0:0:0:
392,230,40266,2,0,L|396:124,1,81,10|0,0:0|0:0,0:0:0:0:
474,164,40637,2,0,L|470:244,1,81,8|10,0:1|0:0,0:0:0:0:
501,279,40914,1,0,0:0:0:0:
501,279,41007,6,0,B|451:265|451:265|431:276|431:276|371:257,2,121.5,8|0|0,0:0|0:0|0:0,0:0:0:0:
470,360,41748,2,0,L|352:320,1,121.5,8|0,0:0|0:0,0:0:0:0:
323,347,42118,1,8,0:1:0:0:
240,368,42303,2,0,B|188:360|188:360|137:365|137:365|66:355,1,162,10|8,0:0|0:0,0:0:0:0:
15,217,43044,5,10,0:0:0:0:
15,217,43137,1,10,0:0:0:0:
15,217,43229,2,0,P|27:146|45:109,1,81,10|0,0:0|0:0,0:0:0:0:
70,132,43507,2,0,P|81:93|85:52,1,81,2|0,0:0|0:0,0:0:0:0:
122,36,43785,2,0,B|202:45|147:126|268:133,1,162,10|8,0:0|0:0,0:0:0:0:
404,116,44525,5,10,0:0:0:0:
404,116,44618,1,10,0:0:0:0:
404,116,44711,2,0,P|351:91|297:82,1,81,10|0,0:0|0:0,0:0:0:0:
315,81,44988,2,0,P|353:69|389:50,1,81,2|0,0:0|0:0,0:0:0:0:
394,40,45266,1,10,0:0:0:0:
472,24,45451,6,0,L|483:125,1,81,10|8,0:0|0:0,0:0:0:0:
485,185,45822,2,0,L|477:266,1,81,8|8,0:1|0:0,0:0:0:0:
407,224,46192,2,0,P|376:198|328:206,1,81,8|8,0:0|0:0,0:0:0:0:
299,271,46562,2,0,P|346:274|383:301,1,81,8|8,0:1|0:0,0:0:0:0:
432,347,46933,5,12,0:0:0:0:
360,372,47118,1,8,0:1:0:0:
360,372,47211,1,8,0:1:0:0:
360,372,47303,2,0,L|313:375,2,40.5,8|8|12,0:1|0:1|0:0,0:0:0:0:
326,298,47674,6,0,L|277:302,4,40.5,8|8|8|8|12,0:1|0:1|0:1|0:1|0:0,0:0:0:0:
377,233,48229,1,8,0:1:0:0:
378,225,48322,1,8,0:1:0:0:
379,217,48414,6,0,L|290:222,1,81,12|8,0:0|0:0,0:0:0:0:
252,286,48785,2,0,L|163:291,1,81,8|8,0:1|0:0,0:0:0:0:
92,272,49155,2,0,P|95:323|34:364,2,121.5,10|2|10,0:0|0:0|0:0,0:0:0:0:
44,206,49896,6,0,P|44:161|73:122,1,81,8|0,0:0|0:0,0:0:0:0:
88,54,50266,2,0,P|126:77|146:121,1,81,8|10,0:1|0:0,0:0:0:0:
213,149,50637,2,0,L|298:124,1,81,10|8,0:0|0:0,0:0:0:0:
297,206,51007,2,0,L|382:181,1,81,8|8,0:1|0:0,0:0:0:0:
400,144,51285,1,8,0:0:0:0:
400,144,51377,6,0,L|375:59,1,81,8|8,0:1|0:0,0:0:0:0:
454,42,51748,2,0,L|476:119,1,81,8|8,0:1|0:0,0:0:0:0:
467,200,52118,1,8,0:1:0:0:
508,279,52303,5,8,0:0:0:0:
508,279,52396,1,8,0:0:0:0:
508,279,52488,1,8,0:1:0:0:
446,332,52674,1,8,0:1:0:0:
383,264,54340,6,0,B|331:309|331:309|289:304|289:304|284:308|284:308|281:303|281:303|180:285,1,194.399994067383,14|8,0:0|0:0,0:0:0:0:
147,217,54896,1,10,0:0:0:0:
53,188,55081,2,0,B|111:150|149:218|139:265|96:312,1,194.399994067383,8|10,0:1|0:0,0:0:0:0:
211,290,55637,6,0,B|281:303|281:303|284:308|284:308|289:304|289:304|331:309,1,97.1999970336915,10|0,0:0|0:0,0:0:0:0:
371,373,56007,2,0,P|399:319|391:260,1,97.1999970336915,10|8,0:1|0:0,0:0:0:0:
399,186,56377,1,10,0:0:0:0:
485,230,56562,1,10,0:1:0:0:
408,169,56748,1,10,0:0:0:0:
480,103,56933,2,0,P|435:74|369:80,1,97.1999970336915,10|8,0:0|0:0,0:0:0:0:
350,96,57211,1,8,0:0:0:0:
350,96,57303,6,0,B|244:102|244:102|176:107|157:41,1,194.399994067383,14|8,0:0|0:0,0:0:0:0:
97,1,57859,1,14,0:0:0:0:
53,88,58044,2,0,B|77:156|77:156|60:206|60:206|86:279,1,194.399994067383,8|10,0:1|0:0,0:0:0:0:
43,359,58600,6,0,P|118:360|174:246,2,194.399994067383,10|10|10,0:0|0:1|0:0,0:0:0:0:
83,271,59525,1,10,0:1:0:0:
177,267,59711,1,10,0:0:0:0:
227,184,59896,2,0,L|297:184,3,48.5999985168458,8|4|4|4,0:3|0:3|0:3|0:3,0:0:0:0:
286,194,60266,5,14,0:0:0:0:
357,128,60451,2,0,P|383:208|361:259,1,97.1999970336915,2|8,0:0|0:1,0:0:0:0:
307,279,60822,2,0,B|345:234|414:256|389:331|475:313|517:260,1,194.399994067383,10|10,0:0|0:0,0:0:0:0:
508,194,61377,1,8,0:1:0:0:
482,288,61562,6,0,B|488:337|488:337|477:369|445:375,1,97.1999970336915,2|8,0:0|0:0,0:0:0:0:
360,362,61933,2,0,B|329:358|329:358|301:360|301:360|258:353,1,97.1999970336915,10|8,0:0|0:1,0:0:0:0:
216,268,62303,1,10,0:0:0:0:
126,304,62488,2,0,L|20:289,1,97.1999970336915,10|10,0:0|0:0,0:0:0:0:
43,194,62859,2,0,L|139:207,1,97.1999970336915,10|8,0:1|0:0,0:0:0:0:
216,268,63229,5,14,0:1:0:0:
255,179,63414,2,0,B|230:223|230:223|235:303,1,97.1999970336915,8|8,0:0|0:0,0:0:0:0:
327,293,63785,5,12,0:1:0:0:
332,201,63970,2,0,B|336:251|336:251|313:292,1,97.1999970336915,8|8,0:0|0:0,0:0:0:0:
244,361,64340,5,12,0:1:0:0:
340,373,64525,2,0,P|394:339|405:292,1,97.1999970336915,8|8,0:0|0:0,0:0:0:0:
490,265,64896,5,12,0:1:0:0:
439,181,65081,2,0,L|461:80,1,97.1999970336915,8|8,0:0|0:0,0:0:0:0:
378,32,65451,6,0,L|367:79,3,48.5999985168458,8|8|8|8,0:3|0:3|0:3|0:3,0:0:0:0:
357,127,65822,2,0,L|346:174,3,48.5999985168458,4|4|4|4,0:3|0:3|0:3|0:3,0:0:0:0:
297,179,66192,6,0,B|249:162|249:162|247:156|247:156|252:224|252:224|256:227|256:227|261:304,1,194.399994067383,14|8,0:0|0:0,0:0:0:0:
353,317,66748,1,14,0:0:0:0:
275,375,66933,2,0,B|218:382|174:343|174:291|174:291|174:297|174:297|167:323|146:330,1,194.399994067383,8|10,0:1|0:0,0:0:0:0:
81,259,67488,6,0,P|69:338|32:353,1,97.1999970336915,10|0,0:0|0:0,0:0:0:0:
5,264,67859,2,0,P|17:185|54:170,1,97.1999970336915,8|8,0:1|0:0,0:0:0:0:
114,139,68229,1,8,0:0:0:0:
63,55,68414,2,0,B|108:37|108:37|167:55,1,97.1999970336915,10|10,0:1|0:0,0:0:0:0:
227,115,68785,2,0,L|231:-8,1,97.1999970336915,2|8,0:0|0:0,0:0:0:0:
275,0,69062,1,8,0:0:0:0:
275,0,69155,6,0,B|352:-6|352:-6|389:20|389:20|478:9,1,194.399994067383,14|8,0:0|0:0,0:0:0:0:
508,95,69711,1,14,0:0:0:0:
412,110,69896,2,0,B|456:84|527:108|504:211|425:240,1,194.399994067383,8|10,0:1|0:0,0:0:0:0:
365,261,70451,6,0,L|250:248,1,97.1999970336915,10|0,0:0|0:0,0:0:0:0:
261,346,70822,2,0,L|357:356,1,97.1999970336915,10|8,0:1|0:0,0:0:0:0:
446,315,71192,1,10,0:0:0:0:
455,223,71377,2,0,P|488:171|522:110,1,97.1999970336915,10|10,0:1|0:0,0:0:0:0:
437,68,71748,2,0,P|425:89|412:110,3,48.5999985168458,4|4|4|4,0:3|0:3|0:3|0:3,0:0:0:0:
370,136,72118,5,14,0:0:0:0:
321,51,72303,2,0,B|274:69|274:69|218:39,1,97.1999970336915,2|8,0:0|0:1,0:0:0:0:
136,35,72674,2,0,B|185:1|226:70|182:122|182:122|147:117|104:157,1,194.399994067383,10|10,0:0|0:0,0:0:0:0:
182,218,73229,1,8,0:1:0:0:
89,246,73414,6,0,P|110:296|120:353,1,97.1999970336915,2|8,0:0|0:0,0:0:0:0:
28,373,73785,2,0,B|112:360|112:360|131:352|131:352|248:335,1,194.399994067383,10|10,0:0|0:0,0:0:0:0:
296,280,74340,1,10,0:0:0:0:
342,365,74525,1,10,0:0:0:0:
413,299,74711,2,0,B|403:268|403:268|442:197,1,97.1999970336915,10|8,0:1|0:0,0:0:0:0:
463,118,75081,6,0,L|363:94,1,97.1999970336915,14|10,0:1|0:0,0:0:0:0:
437,26,75451,1,8,0:0:0:0:
354,77,75637,6,0,L|254:101,1,97.1999970336915,14|8,0:1|0:0,0:0:0:0:
328,169,76007,1,10,0:0:0:0:
244,117,76192,6,0,L|144:93,1,97.1999970336915,12|10,0:1|0:0,0:0:0:0:
218,25,76562,1,8,0:0:0:0:
120,24,76748,6,0,P|82:60|89:138,1,97.1999970336915,14|8,0:1|0:0,0:0:0:0:
132,181,77118,1,10,0:0:0:0:
54,239,77303,6,0,P|72:260|84:306,3,48.5999985168458,8|8|8|8,0:3|0:3|0:3|0:3,0:0:0:0:
125,296,77674,2,0,P|107:317|95:363,3,48.5999985168458,4|4|4|4,0:3|0:3|0:3|0:3,0:0:0:0:
122,369,78044,5,12,0:0:0:0:
122,369,78229,1,0,0:0:0:0:
201,354,78414,2,0,B|238:350|238:350|250:343|250:343|292:339,1,81,10|8,0:1|0:0,0:0:0:0:
275,258,78785,2,0,B|304:260|304:260|316:267|316:267|353:271,1,81,10|8,0:0|0:0,0:0:0:0:
409,330,79155,1,8,0:1:0:0:
451,261,79340,6,0,L|436:163,1,81,10|8,0:0|0:0,0:0:0:0:
358,192,79711,2,0,L|343:94,1,81,10|8,0:0|0:1,0:0:0:0:
275,80,80081,1,8,0:0:0:0:
338,37,80266,2,0,P|388:49|418:89,1,81,10|8,0:0|0:0,0:0:0:0:
345,111,80637,1,10,0:1:0:0:
177,81,81007,6,0,L|80:102,2,81,8|8|10,0:0|0:0|0:1,0:0:0:0:
274,79,81562,1,8,0:0:0:0:
230,146,81748,2,0,L|238:243,1,81,10|8,0:0|0:0,0:0:0:0:
164,264,82118,1,8,0:1:0:0:
206,333,82303,6,0,B|165:346|165:346|114:328,1,81,10|8,0:0|0:0,0:0:0:0:
164,264,82674,2,0,B|128:249|128:249|87:260,1,81,10|8,0:0|0:1,0:0:0:0:
49,332,83044,1,10,0:0:0:0:
10,260,83229,1,10,0:0:0:0:
58,195,83414,1,8,0:1:0:0:
58,190,83507,1,8,0:1:0:0:
58,185,83600,2,0,L|115:167,2,40.5,8|8|8,0:1|0:1|0:1,0:0:0:0:
167,156,83970,6,0,B|213:162|245:131|245:131|241:187|288:215|288:215|318:160|289:120|289:120|333:146|384:107|384:107|348:64|295:78|295:78|327:21|309:-18|309:-18|248:14|253:57|253:57|218:7|167:13|167:13|167:65|223:90|223:90|178:99|150:140,1,972.000037078859,14|8,0:0|0:1,0:0:0:0:
96,172,87118,1,4,0:3:0:0:
