osu file format v14

[General]
AudioFilename: audio.mp3
AudioLeadIn: 0
PreviewTime: 37596
Countdown: 0
SampleSet: Soft
StackLeniency: 0.3
Mode: 0
LetterboxInBreaks: 0
WidescreenStoryboard: 0

[Editor]
Bookmarks: 1209,8709,22827,36944,51062,61650,75768,86356
DistanceSpacing: 1.9
BeatDivisor: 4
GridSize: 32
TimelineZoom: 2.3

[Metadata]
Title:My World ( TV Version )
TitleUnicode:My World(TV Version)
Artist:SPYAIR
ArtistUnicode:SPYAIR
Creator:HabiHolic
Version:pkhg's Insane
Source:機動戦士ガンダムAGE
Tags:Gundam AGE Ending2 pkhg
BeatmapID:1120706
BeatmapSetID:428735

[Difficulty]
HPDrainRate:6
CircleSize:3.8
OverallDifficulty:7
ApproachRate:8.2
SliderMultiplier:1.6
SliderTickRate:1

[Events]
//Background and Video events
0,0,"BG.jpg",0,0
Video,0,"Video.avi"
//Break Periods
//Storyboard Layer 0 (Background)
//Storyboard Layer 1 (Fail)
//Storyboard Layer 2 (Pass)
//Storyboard Layer 3 (Foreground)
//Storyboard Sound Samples

[TimingPoints]
-114,441.176470588235,4,2,1,80,1,0
7165,-100,4,2,1,80,0,0
7275,-100,4,2,1,80,0,0
7496,-100,4,2,1,80,0,0
7606,-100,4,2,1,80,0,0
8268,-90.9090909090909,4,2,1,80,0,0
8599,-100,4,2,1,80,0,0
8709,-125,4,2,1,80,0,0
36944,-100,4,2,1,80,0,1
59885,-100,4,2,1,80,0,0
61650,-83.3333333333333,4,2,1,80,0,1
86356,-83.3333333333333,4,2,1,80,0,0
88121,-83.3333333333333,4,2,1,10,0,0

[Colours]
Combo1 : 217,74,74
Combo2 : 245,252,122
Combo3 : 196,205,208

[HitObjects]
19,304,1209,6,0,P|38:304|58:309,3,40,8|2|8|4,0:0|0:0|3:0|3:0,0:0:0:0:
73,319,1650,1,4,0:0:0:0:
165,384,1871,1,0,0:0:0:0:
225,271,2091,2,0,P|263:261|303:258,1,80,8|2,0:0|0:0,0:0:0:0:
314,260,2422,1,8,0:0:0:0:
324,263,2533,1,2,0:0:0:0:
424,312,2753,1,2,0:0:0:0:
510,207,2974,2,0,P|470:203|431:194,1,80,8|0,0:0|0:0,0:0:0:0:
353,100,3415,5,2,0:0:0:0:
353,100,3635,1,2,0:0:0:0:
265,194,3856,1,8,0:0:0:0:
206,99,4077,1,2,0:0:0:0:
203,89,4188,1,8,0:0:0:0:
201,78,4297,2,0,P|204:38|213:0,1,80,2|2,0:0|0:0,0:0:0:0:
265,194,4738,2,0,P|274:232|276:272,1,80,8|0,0:0|0:0,0:0:0:0:
118,320,5180,5,2,0:0:0:0:
218,369,5400,1,0,0:0:0:0:
167,220,5621,1,8,0:0:0:0:
285,281,5841,1,2,0:0:0:0:
285,281,5952,1,8,0:0:0:0:
285,281,6062,1,2,0:0:0:0:
343,185,6283,1,2,0:0:0:0:
461,321,6503,1,8,0:0:0:0:
452,210,6724,1,0,0:0:0:0:
359,364,6944,5,4,0:0:0:0:
359,364,7275,1,4,0:0:0:0:
359,364,7606,1,4,0:0:0:0:
420,104,7827,5,4,1:2:0:0:
420,104,8268,2,0,B|380:112|380:112|332:96|332:96|292:104,1,132.00000402832,4|0,0:0|0:0,0:0:0:0:
279,113,8709,2,0,L|183:107,1,96,4|0,0:0|0:0,0:0:0:0:
167,106,9150,1,8,0:0:0:0:
76,166,9371,5,2,0:0:0:0:
69,173,9481,1,8,0:0:0:0:
63,183,9591,2,0,P|54:213|50:245,1,64,2|0,0:0|0:0,0:0:0:0:
61,257,9922,2,0,P|70:287|74:319,1,64,2|0,0:0|0:0,0:0:0:0:
69,335,10253,1,0,0:0:0:0:
175,298,10474,1,2,0:0:0:0:
175,298,10694,1,2,0:0:0:0:
337,273,10915,1,8,0:0:0:0:
265,350,11135,5,2,0:0:0:0:
262,334,11245,1,8,0:0:0:0:
260,318,11356,2,0,L|246:222,1,96,2|0,0:0|0:0,0:0:0:0:
243,206,11797,1,8,0:0:0:0:
278,103,12018,1,0,0:0:0:0:
141,172,12238,2,0,P|98:150|51:152,1,96,2|0,0:0|0:0,0:0:0:0:
39,159,12680,1,8,0:0:0:0:
109,276,12900,5,2,0:0:0:0:
118,279,13010,1,8,0:0:0:0:
129,280,13120,2,0,L|192:274,1,64,2|2,0:0|0:0,0:0:0:0:
208,279,13452,2,0,L|271:273,1,64,0|0,0:0|0:0,0:0:0:0:
287,278,13783,2,0,L|413:266,1,96,0|0,0:0|0:0,0:0:0:0:
398,266,14224,1,2,0:0:0:0:
355,383,14444,5,8,0:0:0:0:
474,341,14665,1,2,0:0:0:0:
474,341,14775,1,8,0:0:0:0:
474,341,14885,1,2,0:0:0:0:
398,266,15106,1,2,0:0:0:0:
456,186,15327,2,0,L|488:189,2,32,8|0|0,0:0|0:0|0:0,0:0:0:0:
440,185,15658,1,8,0:0:0:0:
423,183,15768,2,0,P|376:182|336:207,1,96,4|0,0:0|0:0,0:0:0:0:
329,222,16209,1,8,0:0:0:0:
353,101,16430,5,2,0:0:0:0:
344,104,16540,1,8,0:0:0:0:
333,105,16650,2,0,L|270:99,1,64,2|2,0:0|0:0,0:0:0:0:
254,104,16982,2,0,L|191:98,1,64,0|0,0:0|0:0,0:0:0:0:
173,96,17312,2,0,B|143:90|143:90|108:101|108:101|79:96,1,96,0|0,0:0|0:0,0:0:0:0:
64,90,17753,1,2,0:0:0:0:
151,184,17974,1,8,0:0:0:0:
26,212,18194,1,2,0:0:0:0:
37,201,18304,1,8,0:0:0:0:
48,190,18414,1,2,0:0:0:0:
167,84,18635,5,2,0:0:0:0:
243,223,18856,1,8,0:0:0:0:
151,184,19077,1,0,0:0:0:0:
290,108,19297,2,0,B|333:84|333:84|378:94,1,96,2|0,0:0|0:0,0:0:0:0:
394,99,19738,1,8,0:0:0:0:
353,213,19959,1,2,0:0:0:0:
350,197,20069,1,8,0:0:0:0:
348,181,20179,1,2,0:0:0:0:
276,117,20400,1,2,0:0:0:0:
443,180,20621,5,8,0:0:0:0:
394,99,20841,1,0,0:0:0:0:
257,212,21062,1,2,0:0:0:0:
276,117,21283,1,2,0:0:0:0:
358,245,21503,1,8,0:0:0:0:
268,325,21724,1,2,0:0:0:0:
268,325,21834,1,8,0:0:0:0:
268,325,21944,1,2,0:0:0:0:
383,363,22165,1,2,0:0:0:0:
476,220,22385,1,8,0:0:0:0:
501,338,22606,5,0,0:0:0:0:
287,199,22827,1,4,0:0:0:0:
287,199,23488,1,2,0:0:0:0:
295,204,23599,1,8,0:0:0:0:
303,209,23709,1,2,0:0:0:0:
348,116,23930,1,2,0:0:0:0:
395,258,24150,2,0,P|438:236|485:238,1,96,8|0,0:0|0:0,0:0:0:0:
496,244,24591,6,0,P|480:218|473:186,1,64,2|2,0:0|0:0,0:0:0:0:
482,175,24922,2,0,P|498:148|505:116,1,64,0|0,0:0|0:0,0:0:0:0:
502,107,25253,1,2,0:0:0:0:
498,98,25364,1,8,0:0:0:0:
495,89,25474,1,2,0:0:0:0:
409,38,25694,1,2,0:0:0:0:
451,193,25915,1,8,0:0:0:0:
353,140,26135,1,0,0:0:0:0:
366,357,26356,2,0,P|329:306|267:304,1,128,2|8,0:0|0:0,0:0:0:0:
185,371,27018,5,2,0:0:0:0:
185,371,27128,1,8,0:0:0:0:
185,371,27238,1,2,0:0:0:0:
84,326,27459,1,2,0:0:0:0:
215,243,27680,1,8,0:0:0:0:
114,198,27900,1,0,0:0:0:0:
254,137,28121,6,0,P|285:143|312:160,1,64,2|2,0:0|0:0,0:0:0:0:
324,171,28452,1,0,0:0:0:0:
332,185,28562,2,0,P|343:214|343:246,1,64,8|2,0:0|0:0,0:0:0:0:
338,260,28893,1,8,0:0:0:0:
330,272,29003,1,2,0:0:0:0:
244,310,29224,1,2,0:0:0:0:
218,149,29444,1,8,0:0:0:0:
312,160,29665,1,0,0:0:0:0:
162,304,29885,2,0,B|174:241|174:241|143:185,1,128,4|8,0:0|0:0,0:0:0:0:
29,266,30547,5,2,0:0:0:0:
44,263,30658,1,8,0:0:0:0:
60,260,30768,1,2,0:0:0:0:
75,257,30878,2,0,L|139:247,1,64,0|0,0:0|0:0,0:0:0:0:
152,245,31209,1,8,0:0:0:0:
262,148,31430,2,0,P|230:154|203:171,1,64,0|2,0:0|0:0,0:0:0:0:
285,306,31871,2,0,P|253:307|222:298,1,64,2|8,0:0|0:0,0:0:0:0:
327,216,32312,5,2,0:0:0:0:
343,213,32422,1,8,0:0:0:0:
358,210,32532,2,0,L|422:200,1,64,2|0,0:0|0:0,0:0:0:0:
387,365,32974,2,0,L|330:333,1,64,8|0,0:0|0:0,0:0:0:0:
510,301,33415,2,0,L|414:284,1,96,2|0,0:0|0:0,0:0:0:0:
400,283,33856,1,8,0:0:0:0:
273,260,34077,5,2,0:0:0:0:
288,262,34187,1,8,0:0:0:0:
305,266,34297,1,2,0:0:0:0:
400,283,34518,1,2,0:0:0:0:
302,172,34738,2,0,P|255:167|213:189,1,96,8|0,0:0|0:0,0:0:0:0:
204,214,35180,6,0,B|267:220|267:220|320:184,1,128,4|8,0:0|0:0,0:0:0:0:
239,95,35841,1,0,0:0:0:0:
283,270,36062,1,2,0:0:0:0:
181,145,36283,1,2,0:0:0:0:
193,120,36393,1,2,0:0:0:0:
214,104,36503,1,8,0:0:0:0:
239,95,36613,1,8,0:0:0:0:
266,92,36724,1,8,0:0:0:0:
290,98,36834,1,8,0:0:0:0:
313,113,36944,2,0,P|358:149|417:143,1,120,4|0,0:0|0:0,0:0:0:0:
429,134,37385,1,8,0:0:0:0:
481,247,37606,5,2,0:0:0:0:
479,262,37716,1,8,0:0:0:0:
475,279,37826,1,2,0:0:0:0:
376,227,38047,1,2,0:0:0:0:
510,168,38268,1,8,0:0:0:0:
376,227,38488,2,0,P|360:263|357:303,1,80,0|2,0:0|0:0,0:0:0:0:
252,384,38930,2,0,P|248:344|233:307,1,80,0|8,0:0|0:0,0:0:0:0:
134,245,39371,5,2,0:0:0:0:
134,245,39481,1,8,0:0:0:0:
134,245,39591,1,2,0:0:0:0:
63,321,39812,1,2,0:0:0:0:
50,182,40033,1,8,0:0:0:0:
134,245,40253,1,0,0:0:0:0:
228,121,40474,2,0,B|264:113|264:113|308:128|308:128|344:121,1,120,4|0,0:0|0:0,0:0:0:0:
356,117,40915,1,8,0:0:0:0:
259,253,41135,5,2,0:0:0:0:
256,238,41245,1,8,0:0:0:0:
252,221,41355,1,2,0:0:0:0:
228,121,41577,1,2,0:0:0:0:
108,200,41797,1,8,0:0:0:0:
14,91,42018,2,0,P|51:103|91:103,1,80,0|2,0:0|0:0,0:0:0:0:
181,42,42459,5,0,0:0:0:0:
317,92,42680,2,0,L|399:84,1,80,8|2,0:0|0:0,0:0:0:0:
414,82,43010,1,8,0:0:0:0:
432,80,43121,1,2,0:0:0:0:
369,176,43341,1,2,0:0:0:0:
510,279,43562,2,0,L|428:271,1,80,8|8,0:0|3:0,0:0:0:0:
413,269,43892,1,0,0:0:0:0:
395,267,44003,2,0,L|275:255,1,120,4|0,0:0|0:0,0:0:0:0:
257,252,44444,1,8,0:0:0:0:
115,342,44665,5,2,0:0:0:0:
130,339,44775,1,8,0:0:0:0:
147,335,44885,1,2,0:0:0:0:
37,291,45106,1,2,0:0:0:0:
180,247,45327,1,8,0:0:0:0:
77,151,45547,6,0,L|98:229,1,80,0|2,0:0|0:0,0:0:0:0:
226,181,45988,2,0,L|180:247,1,80,0|8,0:0|0:0,0:0:0:0:
180,24,46430,1,2,0:0:0:0:
176,39,46540,1,8,0:0:0:0:
173,55,46650,2,0,L|158:133,1,80,2|2,0:0|0:0,0:0:0:0:
123,309,47091,1,8,0:0:0:0:
140,221,47312,5,0,0:0:0:0:
81,384,47533,2,0,P|128:352|187:363,1,120,4|0,0:0|0:0,0:0:0:0:
198,373,47974,1,8,0:0:0:0:
336,331,48194,1,2,0:0:0:0:
321,328,48304,1,8,0:0:0:0:
304,324,48414,1,2,0:0:0:0:
211,280,48635,1,2,0:0:0:0:
347,231,48856,1,8,0:0:0:0:
254,187,49077,5,0,0:0:0:0:
323,61,49297,2,0,P|371:27|429:34,1,120,2|0,0:0|0:0,0:0:0:0:
439,43,49738,1,8,0:0:0:0:
471,170,49959,1,2,0:0:0:0:
475,155,50069,1,8,0:0:0:0:
480,138,50179,1,2,0:0:0:0:
502,266,50400,1,2,0:0:0:0:
372,188,50621,1,8,0:0:0:0:
345,177,50731,1,2,0:0:0:0:
315,178,50841,1,2,0:0:0:0:
288,191,50951,1,2,0:0:0:0:
269,213,51062,2,0,B|232:220|232:220|188:205|188:205|152:213,1,120,4|0,0:0|0:0,0:0:0:0:
138,217,51503,1,8,0:0:0:0:
24,87,51724,6,0,P|72:121|130:114,1,120,2|0,0:0|0:0,0:0:0:0:
140,105,52165,1,2,0:0:0:0:
52,223,52385,1,8,0:0:0:0:
225,213,52606,2,0,L|146:199,1,80,0|2,0:0|0:0,0:0:0:0:
52,223,53047,1,0,0:0:0:0:
140,105,53268,1,8,0:0:0:0:
225,213,53488,1,2,0:0:0:0:
229,228,53598,1,8,0:0:0:0:
232,244,53709,2,0,P|229:283|213:320,1,80,2|2,0:0|0:0,0:0:0:0:
351,384,54150,2,0,P|370:349|400:323,1,80,8|0,0:0|0:0,0:0:0:0:
504,214,54591,6,0,P|467:230|427:232,1,80,6|0,0:0|0:0,0:0:0:0:
416,226,54922,2,0,P|379:209|339:207,1,80,0|0,0:0|0:0,0:0:0:0:
329,211,55253,1,2,0:0:0:0:
318,217,55363,1,8,0:0:0:0:
307,223,55474,2,0,P|248:230|200:196,1,120,2|0,0:0|0:0,0:0:0:0:
198,184,55915,1,8,0:0:0:0:
278,128,56135,1,0,0:0:0:0:
127,126,56356,2,0,P|110:162|108:202,1,80,2|0,0:0|0:0,0:0:0:0:
114,216,56687,2,0,P|111:255|95:292,1,80,0|0,0:0|0:0,0:0:0:0:
85,300,57018,5,2,0:0:0:0:
190,366,57238,2,0,P|226:349|266:347,1,80,2|0,0:0|0:0,0:0:0:0:
413,306,57680,2,0,P|373:303|336:287,1,80,8|0,0:0|0:0,0:0:0:0:
326,276,58010,1,0,0:0:0:0:
317,262,58121,2,0,P|301:225|298:185,1,80,4|0,0:0|0:0,0:0:0:0:
359,43,58562,1,8,0:0:0:0:
482,119,58783,5,2,0:0:0:0:
464,121,58894,1,8,0:0:0:0:
446,123,59004,2,0,L|366:130,1,80,2|2,0:0|0:0,0:0:0:0:
201,88,59444,2,0,L|281:96,1,80,8|0,0:0|0:0,0:0:0:0:
421,224,59885,2,0,P|434:279|404:330,1,120,4|0,0:0|0:0,0:0:0:0:
392,339,60326,1,8,0:0:0:0:
302,259,60547,1,0,0:0:0:0:
183,366,60768,2,0,P|164:357|145:353,1,40,8|0,0:0|0:0,0:0:0:0:
117,354,60988,5,2,0:0:0:0:
92,342,61098,1,2,0:0:0:0:
76,321,61208,1,8,0:0:0:0:
67,296,61318,1,8,0:0:0:0:
64,269,61429,1,8,0:0:0:0:
70,245,61539,1,8,0:0:0:0:
85,222,61650,2,0,P|128:167|113:98,1,143.999995605469,4|0,0:0|0:0,0:0:0:0:
101,88,62091,1,8,0:0:0:0:
209,200,62312,6,0,P|264:157|333:172,1,143.999995605469,2|0,0:0|0:0,0:0:0:0:
343,184,62754,1,2,0:0:0:0:
403,54,62974,1,8,0:0:0:0:
510,119,63194,2,0,P|462:121|419:142,1,95.9999970703126,0|2,0:0|0:0,0:0:0:0:
464,310,63635,2,0,P|427:279|382:264,1,95.9999970703126,2|8,0:0|0:0,0:0:0:0:
256,326,64077,5,2,0:0:0:0:
256,326,64187,1,8,0:0:0:0:
256,326,64297,1,0,0:0:0:0:
282,213,64518,1,2,0:0:0:0:
419,141,64738,1,8,0:0:0:0:
382,264,64959,1,0,0:0:0:0:
319,90,65180,2,0,L|175:75,1,143.999995605469,4|0,0:0|0:0,0:0:0:0:
157,72,65621,1,8,0:0:0:0:
37,173,65841,5,2,0:0:0:0:
52,170,65951,1,8,0:0:0:0:
69,166,66061,1,2,0:0:0:0:
187,206,66283,1,2,0:0:0:0:
157,72,66503,1,8,0:0:0:0:
317,104,66724,6,0,L|224:127,1,95.9999970703126,0|2,0:0|0:0,0:0:0:0:
387,238,67165,2,0,L|294:215,1,95.9999970703126,0|8,0:0|0:0,0:0:0:0:
195,350,67606,1,2,0:0:0:0:
206,340,67716,1,8,0:0:0:0:
220,330,67827,2,0,P|264:313|312:312,1,95.9999970703126,2|2,0:0|0:0,0:0:0:0:
483,368,68268,1,8,0:0:0:0:
408,298,68488,1,8,3:0:0:0:
510,158,68709,2,0,B|452:194|452:194|378:179,1,143.999995605469,4|0,0:0|0:0,0:0:0:0:
363,176,69150,1,8,0:0:0:0:
187,206,69371,5,2,0:0:0:0:
202,209,69481,1,8,0:0:0:0:
219,213,69591,1,2,0:0:0:0:
271,110,69812,1,2,0:0:0:0:
311,279,70033,1,8,0:0:0:0:
363,176,70253,2,0,P|403:150|450:142,1,95.9999970703126,0|2,0:0|0:0,0:0:0:0:
311,279,70694,2,0,P|357:289|396:317,1,95.9999970703126,2|8,0:0|0:0,0:0:0:0:
230,327,71135,1,2,0:0:0:0:
230,327,71246,1,8,0:0:0:0:
230,327,71356,1,2,0:0:0:0:
232,225,71577,1,2,0:0:0:0:
308,377,71797,1,8,0:0:0:0:
365,255,72018,5,0,0:0:0:0:
199,337,72238,2,0,P|144:294|75:309,1,143.999995605469,6|0,0:0|0:0,0:0:0:0:
65,321,72680,1,8,0:0:0:0:
0,185,72900,1,2,0:0:0:0:
13,192,73010,1,8,0:0:0:0:
27,199,73121,2,0,P|72:212|120:210,1,95.9999970703126,2|2,0:0|0:0,0:0:0:0:
264,120,73562,1,8,0:0:0:0:
228,30,73783,5,2,0:0:0:0:
358,121,74003,2,0,P|354:144|344:166,3,47.9999985351563,12|2|2|2,0:0|0:0|0:0|0:0,0:0:0:0:
323,189,74444,2,0,P|304:204|282:214,3,47.9999985351563,2|2|8|8,0:0|0:0|0:0|0:0,0:0:0:0:
259,213,74885,6,0,P|237:202|214:197,1,47.9999985351563,6|2,0:0|0:0,0:0:0:0:
133,204,75106,1,8,0:0:0:0:
137,170,75216,1,8,0:0:0:0:
150,140,75326,2,0,P|169:126|185:108,1,47.9999985351563,14|2,0:0|0:0,0:0:0:0:
221,36,75547,1,8,0:0:0:0:
249,54,75657,1,8,0:0:0:0:
268,82,75768,2,0,P|318:130|388:122,1,143.999995605469,4|0,0:0|0:0,0:0:0:0:
397,111,76210,1,8,0:0:0:0:
296,226,76430,5,2,0:0:0:0:
296,226,76540,1,8,0:0:0:0:
296,226,76650,1,2,0:0:0:0:
394,287,76871,1,2,0:0:0:0:
230,322,77091,1,8,0:0:0:0:
169,161,77312,2,0,L|157:266,1,95.9999970703126,0|2,0:0|0:0,0:0:0:0:
97,95,77753,5,0,0:0:0:0:
74,306,77974,1,8,0:0:0:0:
89,180,78194,1,2,0:0:0:0:
87,200,78304,1,8,0:0:0:0:
84,219,78414,1,2,0:0:0:0:
220,216,78635,1,2,0:0:0:0:
333,356,78856,1,8,0:0:0:0:
240,317,79077,5,0,0:0:0:0:
390,197,79297,2,0,P|438:199|481:220,1,95.9999970703126,6|0,0:0|0:0,0:0:0:0:
489,236,79628,2,0,P|499:282|490:329,1,95.9999970703126,0|0,0:0|0:0,0:0:0:0:
484,343,79959,1,2,0:0:0:0:
470,349,80069,1,8,0:0:0:0:
454,355,80180,6,0,P|407:360|360:348,1,95.9999970703126,2|2,0:0|0:0,0:0:0:0:
346,340,80510,1,0,0:0:0:0:
334,329,80620,1,8,0:0:0:0:
261,226,80841,1,0,0:0:0:0:
103,332,81062,2,0,L|198:322,1,95.9999970703126,2|2,0:0|0:0,0:0:0:0:
217,319,81392,1,0,0:0:0:0:
235,317,81503,1,8,0:0:0:0:
157,183,81724,5,2,0:0:0:0:
159,168,81834,1,8,0:0:0:0:
159,151,81945,2,0,P|149:104|123:64,1,95.9999970703126,2|0,0:0|0:0,0:0:0:0:
261,226,82385,2,0,P|270:179|296:139,1,95.9999970703126,8|0,0:0|0:0,0:0:0:0:
152,325,82827,2,0,P|110:269|39:265,1,143.999995605469,4|0,0:0|0:0,0:0:0:0:
26,274,83269,1,8,0:0:0:0:
137,182,83488,5,2,0:0:0:0:
137,182,83599,1,8,0:0:0:0:
137,182,83709,1,2,0:0:0:0:
215,263,83930,1,2,0:0:0:0:
312,126,84150,2,0,L|327:240,1,95.9999970703126,8|0,0:0|0:0,0:0:0:0:
419,0,84591,2,0,L|404:144,1,143.999995605469,6|0,0:0|0:0,0:0:0:0:
401,162,85032,1,8,0:0:0:0:
289,205,85253,1,2,0:0:0:0:
289,205,85363,1,8,0:0:0:0:
289,205,85474,1,2,0:0:0:0:
369,295,85694,1,2,0:0:0:0:
210,236,85915,5,8,0:0:0:0:
203,189,86026,1,2,0:0:0:0:
224,147,86136,1,2,0:0:0:0:
265,123,86246,1,2,0:0:0:0:
312,126,86356,1,4,0:0:0:0:
256,192,86466,12,0,88121,0:0:0:0:
