osu file format v14

[General]
AudioFilename: audio.mp3
AudioLeadIn: 0
PreviewTime: 37596
Countdown: 0
SampleSet: Soft
StackLeniency: 0.7
Mode: 0
LetterboxInBreaks: 0
WidescreenStoryboard: 1

[Editor]
DistanceSpacing: 1.1
BeatDivisor: 4
GridSize: 4
TimelineZoom: 1

[Metadata]
Title:My World ( TV Version )
TitleUnicode:My World(TV Version)
Artist:SPYAIR
ArtistUnicode:SPYAIR
Creator:HabiHolic
Version:Normal
Source:機動戦士ガンダムAGE
Tags:Gundam AGE Ending2 pkhg
BeatmapID:929087
BeatmapSetID:428735

[Difficulty]
HPDrainRate:3
CircleSize:3
OverallDifficulty:3
ApproachRate:4.5
SliderMultiplier:1.1
SliderTickRate:1

[Events]
//Background and Video events
0,0,"BG.jpg",0,0
Video,0,"Video.avi"
//Break Periods
//Storyboard Layer 0 (Background)
//Storyboard Layer 1 (Fail)
//Storyboard Layer 2 (Pass)
//Storyboard Layer 3 (Foreground)
//Storyboard Sound Samples

[TimingPoints]
-114,441.176470588235,4,2,1,80,1,0
36944,-100,4,2,1,80,0,1
59885,-100,4,2,1,80,0,0
61650,-100,4,2,1,80,0,1
86356,-100,4,2,1,80,0,0
88121,-100,4,2,1,10,0,0

[Colours]
Combo1 : 95,203,103
Combo2 : 128,128,192
Combo3 : 0,128,192
Combo4 : 128,128,255

[HitObjects]
48,64,1209,6,0,L|56:124,1,55,8|8,0:0|3:0,0:0:0:0:
68,180,1650,2,0,P|124:188|172:160,1,110,4|8,0:0|0:0,0:0:0:0:
212,120,2312,1,2,0:0:0:0:
212,120,2533,2,0,L|200:232,1,110,2|8,0:0|0:0,0:0:0:0:
296,304,3415,6,0,L|356:296,2,55,2|2|8,0:0|0:0|0:0,0:0:0:0:
184,352,4297,2,0,L|64:340,1,110,2|8,0:0|0:0,0:0:0:0:
28,300,4959,1,0,0:0:0:0:
28,300,5180,6,0,P|16:246|25:192,1,110,2|8,0:0|0:0,0:0:0:0:
140,156,6062,2,0,L|200:168,2,55,2|2|8,0:0|0:0|0:0,0:0:0:0:
84,48,6944,6,0,L|0:60,2,82.5,4|4|4,0:0|0:0|0:0,0:0:0:0:
132,24,7827,1,4,0:0:0:0:
232,92,8268,1,4,0:0:0:0:
336,28,8709,6,0,P|392:28|436:64,1,110,4|8,0:0|0:0,0:0:0:0:
472,100,9371,1,2,0:0:0:0:
472,100,9591,2,0,L|464:216,1,110,2|8,0:0|0:0,0:0:0:0:
388,304,10474,6,0,L|328:300,1,55,2|2,0:0|0:0,0:0:0:0:
280,328,10915,2,0,L|220:324,1,55,8|2,0:0|0:0,0:0:0:0:
168,356,11356,2,0,L|160:232,1,110,2|8,0:0|0:0,0:0:0:0:
232,148,12238,6,0,P|288:136|336:164,1,110,2|8,0:0|0:0,0:0:0:0:
368,212,12900,1,2,0:0:0:0:
368,212,13121,2,0,L|380:96,1,110,2|8,0:0|0:0,0:0:0:0:
276,40,14003,6,0,P|220:32|172:64,1,110,2|8,0:0|0:0,0:0:0:0:
144,104,14665,2,0,L|156:216,1,110,2|2,0:0|0:0,0:0:0:0:
168,276,15327,2,0,L|112:268,1,55,8|2,0:0|0:0,0:0:0:0:
64,232,15768,6,0,L|80:348,2,110,4|8|2,0:0|0:0|0:0,0:0:0:0:
160,156,17091,2,0,L|220:164,1,55,8|0,0:0|0:0,0:0:0:0:
260,204,17533,6,0,P|316:212|368:188,1,110,2|8,0:0|0:0,0:0:0:0:
392,140,18194,2,0,L|408:252,1,110,2|2,0:0|0:0,0:0:0:0:
440,304,18856,1,8,0:0:0:0:
328,351,19297,6,0,P|275:364|227:340,1,110,2|8,0:0|0:0,0:0:0:0:
188,296,19959,1,2,0:0:0:0:
188,296,20180,2,0,L|192:180,1,110,2|8,0:0|0:0,0:0:0:0:
271,96,21062,6,0,P|325:87|369:117,1,110,2|8,0:0|0:0,0:0:0:0:
416,160,21724,2,0,L|432:40,2,110,2|2|0,0:0|0:0|0:0,0:0:0:0:
440,216,22827,5,4,0:0:0:0:
360,308,23268,2,0,L|288:296,1,55,8|2,0:0|0:0,0:0:0:0:
260,260,23709,2,0,P|207:248|160:275,1,110,2|8,0:0|0:0,0:0:0:0:
48,320,24591,6,0,L|32:208,1,110,2|8,0:0|0:0,0:0:0:0:
108,116,25474,2,0,L|168:128,1,55,2|2,0:0|0:0,0:0:0:0:
212,168,25915,2,0,L|276:160,1,55,8|0,0:0|0:0,0:0:0:0:
320,120,26356,6,0,P|312:184|328:232,1,110,2|8,0:0|0:0,0:0:0:0:
412,312,27238,2,0,L|468:304,2,55,2|2|8,0:0|0:0|0:0,0:0:0:0:
296,352,28121,6,0,L|176:340,1,110,2|8,0:0|0:0,0:0:0:0:
132,360,28783,2,0,P|144:304|132:248,1,110,2|2,0:0|0:0,0:0:0:0:
104,212,29444,1,8,0:0:0:0:
204,140,29885,6,0,L|316:148,1,110,4|8,0:0|0:0,0:0:0:0:
420,208,30768,2,0,P|436:152|424:100,1,110,2|8,0:0|0:0,0:0:0:0:
388,64,31430,1,0,0:0:0:0:
388,64,31650,6,0,L|276:76,1,110,2|8,0:0|0:0,0:0:0:0:
224,44,32312,1,2,0:0:0:0:
224,44,32533,2,0,P|240:92|224:152,1,110,2|8,0:0|0:0,0:0:0:0:
132,224,33415,6,0,L|12:212,2,110,2|8|2,0:0|0:0|0:0,0:0:0:0:
216,308,34738,1,8,0:0:0:0:
316,236,35180,6,0,P|328:180|316:128,1,110,4|8,0:0|0:0,0:0:0:0:
280,80,35841,2,0,L|168:92,1,110,2|2,0:0|0:0,0:0:0:0:
128,136,36503,2,0,L|68:128,1,55,8|2,0:0|0:0,0:0:0:0:
24,96,36944,6,0,P|36:152|20:212,1,110,4|8,0:0|0:0,0:0:0:0:
48,260,37606,1,2,0:0:0:0:
48,260,37827,2,0,L|164:252,1,110,2|8,0:0|0:0,0:0:0:0:
263,195,38709,6,0,P|276:249|266:303,2,110,2|8|2,0:0|0:0|0:0,0:0:0:0:
172,116,40033,1,8,0:0:0:0:
288,68,40474,6,0,L|404:76,1,110,4|8,0:0|0:0,0:0:0:0:
444,36,41135,1,2,0:0:0:0:
444,36,41356,2,0,P|456:92|440:144,1,110,2|8,0:0|0:0,0:0:0:0:
348,208,42238,6,0,L|224:200,1,110,2|8,0:0|0:0,0:0:0:0:
144,124,43121,2,0,L|84:132,2,55,2|2|8,0:0|0:0|0:0,0:0:0:0:
244,56,44003,6,0,L|353:63,1,110,4|8,0:0|0:0,0:0:0:0:
472,28,44885,2,0,L|480:88,1,55,2|2,0:0|0:0,0:0:0:0:
432,124,45327,2,0,L|440:184,1,55,8|0,0:0|0:0,0:0:0:0:
484,228,45768,6,0,P|428:224|384:256,1,110,2|8,0:0|0:0,0:0:0:0:
352,304,46430,2,0,L|228:292,1,110,2|2,0:0|0:0,0:0:0:0:
196,252,47091,1,8,0:0:0:0:
308,204,47533,6,0,P|316:152|304:92,1,110,4|8,0:0|0:0,0:0:0:0:
272,48,48194,1,2,0:0:0:0:
272,48,48415,2,0,L|396:44,1,110,2|8,0:0|0:0,0:0:0:0:
480,116,49297,6,0,P|492:172|484:224,1,110,2|8,0:0|0:0,0:0:0:0:
400,304,50180,2,0,L|284:296,1,110,2|8,0:0|0:0,0:0:0:0:
244,336,50841,1,2,0:0:0:0:
244,336,51062,6,0,L|124:328,1,110,4|8,0:0|0:0,0:0:0:0:
32,260,51944,2,0,L|24:200,1,55,2|2,0:0|0:0,0:0:0:0:
76,184,52385,2,0,L|68:124,1,55,8|0,0:0|0:0,0:0:0:0:
19,87,52827,6,0,P|73:95|122:72,1,110,2|8,0:0|0:0,0:0:0:0:
160,24,53488,2,0,L|172:140,1,110,2|2,0:0|0:0,0:0:0:0:
216,176,54150,1,8,0:0:0:0:
308,100,54591,6,0,P|368:96|408:128,1,110,4|8,0:0|0:0,0:0:0:0:
452,164,55253,1,2,0:0:0:0:
452,164,55474,2,0,L|464:68,2,82.5,2|2|0,0:0|0:0|0:0,0:0:0:0:
444,224,56356,5,2,0:0:0:0:
328,260,56797,1,8,0:0:0:0:
232,184,57238,2,0,L|112:176,1,110,2|8,0:0|0:0,0:0:0:0:
48,276,58121,6,0,L|157:283,1,110,4|8,0:0|0:0,0:0:0:0:
200,316,58783,1,2,0:0:0:0:
199,316,59003,2,0,P|212:262|202:208,1,110,2|8,0:0|0:0,0:0:0:0:
112,128,59885,6,0,L|-4:136,2,110,4|8|8,0:0|0:0|0:0,0:0:0:0:
208,56,61209,2,0,L|264:64,1,55,8|2,0:0|0:0,0:0:0:0:
316,92,61650,6,0,L|432:80,1,110,4|8,0:0|0:0,0:0:0:0:
504,172,62533,2,0,L|500:228,1,55,2|2,0:0|0:0,0:0:0:0:
444,232,62974,2,0,L|440:288,1,55,8|0,0:0|0:0,0:0:0:0:
468,340,63415,6,0,P|415:324|362:333,1,110,2|8,0:0|0:0,0:0:0:0:
312,368,64077,1,2,0:0:0:0:
312,368,64297,2,0,L|296:236,1,110,0|8,0:0|0:0,0:0:0:0:
360,156,65180,6,0,P|416:148|464:180,2,110,4|8|2,0:0|0:0|0:0,0:0:0:0:
256,216,66503,1,8,0:0:0:0:
152,156,66944,6,0,P|96:148|48:180,1,110,2|8,0:0|0:0,0:0:0:0:
12,220,67606,2,0,L|0:96,1,110,2|2,0:0|0:0,0:0:0:0:
36,60,68268,1,8,0:0:0:0:
128,140,68709,6,0,P|184:148|236:124,1,110,4|8,0:0|0:0,0:0:0:0:
328,48,69591,2,0,L|388:56,2,55,2|2|8,0:0|0:0|0:0,0:0:0:0:
304,168,70474,6,0,L|420:180,1,110,2|8,0:0|0:0,0:0:0:0:
480,272,71356,2,0,L|468:332,2,55,2|2|8,0:0|0:0|0:0,0:0:0:0:
376,208,72238,6,0,L|352:328,1,110,2|8,0:0|0:0,0:0:0:0:
312,348,72900,1,2,0:0:0:0:
312,348,73121,2,0,P|256:360|212:332,1,110,2|8,0:0|0:0,0:0:0:0:
132,248,74003,6,0,L|12:256,2,110,8|2|2,0:0|0:0|0:0,0:0:0:0:
216,160,75327,1,8,0:0:0:0:
332,212,75768,6,0,P|344:152|328:96,1,110,4|8,0:0|0:0,0:0:0:0:
304,52,76430,1,2,0:0:0:0:
304,52,76650,2,0,L|420:64,1,110,2|8,0:0|0:0,0:0:0:0:
484,160,77533,6,0,P|496:216|484:268,1,110,2|8,0:0|0:0,0:0:0:0:
436,304,78194,2,0,L|320:292,1,110,2|2,0:0|0:0,0:0:0:0:
284,332,78856,1,8,0:0:0:0:
192,264,79297,6,0,P|180:212|188:152,1,110,2|8,0:0|0:0,0:0:0:0:
292,88,80180,2,0,L|384:96,2,82.5,2|2|2,0:0|0:0|0:0,0:0:0:0:
248,44,81062,6,0,L|136:48,1,110,2|8,0:0|0:0,0:0:0:0:
92,20,81724,1,2,0:0:0:0:
92,20,81944,2,0,P|88:72|104:128,1,110,2|8,0:0|0:0,0:0:0:0:
204,196,82827,6,0,L|316:188,1,110,4|8,0:0|0:0,0:0:0:0:
368,212,83488,1,2,0:0:0:0:
368,212,83709,2,0,P|376:152|364:100,1,110,2|8,0:0|0:0,0:0:0:0:
260,44,84591,6,0,L|144:52,2,110,2|8|2,0:0|0:0|0:0,0:0:0:0:
368,104,85915,1,8,0:0:0:0:
256,192,86356,12,0,88121,0:0:0:0:
