osu file format v14

[General]
AudioFilename: audio.mp3
AudioLeadIn: 0
PreviewTime: 37596
Countdown: 0
SampleSet: Soft
StackLeniency: 0.4
Mode: 0
LetterboxInBreaks: 0
WidescreenStoryboard: 1

[Editor]
Bookmarks: 1209,8709,22827,36944,51062,61650,75768,86356
DistanceSpacing: 1.9
BeatDivisor: 4
GridSize: 4
TimelineZoom: 1.4

[Metadata]
Title:My World ( TV Version )
TitleUnicode:My World(TV Version)
Artist:SPYAIR
ArtistUnicode:SPYAIR
Creator:HabiHolic
Version:Insane
Source:機動戦士ガンダムAGE
Tags:Gundam AGE Ending2 pkhg
BeatmapID:1439090
BeatmapSetID:428735

[Difficulty]
HPDrainRate:7
CircleSize:4
OverallDifficulty:7
ApproachRate:9
SliderMultiplier:1.8
SliderTickRate:1

[Events]
//Background and Video events
0,0,"BG.jpg",0,0
Video,0,"Video.avi"
//Break Periods
//Storyboard Layer 0 (Background)
//Storyboard Layer 1 (Fail)
//Storyboard Layer 2 (Pass)
//Storyboard Layer 3 (Foreground)
//Storyboard Sound Samples

[TimingPoints]
-114,441.176470588235,4,2,1,80,1,0
7165,-100,4,2,1,80,0,0
7275,-100,4,2,1,80,0,0
7496,-100,4,2,1,80,0,0
7606,-100,4,2,1,80,0,0
8599,-100,4,2,1,80,0,0
8709,-100,4,2,1,80,0,0
36944,-100,4,2,1,80,0,1
59885,-100,4,2,1,80,0,0
61650,-100,4,2,1,80,0,1
86356,-100,4,2,1,80,0,0
88121,-100,4,2,1,10,0,0

[Colours]
Combo1 : 95,203,103
Combo2 : 128,128,192
Combo3 : 0,128,192
Combo4 : 128,128,255

[HitObjects]
40,56,1209,6,0,L|84:48,1,45,8|2,0:0|0:0,0:0:0:0:
220,112,1430,2,0,L|176:104,1,45,8|4,3:0|3:0,0:0:0:0:
84,164,1650,6,0,L|96:256,1,90,4|0,0:0|0:0,0:0:0:0:
232,328,2091,1,8,0:0:0:0:
40,320,2312,1,2,0:0:0:0:
40,320,2422,1,8,0:0:0:0:
40,320,2533,1,2,0:0:0:0:
196,224,2753,1,2,0:0:0:0:
120,364,2974,1,8,0:0:0:0:
136,152,3194,1,0,0:0:0:0:
320,264,3415,5,2,0:0:0:0:
192,72,3635,1,2,0:0:0:0:
432,152,3856,2,0,L|336:140,1,90,8|2,0:0|0:0,0:0:0:0:
324,152,4187,1,8,0:0:0:0:
324,152,4297,1,2,0:0:0:0:
248,32,4518,1,2,0:0:0:0:
192,244,4738,1,8,0:0:0:0:
120,136,4959,1,0,0:0:0:0:
32,340,5180,6,0,L|132:332,1,90,2|0,0:0|0:0,0:0:0:0:
360,172,5621,2,0,L|260:180,1,90,8|2,0:0|0:0,0:0:0:0:
270,179,5952,1,8,0:0:0:0:
270,179,6062,1,2,0:0:0:0:
168,112,6283,1,2,0:0:0:0:
88,260,6503,1,8,0:0:0:0:
132,32,6724,1,0,0:0:0:0:
88,260,6944,6,0,L|180:280,1,90,4|0,0:0|0:0,0:0:0:0:
240,340,7275,2,0,L|336:324,1,90,4|0,0:0|0:0,0:0:0:0:
392,272,7606,1,4,0:0:0:0:
360,56,7827,1,4,0:0:0:0:
360,55,8268,2,0,P|296:76|261:131,1,135,4|0,0:0|0:0,0:0:0:0:
212,200,8709,6,0,L|32:176,1,180,4|8,0:0|0:0,0:0:0:0:
68,272,9371,1,2,0:0:0:0:
68,272,9481,1,8,0:0:0:0:
68,272,9591,1,2,0:0:0:0:
188,60,9812,1,0,0:0:0:0:
140,344,10033,2,0,L|232:336,1,90,8|0,0:0|0:0,0:0:0:0:
344,168,10474,5,2,0:0:0:0:
232,336,10694,1,2,0:0:0:0:
240,108,10915,2,0,L|252:204,1,90,8|2,0:0|0:0,0:0:0:0:
251,197,11246,1,8,0:0:0:0:
251,197,11356,1,2,0:0:0:0:
412,272,11577,1,2,0:0:0:0:
140,344,11797,2,0,L|48:328,1,90,8|0,0:0|0:0,0:0:0:0:
8,128,12238,6,0,B|88:160|56:224|144:244,1,180,2|8,0:0|0:0,0:0:0:0:
252,112,12900,1,2,0:0:0:0:
252,112,13010,1,8,0:0:0:0:
251,111,13121,2,0,P|207:116|172:143,1,90,2|2,0:0|0:0,0:0:0:0:
228,304,13562,2,0,P|246:263|245:218,1,90,8|0,0:0|0:0,0:0:0:0:
200,40,14003,5,2,0:0:0:0:
348,196,14224,1,2,0:0:0:0:
120,224,14444,1,8,0:0:0:0:
200,40,14665,6,0,L|248:60,1,45,2|8,0:0|0:0,0:0:0:0:
304,127,14885,2,0,P|328:90|333:46,1,90,2|2,0:0|0:0,0:0:0:0:
208,156,15327,1,8,0:0:0:0:
316,284,15547,1,0,0:0:0:0:
316,284,15658,1,8,0:0:0:0:
316,283,15768,6,0,P|402:272|463:334,1,180,4|8,0:0|0:0,0:0:0:0:
240,356,16430,1,2,0:0:0:0:
240,356,16540,1,8,0:0:0:0:
240,356,16650,2,0,P|216:320|212:272,1,90,2|2,0:0|0:0,0:0:0:0:
248,104,17091,2,0,P|272:140|276:188,1,90,8|0,0:0|0:0,0:0:0:0:
112,228,17533,5,2,0:0:0:0:
188,44,17753,1,2,0:0:0:0:
120,260,17974,1,8,0:0:0:0:
24,160,18194,1,2,0:0:0:0:
24,160,18305,1,8,0:0:0:0:
24,160,18415,2,0,L|8:64,1,90,2|2,0:0|0:0,0:0:0:0:
172,16,18856,1,8,0:0:0:0:
120,260,19077,1,0,0:0:0:0:
248,76,19297,6,0,B|292:72|332:96|332:96|364:56|412:44,1,180,2|8,0:0|0:0,0:0:0:0:
504,180,19959,1,2,0:0:0:0:
504,180,20069,1,8,0:0:0:0:
504,180,20180,2,0,P|460:180|420:152,1,90,2|2,0:0|0:0,0:0:0:0:
407,45,20621,1,8,0:0:0:0:
364,260,20841,1,0,0:0:0:0:
192,200,21062,6,0,L|56:188,1,135,2|0,0:0|0:0,0:0:0:0:
24,212,21503,1,8,0:0:0:0:
160,120,21724,1,2,0:0:0:0:
160,120,21834,1,8,0:0:0:0:
160,120,21944,1,2,0:0:0:0:
92,284,22165,1,2,0:0:0:0:
92,40,22385,2,0,L|192:20,1,90,8|0,0:0|0:0,0:0:0:0:
400,135,22827,6,0,P|315:150|260:84,1,180,4|8,0:0|0:0,0:0:0:0:
348,64,23488,1,2,0:0:0:0:
348,64,23599,1,8,0:0:0:0:
348,64,23709,1,2,0:0:0:0:
280,252,23930,1,2,0:0:0:0:
492,216,24150,2,0,L|500:124,1,90,8|0,0:0|0:0,0:0:0:0:
340,320,24591,6,0,P|275:299|209:305,1,135,2|0,0:0|0:0,0:0:0:0:
184,320,25033,1,8,0:0:0:0:
20,200,25253,2,0,L|72:192,1,45,2|8,0:0|0:0,0:0:0:0:
136,132,25474,2,0,P|156:172|152:216,1,90,2|2,0:0|0:0,0:0:0:0:
64,376,25915,2,0,P|44:336|48:292,1,90,8|0,0:0|0:0,0:0:0:0:
48,72,26356,6,0,L|232:92,1,180,2|8,0:0|0:0,0:0:0:0:
320,152,27018,1,2,0:0:0:0:
320,152,27128,1,8,0:0:0:0:
320,152,27238,2,0,P|336:108|332:64,1,90,2|2,0:0|0:0,0:0:0:0:
136,212,27680,2,0,L|152:304,1,90,8|0,0:0|0:0,0:0:0:0:
259,356,28121,6,0,P|313:317|378:327,1,135,2|0,0:0|0:0,0:0:0:0:
412,352,28562,1,8,0:0:0:0:
444,116,28783,1,2,0:0:0:0:
444,116,28893,1,8,0:0:0:0:
444,116,29003,1,2,0:0:0:0:
316,220,29224,1,2,0:0:0:0:
416,36,29444,1,8,0:0:0:0:
332,248,29665,1,0,0:0:0:0:
240,160,29885,6,0,L|144:144,1,90,4|0,0:0|0:0,0:0:0:0:
24,284,30327,2,0,L|120:268,1,90,8|2,0:0|0:0,0:0:0:0:
128,288,30658,1,8,0:0:0:0:
128,288,30768,1,2,0:0:0:0:
88,100,30988,1,0,0:0:0:0:
224,244,31209,2,0,P|242:203|239:159,1,90,8|0,0:0|0:0,0:0:0:0:
188,64,31650,5,2,0:0:0:0:
336,124,31871,1,2,0:0:0:0:
140,192,32091,2,0,L|36:176,1,90,8|2,0:0|0:0,0:0:0:0:
51,178,32422,1,8,0:0:0:0:
51,178,32533,1,2,0:0:0:0:
116,44,32753,1,0,0:0:0:0:
216,276,32974,2,0,L|320:260,1,90,8|0,0:0|0:0,0:0:0:0:
480,124,33415,6,0,L|344:108,1,135,2|0,0:0|0:0,0:0:0:0:
345,108,33856,1,8,0:0:0:0:
248,128,34077,1,2,0:0:0:0:
248,128,34187,1,8,0:0:0:0:
247,127,34297,2,0,P|244:83|264:44,1,90,2|2,0:0|0:0,0:0:0:0:
380,204,34738,2,0,L|368:296,1,90,8|0,0:0|0:0,0:0:0:0:
240,344,35180,6,0,P|177:320|111:332,1,135,4|0,0:0|0:0,0:0:0:0:
80,352,35621,1,8,0:0:0:0:
24,172,35841,1,0,0:0:0:0:
80,312,36062,1,8,0:0:0:0:
104,104,36283,1,2,0:0:0:0:
104,104,36393,1,2,0:0:0:0:
104,104,36503,2,0,L|152:96,1,45,8|8,0:0|0:0,0:0:0:0:
296,168,36724,2,0,L|248:176,1,45,8|8,0:0|0:0,0:0:0:0:
351,83,36944,6,0,P|395:159|364:240,1,180,4|8,0:0|0:0,0:0:0:0:
224,312,37606,1,2,0:0:0:0:
224,312,37716,1,8,0:0:0:0:
224,312,37827,2,0,L|128:300,1,90,2|2,0:0|0:0,0:0:0:0:
60,360,38268,1,8,0:0:0:0:
24,192,38488,1,0,0:0:0:0:
204,136,38709,6,0,L|192:240,1,90,2|0,0:0|0:0,0:0:0:0:
144,56,39150,1,8,0:0:0:0:
288,204,39371,1,2,0:0:0:0:
288,204,39481,1,8,0:0:0:0:
288,204,39591,1,2,0:0:0:0:
88,128,39812,1,2,0:0:0:0:
228,32,40033,1,8,0:0:0:0:
156,248,40253,1,0,0:0:0:0:
288,204,40474,6,0,P|374:197|433:261,1,180,4|8,0:0|0:0,0:0:0:0:
268,356,41135,1,2,0:0:0:0:
268,356,41246,1,8,0:0:0:0:
268,356,41356,2,0,L|176:336,1,90,2|2,0:0|0:0,0:0:0:0:
0,260,41797,2,0,L|92:240,1,90,8|0,0:0|0:0,0:0:0:0:
144,148,42238,5,2,0:0:0:0:
180,336,42459,1,0,0:0:0:0:
128,127,42680,2,0,P|172:126|210:150,1,90,8|2,0:0|0:0,0:0:0:0:
268,208,43010,1,8,0:0:0:0:
268,208,43121,2,0,L|360:196,1,90,2|2,0:0|0:0,0:0:0:0:
488,108,43562,2,0,L|396:96,1,90,8|8,0:0|3:0,0:0:0:0:
300,296,44003,6,0,L|488:272,1,180,4|8,0:0|0:0,0:0:0:0:
228,360,44665,1,2,0:0:0:0:
228,360,44775,1,8,0:0:0:0:
227,359,44885,2,0,P|204:322|203:277,1,90,2|2,0:0|0:0,0:0:0:0:
244,100,45327,2,0,P|267:137|268:182,1,90,8|0,0:0|0:0,0:0:0:0:
168,168,45768,5,2,0:0:0:0:
360,108,45988,1,0,0:0:0:0:
116,88,46209,2,0,L|24:76,1,90,8|2,0:0|0:0,0:0:0:0:
26,76,46540,1,8,0:0:0:0:
26,76,46650,1,2,0:0:0:0:
192,24,46871,1,2,0:0:0:0:
80,172,47091,2,0,L|92:264,1,90,8|0,0:0|0:0,0:0:0:0:
220,336,47533,6,0,B|264:320|308:328|308:328|340:296|392:288,1,180,4|8,0:0|0:0,0:0:0:0:
480,320,48194,1,2,0:0:0:0:
480,320,48305,1,8,0:0:0:0:
480,320,48415,1,2,0:0:0:0:
380,144,48635,1,2,0:0:0:0:
388,288,48856,1,8,0:0:0:0:
468,72,49077,1,0,0:0:0:0:
244,156,49297,6,0,L|96:144,1,135,2|0,0:0|0:0,0:0:0:0:
109,145,49738,1,8,0:0:0:0:
32,80,49959,1,2,0:0:0:0:
32,80,50069,1,8,0:0:0:0:
32,80,50180,1,2,0:0:0:0:
16,236,50400,2,0,L|24:284,1,45,2|0,0:0|0:0,0:0:0:0:
120,364,50621,2,0,L|112:316,1,45,8|8,0:0|3:0,0:0:0:0:
180,212,50841,2,0,L|188:260,1,45,2|2,0:0|0:0,0:0:0:0:
264,320,51062,6,0,P|347:342|414:287,1,180,4|8,0:0|0:0,0:0:0:0:
384,124,51724,1,2,0:0:0:0:
384,124,51834,1,8,0:0:0:0:
384,124,51944,1,2,0:0:0:0:
492,240,52165,1,2,0:0:0:0:
288,168,52385,1,8,0:0:0:0:
464,156,52606,1,0,0:0:0:0:
216,232,52827,6,0,P|196:192|196:148,1,90,2|0,0:0|0:0,0:0:0:0:
264,4,53268,2,0,P|283:43|283:88,1,90,8|2,0:0|0:0,0:0:0:0:
283,88,53599,1,8,0:0:0:0:
283,88,53709,1,2,0:0:0:0:
112,176,53930,1,2,0:0:0:0:
296,288,54150,2,0,L|392:276,1,90,8|0,0:0|0:0,0:0:0:0:
212,352,54591,6,0,L|76:336,1,135,6|0,0:0|0:0,0:0:0:0:
52,360,55033,1,8,0:0:0:0:
24,216,55253,1,2,0:0:0:0:
24,216,55363,1,8,0:0:0:0:
24,216,55474,2,0,P|32:168|24:128,1,90,2|2,0:0|0:0,0:0:0:0:
164,24,55915,2,0,P|156:72|164:112,1,90,8|0,0:0|0:0,0:0:0:0:
252,192,56356,6,0,L|348:184,1,90,2|0,0:0|0:0,0:0:0:0:
341,184,56687,1,0,0:0:0:0:
341,184,56797,1,8,0:0:0:0:
412,92,57018,1,2,0:0:0:0:
496,300,57238,2,0,L|344:284,1,135,2|0,0:0|0:0,0:0:0:0:
292,328,57680,2,0,L|200:316,1,90,8|0,0:0|0:0,0:0:0:0:
104,239,58121,6,0,P|175:191|180:104,1,180,4|8,0:0|0:0,0:0:0:0:
73,51,58783,1,2,0:0:0:0:
73,51,58893,1,8,0:0:0:0:
73,51,59003,2,0,L|88:140,1,90,2|2,0:0|0:0,0:0:0:0:
32,316,59444,1,8,0:0:0:0:
176,188,59665,1,0,0:0:0:0:
120,364,59885,6,0,L|208:344,1,90,4|0,0:0|0:0,0:0:0:0:
356,224,60327,2,0,L|268:204,1,90,8|0,0:0|0:0,0:0:0:0:
236,104,60768,1,8,0:0:0:0:
476,20,60988,2,0,L|468:64,1,45,2|2,0:0|0:0,0:0:0:0:
480,148,61209,2,0,L|472:192,1,45,8|0,0:0|0:0,0:0:0:0:
500,268,61430,2,0,L|492:312,1,45,8|8,0:0|0:0,0:0:0:0:
424,364,61650,6,0,B|328:352|364:284|272:268,1,180,4|8,0:0|0:0,0:0:0:0:
220,184,62312,1,2,0:0:0:0:
220,184,62422,1,8,0:0:0:0:
220,184,62533,2,0,P|188:220|176:268,1,90,2|2,0:0|0:0,0:0:0:0:
232,344,62974,1,8,0:0:0:0:
88,212,63194,1,0,0:0:0:0:
252,88,63415,6,0,L|344:68,1,90,2|2,0:0|0:0,0:0:0:0:
472,184,63856,2,0,L|380:164,1,90,8|2,0:0|0:0,0:0:0:0:
384,164,64187,1,8,0:0:0:0:
384,164,64297,1,0,0:0:0:0:
456,60,64518,1,2,0:0:0:0:
404,296,64738,1,8,0:0:0:0:
444,44,64959,1,0,0:0:0:0:
220,160,65180,6,0,B|164:136|164:136|136:84|136:84|72:56,1,180,4|8,0:0|0:0,0:0:0:0:
60,160,65841,1,2,0:0:0:0:
60,160,65952,1,8,0:0:0:0:
60,160,66062,1,2,0:0:0:0:
248,60,66283,1,2,0:0:0:0:
240,268,66503,2,0,L|224:360,1,90,8|0,0:0|0:0,0:0:0:0:
136,292,66944,5,2,0:0:0:0:
328,216,67165,2,0,L|344:304,1,90,0|8,0:0|0:0,0:0:0:0:
248,156,67606,1,2,0:0:0:0:
248,156,67716,1,8,0:0:0:0:
248,156,67827,1,2,0:0:0:0:
424,196,68047,1,2,0:0:0:0:
180,232,68268,2,0,P|152:196|148:152,1,90,8|8,0:0|3:0,0:0:0:0:
339,36,68709,6,0,L|327:220,1,180,4|8,0:0|0:0,0:0:0:0:
256,352,69371,1,2,0:0:0:0:
256,352,69481,1,8,0:0:0:0:
256,352,69591,1,2,0:0:0:0:
120,208,69812,1,2,0:0:0:0:
176,380,70033,1,8,0:0:0:0:
120,208,70253,6,0,L|136:116,1,90,0|2,0:0|0:0,0:0:0:0:
292,24,70694,2,0,L|307:112,1,90,2|8,0:0|0:0,0:0:0:0:
272,256,71135,1,2,0:0:0:0:
272,256,71246,1,8,0:0:0:0:
272,256,71356,1,2,0:0:0:0:
380,152,71577,1,2,0:0:0:0:
200,196,71797,1,8,0:0:0:0:
396,164,72018,1,0,0:0:0:0:
160,120,72238,6,0,L|180:304,1,180,6|8,0:0|0:0,0:0:0:0:
296,364,72900,1,2,0:0:0:0:
296,364,73010,1,8,0:0:0:0:
296,364,73121,1,2,0:0:0:0:
392,184,73341,1,2,0:0:0:0:
204,316,73562,1,8,0:0:0:0:
468,248,73783,1,2,0:0:0:0:
296,88,74003,6,0,L|248:96,3,45,8|2|2|2,0:0|0:0|0:0|0:0,0:0:0:0:
184,156,74444,2,0,L|136:144,3,45,2|2|8|8,0:0|0:0|0:0|0:0,0:0:0:0:
80,76,74885,5,2,0:0:0:0:
41,98,74995,1,2,0:0:0:0:
15,134,75105,1,8,0:0:0:0:
5,178,75215,1,8,0:0:0:0:
14,222,75326,1,10,0:0:0:0:
40,258,75436,1,2,0:0:0:0:
79,280,75546,1,8,0:0:0:0:
123,286,75657,1,8,0:0:0:0:
166,272,75768,6,0,P|249:250|314:307,1,180,4|8,0:0|0:0,0:0:0:0:
436,200,76430,1,2,0:0:0:0:
436,200,76540,1,8,0:0:0:0:
436,200,76650,2,0,L|340:188,1,90,2|2,0:0|0:0,0:0:0:0:
200,116,77091,2,0,L|296:104,1,90,8|0,0:0|0:0,0:0:0:0:
336,24,77533,5,2,0:0:0:0:
200,116,77753,2,0,P|184:72|192:28,1,90,0|8,0:0|0:0,0:0:0:0:
264,188,78194,1,2,0:0:0:0:
264,188,78305,1,8,0:0:0:0:
264,188,78415,1,2,0:0:0:0:
136,244,78635,2,0,L|48:228,1,90,2|8,0:0|0:0,0:0:0:0:
0,308,79077,1,0,0:0:0:0:
200,352,79297,6,0,L|336:336,1,135,6|0,0:0|0:0,0:0:0:0:
372,360,79738,1,8,0:0:0:0:
440,248,79959,1,2,0:0:0:0:
440,248,80069,1,8,0:0:0:0:
440,248,80180,2,0,P|452:200|452:160,1,90,2|2,0:0|0:0,0:0:0:0:
368,32,80621,2,0,P|356:80|356:120,1,90,8|0,0:0|0:0,0:0:0:0:
232,228,81062,6,0,L|140:216,1,90,2|2,0:0|0:0,0:0:0:0:
142,216,81393,1,2,0:0:0:0:
142,216,81503,1,8,0:0:0:0:
96,112,81724,1,2,0:0:0:0:
32,332,81944,2,0,L|176:320,1,135,2|0,0:0|0:0,0:0:0:0:
236,360,82385,2,0,L|332:348,1,90,8|0,0:0|0:0,0:0:0:0:
496,247,82827,6,0,P|409:257|352:192,1,180,4|8,0:0|0:0,0:0:0:0:
460,80,83488,1,2,0:0:0:0:
460,80,83599,1,8,0:0:0:0:
460,80,83709,2,0,L|444:172,1,90,2|2,0:0|0:0,0:0:0:0:
296,268,84150,2,0,L|200:256,1,90,8|0,0:0|0:0,0:0:0:0:
32,152,84591,6,0,L|176:136,1,135,6|0,0:0|0:0,0:0:0:0:
240,100,85033,2,0,P|248:56|244:12,1,90,8|2,0:0|0:0,0:0:0:0:
243,11,85363,1,8,0:0:0:0:
243,11,85474,1,2,0:0:0:0:
172,232,85694,1,2,0:0:0:0:
380,188,85915,6,0,L|392:236,1,45,8|2,0:0|0:0,0:0:0:0:
472,272,86135,2,0,L|460:320,1,45,2|2,0:0|0:0,0:0:0:0:
384,360,86356,1,4,0:0:0:0:
256,192,86466,12,0,88121,0:0:0:0:
