osu file format v14

[General]
AudioFilename: audio.mp3
AudioLeadIn: 0
PreviewTime: 37596
Countdown: 0
SampleSet: Soft
StackLeniency: 0.7
Mode: 0
LetterboxInBreaks: 0
WidescreenStoryboard: 1

[Editor]
DistanceSpacing: 1.1
BeatDivisor: 4
GridSize: 4
TimelineZoom: 1

[Metadata]
Title:My World ( TV Version )
TitleUnicode:My World(TV Version)
Artist:SPYAIR
ArtistUnicode:SPYAIR
Creator:HabiHolic
Version:Easy
Source:機動戦士ガンダムAGE
Tags:Gundam AGE Ending2 pkhg
BeatmapID:929086
BeatmapSetID:428735

[Difficulty]
HPDrainRate:2
CircleSize:3
OverallDifficulty:2
ApproachRate:3
SliderMultiplier:0.8
SliderTickRate:1

[Events]
//Background and Video events
0,0,"BG.jpg",0,0
Video,0,"Video.avi"
//Break Periods
//Storyboard Layer 0 (Background)
//Storyboard Layer 1 (Fail)
//Storyboard Layer 2 (Pass)
//Storyboard Layer 3 (Foreground)
//Storyboard Sound Samples

[TimingPoints]
-114,441.176470588235,4,2,1,80,1,0
36944,-100,4,2,1,80,0,1
59885,-100,4,2,1,80,0,0
61650,-100,4,2,1,80,0,1
86356,-100,4,2,1,80,0,0
88121,-100,4,2,1,10,0,0

[Colours]
Combo1 : 95,203,103
Combo2 : 128,128,192
Combo3 : 0,128,192
Combo4 : 128,128,255

[HitObjects]
20,156,1209,5,8,0:0:0:0:
68,232,1650,2,0,P|145:232|198:174,1,160,4|2,0:0|0:0,0:0:0:0:
256,108,2974,1,8,0:0:0:0:
313,174,3415,2,0,P|366:232|443:232,1,160,2|2,0:0|0:0,0:0:0:0:
488,156,4738,1,8,0:0:0:0:
424,96,5180,6,0,L|336:104,1,80,2|8,0:0|0:0,0:0:0:0:
256,104,6062,2,0,L|176:96,1,80,2|8,0:0|0:0,0:0:0:0:
103,44,6944,2,0,P|90:120|143:177,1,160,4|4,0:0|0:0,0:0:0:0:
224,208,8268,1,4,0:0:0:0:
284,144,8709,6,0,L|368:156,1,80,4|8,0:0|0:0,0:0:0:0:
424,215,9591,2,0,P|446:183|449:144,1,80,2|8,0:0|0:0,0:0:0:0:
392,76,10474,2,0,B|308:84|328:24|240:32,1,160,2|2,0:0|0:0,0:0:0:0:
168,76,11797,1,8,0:0:0:0:
232,136,12238,6,0,L|224:224,1,80,2|8,0:0|0:0,0:0:0:0:
284,280,13121,2,0,P|328:288|360:276,1,80,2|8,0:0|0:0,0:0:0:0:
424,212,14003,2,0,P|450:264|436:321,2,120,2|2|8,0:0|0:0|0:0,0:0:0:0:
336,196,15768,6,0,P|324:156|332:116,1,80,4|8,0:0|0:0,0:0:0:0:
400,64,16650,2,0,L|484:72,1,80,2|8,0:0|0:0,0:0:0:0:
496,156,17533,2,0,L|416:148,1,80,2|8,0:0|0:0,0:0:0:0:
328,144,18415,2,0,L|248:151,1,80,2|8,0:0|0:0,0:0:0:0:
172,104,19297,6,0,P|95:106|46:166,1,160,2|2,0:0|0:0,0:0:0:0:
132,184,20621,1,8,0:0:0:0:
96,264,21062,2,0,P|173:262|220:200,1,160,2|2,0:0|0:0,0:0:0:0:
244,116,22385,1,8,0:0:0:0:
308,172,22827,6,0,L|300:252,1,80,4|8,0:0|0:0,0:0:0:0:
388,264,23709,2,0,L|396:184,1,80,2|8,0:0|0:0,0:0:0:0:
436,108,24591,2,0,P|476:104|508:124,2,80,2|8|2,0:0|0:0|0:0,0:0:0:0:
368,52,25915,1,8,0:0:0:0:
299,104,26356,6,0,P|226:127|165:80,1,160,2|2,0:0|0:0,0:0:0:0:
244,40,27680,1,8,0:0:0:0:
299,104,28121,2,0,L|284:264,1,160,2|2,0:0|0:0,0:0:0:0:
228,328,29444,1,8,0:0:0:0:
155,280,29885,6,0,P|116:280|80:263,1,80,4|8,0:0|0:0,0:0:0:0:
60,176,30768,2,0,P|89:149|100:111,1,80,2|8,0:0|0:0,0:0:0:0:
140,32,31650,2,0,L|152:204,1,160,2|2,0:0|0:0,0:0:0:0:
208,260,32974,1,8,0:0:0:0:
256,192,33415,12,4,35180,0:0:0:0:
24,136,36944,6,0,L|32:216,1,80,4|8,0:0|0:0,0:0:0:0:
88,284,37827,2,0,P|126:292|163:279,1,80,2|8,0:0|0:0,0:0:0:0:
228,219,38709,2,0,P|286:214|331:251,2,120,2|2|8,0:0|0:0|0:0,0:0:0:0:
148,180,40474,6,0,L|136:100,1,80,4|8,0:0|0:0,0:0:0:0:
200,40,41356,1,2,0:0:0:0:
272,92,41797,1,8,0:0:0:0:
348,136,42238,2,0,P|424:134|467:70,1,160,2|2,0:0|0:0,0:0:0:0:
380,52,43562,1,8,0:0:0:0:
348,136,44003,6,0,L|364:304,1,160,4|2,0:0|0:0,0:0:0:0:
292,348,45327,1,8,0:0:0:0:
224,292,45768,2,0,L|136:288,1,80,2|8,0:0|0:0,0:0:0:0:
60,308,46650,2,0,P|60:268|88:228,1,80,2|8,0:0|0:0,0:0:0:0:
163,203,47533,6,0,P|109:149|32:159,1,160,4|2,0:0|0:0,0:0:0:0:
80,236,48856,1,8,0:0:0:0:
152,284,49297,2,0,P|224:259|242:184,1,160,2|2,0:0|0:0,0:0:0:0:
216,100,50621,1,8,0:0:0:0:
300,120,51062,6,0,L|384:112,1,80,4|8,0:0|0:0,0:0:0:0:
456,68,51944,2,0,P|468:108|460:148,1,80,2|8,0:0|0:0,0:0:0:0:
396,204,52827,2,0,B|320:224|320:160|236:176,1,160,2|2,0:0|0:0,0:0:0:0:
176,232,54150,1,8,0:0:0:0:
104,184,54591,6,0,L|96:104,2,80,2|8|2,0:0|0:0|0:0,0:0:0:0:
52,256,55915,1,8,0:0:0:0:
120,308,56356,2,0,P|196:324|264:286,1,160,2|2,0:0|0:0,0:0:0:0:
316,216,57680,1,8,0:0:0:0:
376,152,58121,6,0,L|356:328,1,160,4|2,0:0|0:0,0:0:0:0:
280,352,59444,1,8,0:0:0:0:
212,296,59885,2,0,P|176:276|136:276,1,80,4|8,0:0|0:0,0:0:0:0:
144,188,60768,2,0,P|183:187|218:167,1,80,8|8,0:0|0:0,0:0:0:0:
276,100,61650,6,0,P|356:100|404:168,1,160,4|2,0:0|0:0,0:0:0:0:
316,180,62974,1,8,0:0:0:0:
227,175,63415,2,0,P|198:149|187:111,1,80,2|8,0:0|0:0,0:0:0:0:
120,56,64297,2,0,P|104:92|104:136,1,80,0|8,0:0|0:0,0:0:0:0:
132,216,65180,6,0,P|143:292|93:351,1,160,4|2,0:0|0:0,0:0:0:0:
60,268,66503,1,8,0:0:0:0:
132,216,66944,2,0,L|296:216,1,160,2|2,0:0|0:0,0:0:0:0:
364,264,68268,1,8,0:0:0:0:
436,212,68709,6,0,P|444:168|432:128,1,80,4|8,0:0|0:0,0:0:0:0:
368,76,69591,2,0,L|288:84,1,80,2|8,0:0|0:0,0:0:0:0:
204,112,70474,2,0,P|148:112|100:64,2,120,2|2|8,0:0|0:0|0:0,0:0:0:0:
248,36,72238,6,0,L|236:204,1,160,2|2,0:0|0:0,0:0:0:0:
288,268,73562,1,8,0:0:0:0:
360,219,74003,2,0,P|437:221|483:283,1,160,8|2,0:0|0:0,0:0:0:0:
396,300,75327,1,8,0:0:0:0:
360,220,75768,6,0,L|340:56,1,160,4|2,0:0|0:0,0:0:0:0:
256,32,77091,1,8,0:0:0:0:
171,61,77533,2,0,L|152:220,1,160,2|2,0:0|0:0,0:0:0:0:
204,288,78856,1,8,0:0:0:0:
272,232,79297,6,0,P|312:224|352:236,1,80,2|8,0:0|0:0,0:0:0:0:
428,272,80180,2,0,L|436:188,1,80,2|8,0:0|0:0,0:0:0:0:
384,124,81062,2,0,B|300:148|304:88|216:116,1,160,2|2,0:0|0:0,0:0:0:0:
152,156,82385,1,8,0:0:0:0:
72,120,82827,6,0,L|56:28,2,80,4|8|2,0:0|0:0|0:0,0:0:0:0:
80,208,84150,1,8,0:0:0:0:
76,296,84591,2,0,L|60:388,2,80,2|8|2,0:0|0:0|0:0,0:0:0:0:
156,256,85915,1,8,0:0:0:0:
256,192,86356,12,0,88121,0:0:0:0:
