osu file format v14

[General]
AudioFilename: audio.mp3
AudioLeadIn: 0
PreviewTime: 73423
Countdown: 0
SampleSet: Soft
StackLeniency: 0.2
Mode: 0
LetterboxInBreaks: 0
WidescreenStoryboard: 0

[Editor]
DistanceSpacing: 1
BeatDivisor: 8
GridSize: 8
TimelineZoom: 2.799999

[Metadata]
Title:MIDNIGHT
TitleUnicode:MIDNIGHT
Artist:SPYAIR
ArtistUnicode:SPYAIR
Creator:Monstrata
Version:SOTARKS' INSANE
Source:
Tags:habiholic sotarks akitoshi corinn alternate alternator high bpm jrock jpop
BeatmapID:1476218
BeatmapSetID:689544

[Difficulty]
HPDrainRate:5.8
CircleSize:4.2
OverallDifficulty:7.8
ApproachRate:9.1
SliderMultiplier:3.4
SliderTickRate:1

[Events]
//Background and Video events
0,0,"veryimpressivethisbg.jpg",0,0
//Break Periods
2,91586,94673
//Storyboard Layer 0 (Background)
//Storyboard Layer 1 (Fail)
//Storyboard Layer 2 (Pass)
//Storyboard Layer 3 (Foreground)
//Storyboard Sound Samples

[TimingPoints]
419,483.870967741935,4,2,2,42,1,0
419,-192.307692307692,4,2,2,42,0,0
660,-108.695652173913,4,2,2,52,0,0
2354,-161.290322580645,4,2,2,32,0,0
5741,-108.695652173913,4,2,2,52,0,0
6225,-138.888888888889,4,2,2,42,0,0
8160,-138.888888888889,4,2,2,52,0,0
8765,-108.695652173913,4,2,2,52,0,0
9128,-89.2857142857143,4,2,2,52,0,0
9773,-161.290322580645,4,2,2,52,0,0
10096,-121.951219512195,4,2,2,52,0,0
13483,-108.695652173913,4,2,2,52,0,0
13967,-121.951219512195,4,2,2,52,0,0
17354,-450.307692307692,4,2,2,52,0,0
17838,-81.9672131147541,4,2,2,62,0,0
33322,-192.307692307692,4,2,2,32,0,0
35257,-238.095238095238,4,2,2,32,0,0
42273,-138.888888888889,4,2,2,52,0,0
42515,-108.695652173913,4,2,2,52,0,0
42999,-161.290322580645,4,2,2,42,0,0
50257,-108.695652173913,4,2,2,52,0,0
50741,-81.9672131147541,4,2,2,62,0,0
57999,-192.307692307692,4,2,2,32,0,0
58483,-75.187969924812,4,2,2,72,0,1
74148,-75.187969924812,4,2,2,5,0,1
74209,-75.187969924812,4,2,2,72,0,1
74632,-75.187969924812,4,2,2,5,0,1
74693,-75.187969924812,4,2,2,72,0,1
75116,-75.187969924812,4,2,2,5,0,1
75177,-75.187969924812,4,2,2,72,0,1
76084,-75.187969924812,4,2,2,5,0,1
76144,-75.187969924812,4,2,2,72,0,1
76568,-75.187969924812,4,2,2,5,0,1
76628,-75.187969924812,4,2,2,72,0,1
77052,-75.187969924812,4,2,2,5,0,1
77112,-75.187969924812,4,2,2,72,0,1
77535,-75.187969924812,4,2,2,5,0,1
77596,-75.187969924812,4,2,2,72,0,1
78019,-75.187969924812,4,2,2,5,0,1
78080,-75.187969924812,4,2,2,72,0,1
78503,-75.187969924812,4,2,2,5,0,1
78564,-75.187969924812,4,2,2,72,0,1
78987,-75.187969924812,4,2,2,5,0,1
79048,-75.187969924812,4,2,2,72,0,1
79471,-75.187969924812,4,2,2,5,0,1
79531,-75.187969924812,4,2,2,72,0,1
79773,-108.695652173913,4,2,2,72,0,1
79955,-108.695652173913,4,2,2,5,0,1
80015,-70.4225352112676,4,2,2,72,0,1
80197,-70.4225352112676,4,2,2,5,0,1
80257,-108.695652173913,4,2,2,72,0,1
80439,-108.695652173913,4,2,2,5,0,1
80499,-65.7894736842105,4,2,2,72,0,1
80681,-65.7894736842105,4,2,2,5,0,1
80741,-108.695652173913,4,2,2,72,0,1
80923,-108.695652173913,4,2,2,5,0,1
80983,-61.7283950617284,4,2,2,72,0,1
81164,-61.7283950617284,4,2,2,5,0,1
81225,-81.9672131147541,4,2,2,72,0,1
81890,-81.9672131147541,4,2,2,5,0,1
81951,-81.9672131147541,4,2,2,72,0,1
82374,-81.9672131147541,4,2,2,5,0,1
82435,-81.9672131147541,4,2,2,72,0,1
82858,-81.9672131147541,4,2,2,5,0,1
82918,-81.9672131147541,4,2,2,72,0,1
83342,-81.9672131147541,4,2,2,5,0,1
83402,-81.9672131147541,4,2,2,72,0,1
83826,-81.9672131147541,4,2,2,5,0,1
83886,-81.9672131147541,4,2,2,72,0,1
84310,-81.9672131147541,4,2,2,5,0,1
84370,-81.9672131147541,4,2,2,72,0,1
84793,-81.9672131147541,4,2,2,5,0,1
84854,-81.9672131147541,4,2,2,72,0,1
85580,-450.307692307693,4,2,2,52,0,0
86548,-310.491142463138,4,2,2,52,0,0
87515,-108.451591389084,4,2,2,42,0,0
88967,-108.451591389084,4,2,2,32,0,0
89451,-450.307692307692,4,2,2,32,0,0
90418,-236.927310992391,4,2,2,42,0,0
90902,-121.64408611088,4,2,2,52,0,0
95257,-160.753514938488,4,2,2,32,0,0
98644,-108.451591389084,4,2,2,52,0,0

[Colours]
Combo1 : 247,223,62
Combo2 : 159,151,151
Combo3 : 216,167,167
Combo4 : 239,223,125
Combo5 : 175,65,32
SliderBorder : 221,221,223
SliderTrackOverride : 35,31,30

[HitObjects]
200,112,419,6,0,L|192:72,3,22.0999998651123,8|0|0|0,3:0|1:0|1:0|1:0,0:0:0:0:
181,144,660,6,0,P|219:131|276:119,1,78.199997374878,8|0,0:0|1:0,0:0:0:0:
381,209,902,1,8,0:0:0:0:
300,237,1023,2,0,P|262:224|205:212,1,78.199997374878,8|0,3:0|0:0,0:0:0:0:
225,215,1265,5,8,3:0:0:0:
201,299,1386,2,0,L|179:135,1,156.399994749756,8|4,0:0|3:0,0:0:0:0:
166,128,1689,2,0,L|164:80,2,39.099998687439,0|0|0,1:0|1:0|1:0,0:0:0:0:
95,162,1870,38,0,L|94:23,2,104.266663166504,8|8|8,0:0|0:0|0:0,0:0:0:0:
3,218,2354,6,0,B|69:208|40:253|122:235,1,105.399995818482,6|0,1:0|0:0,0:0:0:0:
226,203,2717,2,0,P|181:240|192:324,1,105.399995818482,2|0,0:0|0:0,0:0:0:0:
212,353,3080,1,2,0:0:0:0:
212,353,3443,5,2,0:0:0:0:
282,318,3564,2,0,L|324:331,2,26.3499989546204,2|2|2,0:0|0:0|0:0,0:0:0:0:
173,283,3806,37,2,0:0:0:0:
428,255,4048,1,2,0:0:0:0:
428,255,4289,6,0,P|410:212|425:152,1,105.399995818482,2|2,0:0|0:0,0:0:0:0:
471,81,4652,2,0,L|346:66,1,105.399995818482,2|0,0:0|0:0,0:0:0:0:
280,57,5015,1,2,0:0:0:0:
280,57,5378,5,2,0:0:0:0:
236,156,5499,2,0,L|227:131,2,26.3499989546204,2|2|0,0:0|0:0|0:0,0:0:0:0:
231,280,5741,38,0,L|265:167,2,104.266663166504,10|8|8,0:0|0:0|0:0,0:0:0:0:
117,321,6225,6,0,B|194:310|151:380|278:357,1,122.400002988281,6|0,1:0|0:0,0:0:0:0:
344,296,6588,2,0,P|278:305|212:254,1,122.400002988281,2|0,0:0|0:0,0:0:0:0:
363,227,6951,2,0,L|376:360,1,122.400002988281,2|0,0:0|0:0,0:0:0:0:
374,348,7314,5,2,0:0:0:0:
444,301,7435,2,0,L|440:256,2,30.6000007470703,2|2|2,0:0|0:0|0:0,0:0:0:0:
281,271,7677,2,0,P|230:263|208:255,1,61.2000014941407,2|0,0:0|0:0,0:0:0:0:
426,180,7918,2,0,P|477:188|499:196,1,61.2000014941407,2|0,0:0|0:0,0:0:0:0:
255,158,8160,38,0,L|273:213,2,30.6000007470703,2|0|0,1:0|1:0|1:0,0:0:0:0:
214,91,8402,1,10,0:0:0:0:
160,150,8523,1,10,0:0:0:0:
264,28,8644,1,8,0:0:0:0:
320,88,8765,2,0,L|369:180,1,78.199997374878,8|2,3:0|0:0,0:0:0:0:
424,80,9007,1,0,1:0:0:0:
367,22,9128,6,0,L|369:248,1,190.400002324219,8|4,0:0|3:0,0:0:0:0:
370,234,9431,2,0,L|371:293,2,47.6000005810547,0|2|2,1:0|1:0|1:0,0:0:0:0:
300,304,9612,53,10,0:0:0:0:
457,170,9773,5,10,0:0:0:0:
233,357,9935,5,10,0:0:0:0:
198,143,10096,38,0,P|218:219|215:288,1,139.400002127075,6|0,1:0|0:0,0:0:0:0:
121,144,10459,1,2,0:0:0:0:
118,130,10580,2,0,P|162:70|176:69,1,69.7000010635376,8|0,0:0|0:0,0:0:0:0:
330,146,10822,1,2,0:0:0:0:
336,155,10943,2,0,L|183:141,1,139.400002127075,2|2,1:0|0:0,0:0:0:0:
263,73,11306,2,0,L|320:76,2,34.8500005317688,2|2|2,0:0|0:0|0:0,0:0:0:0:
197,142,11548,2,0,P|208:205|206:227,1,69.7000010635376,10|0,0:0|0:0,0:0:0:0:
113,320,11789,2,0,P|114:285|123:251,1,69.7000010635376,2|0,0:0|0:0,0:0:0:0:
312,262,12031,6,0,P|233:257|208:187,1,139.400002127075,2|2,1:0|0:0,0:0:0:0:
375,206,12394,1,2,0:0:0:0:
382,215,12515,2,0,P|397:264|392:289,1,69.7000010635376,8|0,0:0|0:0,0:0:0:0:
279,193,12757,1,2,0:0:0:0:
284,180,12878,2,0,B|293:83|293:83|320:124,1,139.400002127075,2|2,1:0|0:0,0:0:0:0:
375,206,13241,1,0,1:0:0:0:
256,277,13362,2,0,L|207:268,1,34.8500005317688,0|0,1:0|1:0,0:0:0:0:
190,191,13483,54,0,L|329:214,2,104.266663166504,8|10|8,0:0|0:0|0:0,0:0:0:0:
76,282,13967,6,0,B|117:185|43:241|92:104,1,139.400002127075,6|2,1:0|0:0,0:0:0:0:
156,303,14330,1,2,0:0:0:0:
166,318,14451,2,0,P|237:301|255:283,1,69.7000010635376,8|0,0:0|0:0,0:0:0:0:
326,178,14693,1,2,0:0:0:0:
336,163,14814,2,0,B|295:130|239:145|239:145|214:224,1,139.400002127075,2|2,1:0|0:0,0:0:0:0:
350,251,15177,2,0,P|388:229|391:225,2,34.8500005317688,2|2|2,1:0|0:0|0:0,0:0:0:0:
346,96,15418,2,0,P|338:168|364:198,1,69.7000010635376,10|0,0:0|0:0,0:0:0:0:
445,282,15660,2,0,P|453:210|427:180,1,69.7000010635376,2|0,1:0|0:0,0:0:0:0:
270,282,15902,5,2,1:0:0:0:
198,181,16023,2,0,L|150:195,1,34.8500005317688,8|8,0:0|0:0,0:0:0:0:
127,283,16144,2,0,L|212:254,1,69.7000010635376,8|2,0:0|1:0,0:0:0:0:
129,63,16386,1,8,0:0:0:0:
69,157,16507,2,0,P|59:227|124:296,2,139.400002127075,0|8|4,3:0|3:0|3:0,0:0:0:0:
224,83,17112,2,0,L|217:32,3,34.8500005317688,0|0|0|0,3:0|3:0|3:0|3:0,3:0:0:0:
238,182,17354,22,0,L|228:113,1,66.0659398867501,8|0,0:0|0:0,0:0:0:0:
337,168,17838,6,0,B|199:175|304:250|116:249,1,207.399991455384,6|0,1:0|3:0,0:0:0:0:
155,247,18201,1,0,0:0:0:0:
129,81,18322,2,0,P|171:126|180:183,1,103.699995727692,10|0,0:0|0:0,0:0:0:0:
51,270,18564,2,0,P|134:265|177:386,2,207.399991455384,2|0|0,3:0|1:0|3:0,0:0:0:0:
51,270,19168,1,0,0:0:0:0:
242,217,19289,2,0,B|312:219|312:219|355:270|355:270|454:271,1,207.399991455384,8|2,0:0|3:0,0:0:0:0:
425,270,19652,1,0,0:0:0:0:
267,138,19773,6,0,P|314:185|242:304,1,207.399991455384,2|0,1:0|3:0,0:0:0:0:
263,299,20136,1,0,0:0:0:0:
149,178,20257,2,0,B|213:180|170:219|271:218,1,103.699995727692,10|0,0:0|0:0,0:0:0:0:
450,112,20499,2,0,P|360:165|239:107,1,207.399991455384,2|0,3:0|1:0,0:0:0:0:
266,137,20862,1,0,0:0:0:0:
439,214,20983,2,0,P|436:282|422:330,1,103.699995727692,2|0,3:0|0:0,0:0:0:0:
253,319,21225,2,0,P|241:268|241:216,1,103.699995727692,10|0,0:0|0:0,0:0:0:0:
444,221,21467,2,0,P|441:289|427:337,1,103.699995727692,2|0,3:0|0:0,0:0:0:0:
189,163,21709,6,0,P|281:158|289:273,1,207.399991455384,2|0,1:0|3:0,0:0:0:0:
303,254,22072,1,0,0:0:0:0:
130,211,22193,2,0,P|114:154|153:98,1,103.699995727692,10|0,0:0|0:0,0:0:0:0:
249,9,22435,2,0,L|240:234,2,207.399991455384,2|0|0,3:0|1:0|3:0,0:0:0:0:
249,9,23039,1,0,0:0:0:0:
398,117,23160,2,0,P|332:108|411:40,1,207.399991455384,8|2,0:0|3:0,0:0:0:0:
384,22,23523,1,0,0:0:0:0:
473,197,23644,38,0,B|456:336|456:336|409:271,1,207.399991455384,6|0,1:0|3:0,0:0:0:0:
290,187,24007,1,2,0:0:0:0:
290,187,24128,2,0,B|233:191|258:219|196:225,1,103.699995727692,8|0,0:0|0:0,0:0:0:0:
84,108,24370,2,0,B|141:112|116:140|178:146,1,103.699995727692,2|0,3:0|0:0,0:0:0:0:
376,44,24612,1,0,1:0:0:0:
373,28,24733,2,0,B|327:6|327:6|184:75,1,207.399991455384,8|4,0:0|3:0,0:0:0:0:
172,224,25096,1,10,0:0:0:0:
172,224,25338,2,0,P|186:293|193:350,1,103.699995727692,4|4,3:0|3:0,0:0:0:0:
253,182,25580,6,0,P|327:147|377:254,1,207.399991455384,6|0,1:0|3:0,0:0:0:0:
384,237,25943,1,2,0:0:0:0:
214,107,26064,2,0,P|134:95|88:98,1,103.699995727692,10|0,0:0|0:0,0:0:0:0:
281,25,26306,2,0,P|328:140|307:240,2,207.399991455384,2|2|0,3:0|1:0|3:0,0:0:0:0:
281,25,26910,1,2,0:0:0:0:
205,191,27031,2,0,B|139:155|74:201|74:201|126:267,1,207.399991455384,10|0,0:0|3:0,0:0:0:0:
116,254,27394,1,2,0:0:0:0:
331,224,27515,6,0,P|399:244|307:303,1,207.399991455384,2|0,1:0|3:0,0:0:0:0:
340,326,27878,1,2,0:0:0:0:
324,140,27999,2,0,P|387:140|443:175,1,103.699995727692,10|0,0:0|0:0,0:0:0:0:
205,191,28241,2,0,P|138:176|69:55,1,207.399991455384,2|2,3:0|1:0,0:0:0:0:
68,64,28604,1,0,0:0:0:0:
27,213,28725,2,0,P|56:271|65:322,1,103.699995727692,2|2,3:0|0:0,0:0:0:0:
205,191,28967,2,0,P|217:140|241:95,1,103.699995727692,10|0,0:0|0:0,0:0:0:0:
363,212,29209,2,0,P|387:257|399:307,1,103.699995727692,2|0,3:0|0:0,0:0:0:0:
510,143,29451,38,0,B|445:156|445:156|290:77,1,207.399991455384,6|0,1:0|3:0,0:0:0:0:
319,91,29814,1,2,0:0:0:0:
109,199,29935,2,0,B|143:215|143:215|219:184,1,103.699995727692,10|0,0:0|0:0,0:0:0:0:
0,120,30177,1,2,1:0:0:0:
7,125,30298,1,0,1:0:0:0:
12,131,30418,2,0,L|29:241,1,103.699995727692,2|0,1:0|0:0,0:0:0:0:
136,312,30660,1,2,1:0:0:0:
129,307,30781,1,0,1:0:0:0:
124,301,30902,2,0,L|107:191,1,103.699995727692,10|0,0:0|0:0,0:0:0:0:
192,86,31144,2,0,L|207:221,1,103.699995727692,2|0,3:0|0:0,0:0:0:0:
369,260,31386,6,0,P|310:236|253:254,1,103.699995727692,6|0,1:0|0:0,0:0:0:0:
310,321,31628,1,0,1:0:0:0:
392,336,31749,1,2,1:0:0:0:
448,276,31870,2,0,P|433:213|386:177,1,103.699995727692,8|0,0:0|0:0,0:0:0:0:
327,164,32112,1,2,3:0:0:0:
327,164,32233,2,0,L|314:52,1,103.699995727692,8|0,0:0|1:0,0:0:0:0:
247,152,32475,1,8,0:0:0:0:
247,152,32596,2,0,L|234:40,1,103.699995727692,10|0,0:0|0:0,0:0:0:0:
163,154,32838,6,0,L|151:10,2,138.266660970256,10|8|8,0:0|0:0|0:0,0:0:0:0:
130,228,33322,37,2,1:0:0:0:
317,290,33564,1,0,0:0:0:0:
46,339,33806,1,8,0:0:0:0:
257,172,34048,1,2,0:0:0:0:
257,172,34168,1,0,1:0:0:0:
441,303,34410,5,2,0:0:0:0:
441,303,34531,2,0,L|364:295,1,44.1999997302246,2|0,1:0|0:0,0:0:0:0:
393,224,34773,1,2,3:0:0:0:
393,224,34894,2,0,L|436:228,1,44.1999997302246,2|0,0:0|0:0,0:0:0:0:
430,153,35136,5,2,0:0:0:0:
430,153,35257,2,0,L|363:149,1,35.6999989105225,2|0,0:0|0:0,0:0:0:0:
327,109,35499,1,2,0:0:0:0:
327,109,35620,2,0,P|276:128|230:120,1,71.399997821045,2|0,0:0|0:0,0:0:0:0:
188,119,35983,1,2,0:0:0:0:
188,119,36346,37,2,0:0:0:0:
188,119,36467,2,0,P|206:160|208:179,1,35.6999989105225,2|0,0:0|0:0,0:0:0:0:
211,229,36709,1,2,0:0:0:0:
211,229,36830,2,0,P|193:270|191:289,1,35.6999989105225,2|0,0:0|0:0,0:0:0:0:
213,336,37072,5,2,0:0:0:0:
213,336,37193,2,0,L|297:330,1,71.399997821045,2|0,0:0|0:0,0:0:0:0:
361,325,37556,1,2,0:0:0:0:
437,318,37677,2,0,P|388:316|352:284,1,71.399997821045,2|2,0:0|0:0,0:0:0:0:
329,241,38039,2,0,L|334:146,1,71.399997821045,2|0,0:0|0:0,0:0:0:0:
325,95,38402,2,0,L|318:68,2,17.8499994552612,2|2|2,0:0|0:0|0:0,0:0:0:0:
253,119,38644,1,2,0:0:0:0:
399,77,38886,1,2,0:0:0:0:
203,55,39128,6,0,P|153:62|137:72,1,35.6999989105225,2|0,0:0|0:0,0:0:0:0:
112,127,39370,2,0,P|162:134|178:144,1,35.6999989105225,2|0,0:0|0:0,0:0:0:0:
210,193,39612,2,0,P|167:203|133:230,1,71.399997821045,2|2,0:0|0:0,0:0:0:0:
294,327,40096,38,0,L|300:284,1,35.6999989105225,2|0,0:0|0:0,0:0:0:0:
374,279,40338,2,0,L|369:243,1,35.6999989105225,2|0,0:0|0:0,0:0:0:0:
422,190,40580,1,2,0:0:0:0:
422,190,40822,1,2,0:0:0:0:
264,62,41064,6,0,P|218:91|182:101,1,71.399997821045,2|0,0:0|0:0,0:0:0:0:
134,136,41427,1,2,0:0:0:0:
134,136,41789,1,2,0:0:0:0:
260,305,42152,5,2,0:0:0:0:
292,235,42273,2,0,L|360:230,1,61.2000014941407,2|2,0:0|0:0,0:0:0:0:
422,152,42515,38,0,L|302:161,2,104.266663166504,10|8|8,0:0|0:0|0:0,0:0:0:0:
328,72,42999,6,0,P|256:72|208:56,1,105.399995818482,6|0,1:0|0:0,0:0:0:0:
147,147,43362,1,2,0:0:0:0:
147,147,43483,2,0,P|213:130|235:119,1,52.6999979092408,0|0,3:0|0:0,0:0:0:0:
83,91,43725,2,0,P|114:172|126:262,1,158.099993727722
171,322,44209,2,0,P|195:266|205:253,1,52.6999979092408,2|0,0:0|0:0,0:0:0:0:
295,213,44451,1,2,3:0:0:0:
295,213,44572,2,0,L|198:204,1,52.6999979092408,2|0,0:0|0:0,0:0:0:0:
351,148,44814,6,0,P|403:169|472:144,1,105.399995818482,2|0,0:0|0:0,0:0:0:0:
490,231,45177,2,0,L|497:287,1,52.6999979092408,2|0,0:0|0:0,0:0:0:0:
439,354,45418,1,2,3:0:0:0:
439,354,45539,2,0,P|382:325|360:325,1,52.6999979092408,2|0,0:0|0:0,0:0:0:0:
339,271,45781,2,0,P|272:286|205:335,1,105.399995818482,2|0,0:0|0:0,0:0:0:0:
183,360,46144,1,2,0:0:0:0:
124,174,46386,1,0,3:0:0:0:
183,360,46628,1,2,0:0:0:0:
216,163,46870,38,0,P|217:99|249:41,2,105.399995818482,6|2|2,1:0|0:0|3:0,0:0:0:0:
245,238,47596,1,2,0:0:0:0:
107,164,47838,1,2,0:0:0:0:
313,284,48080,1,2,0:0:0:0:
107,164,48322,1,0,3:0:0:0:
313,284,48564,1,2,0:0:0:0:
163,64,48806,6,0,P|188:123|192:145,1,52.6999979092408,2|0,0:0|0:0,0:0:0:0:
250,186,49048,2,0,P|274:106|359:79,1,158.099993727722,2|0,0:0|0:0,0:0:0:0:
448,136,49531,2,0,B|436:195|436:195|462:245|463:298,1,158.099993727722,2|0,0:0|0:0,0:0:0:0:
408,341,50015,1,2,1:0:0:0:
334,318,50136,1,2,1:0:0:0:
256,344,50257,6,0,L|142:353,2,104.266663166504,10|8|8,0:0|0:0|0:0,0:0:0:0:
201,270,50741,38,0,B|209:208|174:233|189:161,1,103.699995727692,6|0,1:0|0:0,0:0:0:0:
338,99,50983,2,0,B|351:162|316:137|324:199,1,103.699995727692,2|0,3:0|0:0,0:0:0:0:
192,91,51225,2,0,P|111:158|112:173,1,103.699995727692,10|0,0:0|0:0,0:0:0:0:
321,277,51467,2,0,P|402:210|401:195,1,103.699995727692,2|0,3:0|0:0,0:0:0:0:
265,49,51709,2,0,L|39:39,2,207.399991455384,2|2|2,1:0|3:0|0:0,0:0:0:0:
471,58,52435,1,2,3:0:0:0:
187,190,52677,5,2,1:0:0:0:
188,205,52798,1,2,0:0:0:0:
189,221,52918,2,0,L|205:326,1,103.699995727692,2|0,3:0|0:0,0:0:0:0:
328,208,53160,2,0,L|346:-1,1,207.399991455384,10|2,0:0|0:0,0:0:0:0:
163,179,53644,1,2,1:0:0:0:
164,194,53765,1,2,0:0:0:0:
165,210,53886,2,0,L|181:315,1,103.699995727692,2|0,3:0|0:0,0:0:0:0:
346,225,54128,1,10,0:0:0:0:
141,42,54370,1,2,3:0:0:0:
67,243,54612,6,0,P|167:209|188:207,1,103.699995727692,2|0,1:0|0:0,0:0:0:0:
363,281,54854,2,0,P|263:247|242:245,1,103.699995727692,2|0,3:0|0:0,0:0:0:0:
424,203,55096,2,0,L|436:76,2,103.699995727692,10|2|2,0:0|0:0|3:0,0:0:0:0:
454,288,55459,1,2,0:0:0:0:
352,141,55580,2,0,B|303:125|306:164|243:142,1,103.699995727692,2|0,1:0|0:0,0:0:0:0:
63,205,55822,2,0,B|112:189|109:228|172:206,1,103.699995727692,2|0,3:0|0:0,0:0:0:0:
283,67,56064,2,0,P|185:89|168:152,1,138.266660970256,10|2,0:0|0:0,0:0:0:0:
323,226,56467,1,2,0:0:0:0:
323,226,56548,38,0,B|216:209|265:325|87:280,1,207.399991455384,6|4,1:0|3:0,0:0:0:0:
164,208,56910,1,10,3:0:0:0:
307,307,57031,2,0,P|360:302|398:259,2,103.699995727692,6|6|6,3:0|3:0|3:0,0:0:0:0:
323,226,57394,1,2,1:0:0:0:
404,274,57515,5,10,0:0:0:0:
111,99,57757,1,8,0:0:0:0:
103,113,57999,6,0,P|152:97|189:146,1,88.3999994604492,2|2,0:0|0:0,0:0:0:0:
179,115,58483,6,0,L|304:103,1,113.049995342484,6|8,1:0|0:0,0:0:0:0:
361,200,58725,1,0,0:0:0:0:
361,200,58846,2,0,L|240:187,1,113.049995342484,10|0,0:0|1:0,0:0:0:0:
435,124,59088,1,8,0:0:0:0:
435,124,59209,2,0,L|455:243,1,113.049995342484,2|8,0:0|0:0,0:0:0:0:
344,311,59451,2,0,L|362:192,1,113.049995342484,0|8,1:0|0:0,0:0:0:0:
232,76,59693,2,0,L|249:194,1,113.049995342484,2|8,0:0|0:0,0:0:0:0:
130,49,59935,2,0,P|43:36|9:63,1,113.049995342484,2|8,1:0|0:0,0:0:0:0:
0,178,60177,2,0,P|87:165|121:192,1,113.049995342484,2|8,0:0|0:0,0:0:0:0:
177,337,60418,5,2,1:0:0:0:
220,263,60539,2,0,B|365:244|288:350|453:314,1,226.099990684967,8|8,0:0|0:0,0:0:0:0:
409,134,60902,2,0,P|394:250|407:267,1,113.049995342484,0|8,1:0|0:0,0:0:0:0:
476,63,61144,2,0,L|357:50,1,113.049995342484,0|10,1:0|0:0,0:0:0:0:
205,138,61386,2,0,L|317:125,1,113.049995342484,0|8,1:0|0:0,0:0:0:0:
117,59,61628,2,0,B|148:119|95:121|137:185,1,113.049995342484,2|8,0:0|0:0,0:0:0:0:
191,307,61870,1,2,1:0:0:0:
253,249,61991,2,0,P|129:251|113:339,1,226.099990684967,8|8,0:0|0:0,0:0:0:0:
306,315,62354,53,2,1:0:0:0:
306,315,62475,2,0,L|428:299,1,113.049995342484,8|0,0:0|0:0,0:0:0:0:
495,206,62717,2,0,L|373:190,1,113.049995342484,10|0,0:0|1:0,0:0:0:0:
243,81,62959,1,8,0:0:0:0:
243,81,63080,2,0,P|292:194|283:218,1,113.049995342484,2|8,0:0|0:0,0:0:0:0:
143,268,63322,2,0,P|155:213|194:173,1,113.049995342484,0|8,1:0|0:0,0:0:0:0:
197,346,63564,2,0,L|76:357,1,113.049995342484,2|8,1:0|0:0,0:0:0:0:
245,262,63806,2,0,L|357:272,1,113.049995342484,2|8,1:0|0:0,0:0:0:0:
472,350,64048,2,0,P|450:236|456:220,1,113.049995342484,2|8,1:0|0:0,0:0:0:0:
491,105,64289,5,2,1:0:0:0:
428,162,64410,2,0,L|185:132,1,226.099990684967,8|8,0:0|0:0,0:0:0:0:
60,51,64773,1,2,1:0:0:0:
130,93,64894,2,0,P|177:214|136:321,1,226.099990684967,10|8,0:0|0:0,0:0:0:0:
298,332,65257,1,2,1:0:0:0:
298,332,65378,2,0,P|283:214|287:200,1,113.049995342484,10|0,0:0|0:0,0:0:0:0:
391,118,65620,1,8,0:0:0:0:
391,118,65741,2,0,L|408:255,1,113.049995342484,2|8,1:0|0:0,0:0:0:0:
316,37,65983,2,0,L|306:161,1,113.049995342484,2|8,1:0|0:0,0:0:0:0:
176,40,66225,54,0,B|88:32|88:32|56:56,1,113.049995342484,6|8,1:0|0:0,0:0:0:0:
14,196,66467,1,0,0:0:0:0:
14,196,66588,2,0,B|102:204|102:204|134:180,1,113.049995342484,10|0,0:0|1:0,0:0:0:0:
308,148,66830,1,8,0:0:0:0:
308,148,66951,2,0,P|196:123|182:133,1,113.049995342484,2|8,0:0|0:0,0:0:0:0:
287,242,67193,2,0,P|342:244|387:211,1,113.049995342484,0|8,1:0|0:0,0:0:0:0:
470,58,67435,2,0,L|487:185,1,113.049995342484,2|8,0:0|0:0,0:0:0:0:
372,323,67677,2,0,L|386:210,1,113.049995342484,2|8,1:0|0:0,0:0:0:0:
255,338,67918,2,0,P|133:345|118:332,1,113.049995342484,2|8,1:0|0:0,0:0:0:0:
60,213,68160,5,2,1:0:0:0:
102,133,68281,2,0,B|239:100|157:222|328:188,1,226.099990684967,8|8,0:0|0:0,0:0:0:0:
485,169,68644,2,0,P|357:156|351:148,1,113.049995342484,0|8,1:0|0:0,0:0:0:0:
278,86,68886,2,0,P|406:73|412:65,1,113.049995342484,2|8,0:0|0:0,0:0:0:0:
294,209,69128,2,0,B|279:277|324:252|299:328,1,113.049995342484,0|8,1:0|0:0,0:0:0:0:
178,219,69370,2,0,B|160:157|199:178|184:110,1,113.049995342484,2|8,1:0|0:0,0:0:0:0:
114,290,69612,2,0,L|245:299,1,113.049995342484,2|8,1:0|0:0,0:0:0:0:
406,201,69854,2,0,L|275:210,1,113.049995342484,2|8,1:0|0:0,0:0:0:0:
459,283,70096,53,2,1:0:0:0:
459,283,70217,2,0,P|502:222|490:162,1,113.049995342484,8|0,0:0|0:0,0:0:0:0:
364,104,70459,2,0,P|368:159|405:200,1,113.049995342484,10|0,0:0|1:0,0:0:0:0:
436,30,70701,1,8,0:0:0:0:
436,30,70822,2,0,L|295:21,1,113.049995342484,2|8,0:0|0:0,0:0:0:0:
251,111,71064,2,0,L|363:103,1,113.049995342484,0|8,1:0|0:0,0:0:0:0:
167,50,71306,2,0,P|147:174|146:191,1,113.049995342484,2|8,0:0|0:0,0:0:0:0:
69,234,71548,2,0,P|61:177|50:122,1,113.049995342484,2|8,1:0|0:0,0:0:0:0:
166,248,71789,2,0,P|290:263|302:262,1,113.049995342484,2|8,1:0|0:0,0:0:0:0:
419,200,72031,6,0,P|447:198|475:194,2,56.5249976712419,2|8|8,1:0|0:0|0:0,0:0:0:0:
287,161,72273,2,0,P|258:159|230:156,2,56.5249976712419,0|8|8,1:0|0:0|0:0,0:0:0:0:
388,62,72515,2,0,L|396:199,1,113.049995342484,10|0,0:0|0:0,0:0:0:0:
304,309,72757,1,10,0:0:0:0:
297,299,72878,2,0,L|303:186,1,113.049995342484,10|0,0:0|0:0,0:0:0:0:
475,201,73120,2,0,P|432:251|355:240,2,113.049995342484,4|4|4,3:0|3:0|3:0,0:0:0:0:
394,169,73483,5,2,1:0:0:0:
302,186,73604,1,8,0:0:0:0:
216,165,73725,1,2,1:0:0:0:
133,188,73846,1,8,0:0:0:0:
51,166,73967,38,0,P|89:236|105:336,1,169.574993013726,2|0,1:0|0:0,0:0:0:0:
105,323,74209,2,0,L|230:299,1,113.049995342484,8|2,0:0|0:0,0:0:0:0:
358,231,74451,2,0,B|257:258|306:184|179:225,1,169.574993013726,0|0,1:0|0:0,0:0:0:0:
195,220,74693,2,0,L|195:79,1,113.049995342484,10|0,0:0|0:0,0:0:0:0:
332,69,74935,2,0,P|382:131|494:134,1,169.574993013726,0|0,1:0|0:0,0:0:0:0:
467,143,75177,2,0,L|478:277,1,113.049995342484,10|0,0:0|0:0,0:0:0:0:
456,344,75418,1,2,1:0:0:0:
437,40,75660,1,10,0:0:0:0:
253,319,75902,6,0,B|197:316|197:316|158:344|158:344|66:340,1,169.574993013726,2|0,1:0|0:0,0:0:0:0:
92,341,76144,2,0,P|91:271|58:227,1,113.049995342484,8|0,0:0|0:0,0:0:0:0:
196,87,76386,2,0,P|157:166|177:262,1,169.574993013726,0|0,1:0|0:0,0:0:0:0:
167,244,76628,2,0,P|235:218|292:224,1,113.049995342484,10|0,0:0|0:0,0:0:0:0:
375,339,76870,2,0,B|352:297|352:297|384:144,1,169.574993013726,0|0,1:0|0:0,0:0:0:0:
376,177,77112,2,0,P|411:111|403:63,1,113.049995342484,10|0,0:0|0:0,0:0:0:0:
291,136,77354,2,0,P|213:139|139:42,1,169.574993013726,2|0,1:0|0:0,0:0:0:0:
148,80,77596,2,0,P|78:73|27:95,1,113.049995342484,10|0,0:0|0:0,0:0:0:0:
4,254,77838,54,0,B|110:244|59:324|176:303,1,169.574993013726,2|0,1:0|0:0,0:0:0:0:
157,305,78080,2,0,P|219:271|275:276,1,113.049995342484,8|0,0:0|0:0,0:0:0:0:
380,350,78322,2,0,P|306:346|260:251,1,169.574993013726,2|0,1:0|0:0,0:0:0:0:
258,270,78564,2,0,P|269:180|252:143,1,113.049995342484,10|0,0:0|0:0,0:0:0:0:
127,109,78806,2,0,B|145:153|145:153|210:195|299:142,1,169.574993013726,0|0,1:0|0:0,0:0:0:0:
261,160,79048,2,0,P|336:126|378:137,1,113.049995342484,10|0,0:0|0:0,0:0:0:0:
435,254,79289,2,0,P|374:223|384:103,1,169.574993013726,2|0,1:0|0:0,0:0:0:0:
363,129,79531,2,0,P|370:54|337:15,1,113.049995342484,10|0,0:0|0:0,0:0:0:0:
99,112,79773,6,0,P|152:117|214:83,1,117.299996062317,2|0,1:0|0:0,0:0:0:0:
225,12,80015,2,0,L|219:212,1,181.049990883408,12|0,0:0|0:0,0:0:0:0:
179,257,80257,54,0,P|230:230|288:234,1,117.299996062317,2|0,1:0|0:0,0:0:0:0:
315,313,80499,2,0,L|304:104,1,193.799997634277,12|0,0:0|0:0,0:0:0:0:
302,46,80741,6,0,P|353:72|411:68,1,117.299996062317,2|0,1:0|0:0,0:0:0:0:
470,10,80983,2,0,L|457:232,1,206.550005042725,12|0,0:0|0:0,0:0:0:0:
478,284,81225,54,0,P|413:260|348:273,1,103.699995727692,2|0,1:0|0:0,0:0:0:0:
299,300,81467,1,10,0:0:0:0:
216,282,81588,1,8,0:0:0:0:
175,213,81709,6,0,P|117:164|45:182,1,155.549993591538,6|0,1:0|0:0,0:0:0:0:
45,182,81951,2,0,L|30:58,1,103.699995727692,12|2,0:0|0:0,0:0:0:0:
223,73,82193,2,0,P|174:155|186:246,1,155.549993591538,0|0,1:0|0:0,0:0:0:0:
174,212,82435,2,0,L|307:236,1,103.699995727692,14|0,0:0|0:0,0:0:0:0:
418,209,82677,2,0,P|344:191|320:95,1,155.549993591538,0|0,1:0|0:0,0:0:0:0:
314,123,82918,2,0,P|325:44|308:6,1,103.699995727692,14|0,0:0|0:0,0:0:0:0:
414,130,83160,2,0,L|425:320,1,155.549993591538,2|0,1:0|0:0,0:0:0:0:
422,285,83402,2,0,P|362:293|326:343,1,103.699995727692,14|0,0:0|0:0,0:0:0:0:
158,323,83644,54,0,P|234:327|275:242,1,155.549993591538,2|0,1:0|0:0,0:0:0:0:
276,267,83886,2,0,P|262:189|278:152,1,103.699995727692,12|0,0:0|0:0,0:0:0:0:
403,95,84128,2,0,L|201:79,1,155.549993591538,0|0,1:0|0:0,0:0:0:0:
247,82,84370,2,0,P|190:72|138:117,1,103.699995727692,14|0,0:0|0:0,0:0:0:0:
72,198,84612,2,0,P|153:203|206:280,1,155.549993591538,0|0,1:0|0:0,0:0:0:0:
199,255,84854,2,0,P|256:265|308:220,1,103.699995727692,14|0,0:0|0:0,0:0:0:0:
360,153,85096,5,6,3:0:0:0:
365,182,85217,1,4,3:0:0:0:
370,208,85338,1,12,3:0:0:0:
375,237,85459,1,4,3:0:0:0:
473,277,85580,6,0,B|423:274|429:318|370:313,1,113.255896948714,6|10,1:0|3:0,0:0:0:0:
123,259,86548,2,0,P|151:268|210:255,1,82.1279447353662,4|8,1:0|0:0,0:0:0:0:
262,216,87031,1,10,0:0:0:0:
262,216,87273,5,10,0:0:0:0:
265,137,87394,1,8,0:0:0:0:
203,77,87515,6,0,P|260:53|295:57,1,78.3759821602118,6|0,1:0|0:0,0:0:0:0:
337,147,87757,1,2,0:0:0:0:
337,160,87878,2,0,P|280:136|245:140,1,78.3759821602118,2|0,0:0|1:0,0:0:0:0:
85,297,88241,2,0,L|185:283,1,78.3759821602118,2|0,0:0|0:0,0:0:0:0:
236,342,88483,2,0,L|313:352,1,78.3759821602118,0|0,1:0|0:0,0:0:0:0:
412,315,88725,2,0,P|390:269|385:222,1,78.3759821602118,10|0,3:0|0:0,0:0:0:0:
322,197,88967,2,0,P|333:150|342:134,3,39.1879910801059,6|4|4|4,3:0|3:0|3:0|3:0,0:0:0:0:
265,113,89209,2,0,P|289:71|302:58,3,39.1879910801059,6|4|4|4,3:0|3:0|3:0|3:0,0:0:0:0:
221,30,89451,38,0,L|161:25,2,56.6279484743572,6|2|2,1:0|0:0|0:0,0:0:0:0:
72,100,90418,2,0,P|126:95|186:145,1,125.565939867851,6|0,1:0|0:0,0:0:0:0:
353,144,90902,2,0,P|289:154|191:305,1,244.56593252415,6|0,1:0|0:0,0:0:0:0:
227,368,91386,5,6,1:0:0:0:
400,68,95257,6,0,P|349:88|334:101,1,52.8759840161623,6|0,1:0|0:0,0:0:0:0:
289,163,95499,1,2,0:0:0:0:
289,163,95620,2,0,P|265:150|240:144,1,52.8759840161623,2|8,0:0|0:0,0:0:0:0:
239,143,95983,1,2,0:0:0:0:
206,216,96104,2,0,L|219:321,1,105.751968032325,2|2,1:0|0:0,0:0:0:0:
291,348,96467,2,0,L|286:314,2,26.4379920080811,2|2|2,1:0|0:0|0:0,0:0:0:0:
148,320,96709,2,0,L|80:315,1,52.8759840161623,10|0,0:0|0:0,0:0:0:0:
281,252,96951,2,0,L|349:247,1,52.8759840161623,2|0,1:0|0:0,0:0:0:0:
422,120,97193,38,0,P|412:156|413:186,1,52.8759840161623,2|0,1:0|0:0,0:0:0:0:
450,264,97435,1,2,0:0:0:0:
450,264,97556,2,0,P|458:289|460:315,1,52.8759840161623,2|8,0:0|0:0,0:0:0:0:
460,315,97918,1,2,1:0:0:0:
381,358,98039,2,0,L|264:347,1,105.751968032325,2|2,1:0|0:0,0:0:0:0:
206,308,98402,2,0,L|166:315,2,26.4379920080811,2|2|2,1:0|0:0|0:0,0:0:0:0:
280,264,98644,54,0,L|289:147,2,104.501309546949,8|8|8,0:0|0:0|0:0,0:0:0:0:
