osu file format v14

[General]
AudioFilename: audio.mp3
AudioLeadIn: 0
PreviewTime: 73423
Countdown: 0
SampleSet: Soft
StackLeniency: 0.3
Mode: 0
LetterboxInBreaks: 0
WidescreenStoryboard: 1

[Editor]
Bookmarks: 27939
DistanceSpacing: 1
BeatDivisor: 4
GridSize: 4
TimelineZoom: 1.9

[Metadata]
Title:MIDNIGHT
TitleUnicode:MIDNIGHT
Artist:SPYAIR
ArtistUnicode:SPYAIR
Creator:Monstrata
Version:HABI'S HARD
Source:
Tags:habiholic sotarks akitoshi corinn alternate alternator high bpm jrock jpop
BeatmapID:1475254
BeatmapSetID:689544

[Difficulty]
HPDrainRate:6
CircleSize:4
OverallDifficulty:6
ApproachRate:8
SliderMultiplier:2.3
SliderTickRate:2

[Events]
//Background and Video events
0,0,"wallhaven-33430.jpg",0,0
//Break Periods
2,2554,4749
2,35457,41523
//Storyboard Layer 0 (Background)
//Storyboard Layer 1 (Fail)
//Storyboard Layer 2 (Pass)
//Storyboard Layer 3 (Foreground)
//Storyboard Sound Samples

[TimingPoints]
419,483.870967741935,4,2,2,42,1,0
660,-100,4,2,2,52,0,0
2354,-100,4,2,2,32,0,0
5741,-100,4,2,2,52,0,0
6225,-100,4,2,2,42,0,0
8160,-100,4,2,2,52,0,0
17838,-100,4,2,2,62,0,0
33322,-100,4,2,2,32,0,0
42273,-100,4,2,2,52,0,0
42999,-100,4,2,2,42,0,0
50257,-100,4,2,2,52,0,0
50741,-100,4,2,2,62,0,0
57999,-100,4,2,2,32,0,0
58483,-100,4,2,2,65,0,0
74148,-100,4,2,2,5,0,0
74209,-100,4,2,2,72,0,0
74632,-100,4,2,2,5,0,0
74693,-100,4,2,2,72,0,0
75116,-100,4,2,2,5,0,0
75177,-100,4,2,2,72,0,0
76084,-100,4,2,2,5,0,0
76144,-100,4,2,2,72,0,0
76568,-100,4,2,2,5,0,0
76628,-100,4,2,2,72,0,0
77052,-100,4,2,2,5,0,0
77112,-100,4,2,2,72,0,0
77535,-100,4,2,2,5,0,0
77596,-100,4,2,2,72,0,0
78019,-100,4,2,2,5,0,0
78080,-100,4,2,2,72,0,0
78503,-100,4,2,2,5,0,0
78564,-100,4,2,2,72,0,0
78987,-100,4,2,2,5,0,0
79048,-100,4,2,2,72,0,0
79471,-100,4,2,2,5,0,0
79531,-100,4,2,2,72,0,0
79955,-100,4,2,2,5,0,0
80015,-100,4,2,2,72,0,0
80197,-100,4,2,2,5,0,0
80257,-100,4,2,2,72,0,0
80439,-100,4,2,2,5,0,0
80499,-100,4,2,2,72,0,0
80681,-100,4,2,2,5,0,0
80741,-100,4,2,2,72,0,0
80923,-100,4,2,2,5,0,0
80983,-100,4,2,2,72,0,0
81164,-100,4,2,2,5,0,0
81225,-100,4,2,2,72,0,0
81890,-100,4,2,2,5,0,0
81951,-100,4,2,2,72,0,0
82374,-100,4,2,2,5,0,0
82435,-100,4,2,2,72,0,0
82858,-100,4,2,2,5,0,0
82918,-100,4,2,2,72,0,0
83342,-100,4,2,2,5,0,0
83402,-100,4,2,2,72,0,0
83826,-100,4,2,2,5,0,0
83886,-100,4,2,2,72,0,0
84310,-100,4,2,2,5,0,0
84370,-100,4,2,2,72,0,0
84793,-100,4,2,2,5,0,0
84854,-100,4,2,2,72,0,0
85580,-100,4,2,2,5,0,0
87515,-100,4,2,2,42,0,0
88967,-100,4,2,2,32,0,0
90418,-100,4,2,2,42,0,0
90902,-100,4,2,2,52,0,0
95257,-100,4,2,2,32,0,0
98644,-100,4,2,2,52,0,0

[Colours]
Combo1 : 129,98,157
Combo2 : 92,199,218
Combo3 : 255,128,128
Combo4 : 108,137,213

[HitObjects]
48,96,418,6,0,L|40:56,2,38.3333333333333,8|8|8,3:0|3:0|3:0,0:0:0:0:
128,156,660,2,0,L|116:220,1,57.5,8|0,0:0|1:0,0:0:0:0:
36,268,902,1,8,0:0:0:0:
103,339,1023,2,0,P|159:352|210:329,1,115
256,240,1386,1,8,0:0:0:0:
160,116,1628,2,0,L|148:68,3,28.75,4|0|0|0,3:0|0:0|0:0|0:0,0:0:0:0:
148,52,1870,2,0,L|240:68,2,76.6666666666666,8|8|8,0:0|0:0|0:0,0:0:0:0:
68,104,2354,5,6,1:0:0:0:
236,144,5499,6,0,L|176:152,1,57.5,0|0,0:0|0:0,0:0:0:0:
104,204,5741,2,0,B|88:168|88:168|92:128,2,76.6666666666666,10|8|8,0:0|0:0|0:0,0:0:0:0:
188,236,6225,6,0,L|172:352,1,115,6|0,1:0|0:0,0:0:0:0:
264,332,6588,2,0,L|279:218,1,115,2|0,0:0|0:0,0:0:0:0:
244,140,6951,1,2,0:0:0:0:
244,140,7314,2,0,L|188:152,2,57.5,2|2|2,0:0|0:0|0:0,0:0:0:0:
320,76,7677,2,0,L|436:92,1,115,2|2,0:0|0:0,0:0:0:0:
436,92,8160,6,0,L|424:152,1,57.5,2|0,1:0|0:0,0:0:0:0:
488,212,8402,2,0,L|476:272,1,57.5,10|0,0:0|0:0,0:0:0:0:
416,336,8644,1,8,0:0:0:0:
343,267,8765,2,0,P|288:257|240:287,1,115,0|0,0:0|1:0,0:0:0:0:
168,352,9128,2,0,L|44:336,1,115,8|4,0:0|3:0,0:0:0:0:
8,256,9491,1,0,0:0:0:0:
8,256,9612,2,0,L|16:168,2,76.6666666666667,10|10|10,0:0|0:0|0:0,0:0:0:0:
100,232,10096,6,0,L|108:112,1,115,6|0,1:0|0:0,0:0:0:0:
203,85,10459,2,0,L|196:200,1,115,2|0,0:0|0:0,0:0:0:0:
256,276,10822,1,2,0:0:0:0:
192,344,10943,1,2,1:0:0:0:
280,368,11064,2,0,L|348:352,1,57.5,0|2,0:0|0:0,0:0:0:0:
464,308,11306,2,0,L|408:294,1,57.5,2|2,0:0|0:0,0:0:0:0:
343,227,11548,2,0,P|320:176|326:120,1,115,10|2,0:0|0:0,0:0:0:0:
326,120,12031,6,0,L|208:144,1,115,2|2,1:0|0:0,0:0:0:0:
155,215,12394,2,0,P|126:167|128:111,1,115,2|0,0:0|0:0,0:0:0:0:
200,48,12757,1,2,0:0:0:0:
116,12,12878,1,2,1:0:0:0:
200,48,12999,2,0,L|260:36,1,57.5,0|2,0:0|0:0,0:0:0:0:
344,40,13241,2,0,L|400:51,1,57.5,2|0,1:0|0:0,0:0:0:0:
481,103,13483,2,0,L|492:28,2,76.6666666666667,8|10|8,0:0|0:0|0:0,0:0:0:0:
395,148,13967,6,0,P|380:202|391:258,1,115,6|2,1:0|0:0,0:0:0:0:
320,324,14330,2,0,L|192:304,1,115,2|0,0:0|0:0,0:0:0:0:
131,256,14693,2,0,P|121:282|119:311,1,57.5,2|2,0:0|1:0,0:0:0:0:
216,216,14935,1,0,0:0:0:0:
215,216,15056,2,0,P|228:160|217:104,1,115,2|2,0:0|0:0,0:0:0:0:
144,48,15418,2,0,L|24:64,1,115,10|2,0:0|1:0,0:0:0:0:
30,63,15902,6,0,L|40:120,1,57.5,2|8,1:0|0:0,0:0:0:0:
100,188,16144,2,0,L|90:244,1,57.5,8|2,0:0|1:0,0:0:0:0:
24,308,16386,1,8,0:0:0:0:
24,308,16507,2,0,P|71:337|127:328,1,115,0|8,3:0|3:0,0:0:0:0:
200,272,16870,2,0,L|260:280,1,57.5,0|4,0:0|3:0,0:0:0:0:
328,344,17112,2,0,L|384:336,1,57.5,0|0,3:0|3:0,0:0:0:0:
463,271,17354,1,8,0:0:0:0:
463,271,17838,6,0,P|448:217|456:160,1,115,6|0,1:0|3:0,0:0:0:0:
308,32,18322,2,0,P|316:88|300:143,1,115,10|2,0:0|3:0,0:0:0:0:
192,216,18806,2,0,L|76:196,1,115,0|0,1:0|3:0,0:0:0:0:
6,336,19289,2,0,L|120:356,1,115,8|2,0:0|3:0,0:0:0:0:
288,376,19773,6,0,P|272:320|284:260,1,115,2|0,1:0|3:0,0:0:0:0:
372,168,20257,2,0,L|488:184,1,115,10|2,0:0|3:0,0:0:0:0:
425,51,20741,2,0,L|312:36,1,115,0|2,1:0|3:0,0:0:0:0:
232,88,21104,2,0,L|118:72,1,115,0|0,0:0|0:0,0:0:0:0:
36,128,21467,1,2,3:0:0:0:
36,128,21709,6,0,P|52:182|37:237,1,115,2|0,1:0|3:0,0:0:0:0:
192,360,22193,2,0,P|177:305|193:250,1,115,10|2,0:0|3:0,0:0:0:0:
308,152,22677,2,0,L|436:168,1,115,0|0,1:0|3:0,0:0:0:0:
512,36,23160,2,0,L|397:21,1,115,8|2,0:0|3:0,0:0:0:0:
204,124,23644,6,0,P|148:128|104:92,1,115,6|0,1:0|3:0,0:0:0:0:
176,48,24007,1,2,0:0:0:0:
204,124,24128,2,0,L|192:240,1,115,8|2,0:0|3:0,0:0:0:0:
116,300,24491,1,0,0:0:0:0:
204,340,24612,2,0,L|264:332,1,57.5,0|8,1:0|0:0,0:0:0:0:
328,271,24854,2,0,P|356:275|383:285,1,57.5,0|4,0:0|3:0,0:0:0:0:
464,348,25096,2,0,L|484:216,1,115,10|4,0:0|3:0,0:0:0:0:
376,28,25580,6,0,L|392:144,1,115,6|0,1:0|3:0,0:0:0:0:
232,244,26064,2,0,L|247:130,1,115,10|2,0:0|3:0,0:0:0:0:
92,40,26548,2,0,L|108:156,1,115,2|0,1:0|3:0,0:0:0:0:
104,360,27031,2,0,P|147:325|202:333,1,115,10|0,0:0|3:0,0:0:0:0:
352,376,27515,6,0,L|368:260,1,115,2|0,1:0|3:0,0:0:0:0:
280,84,27999,2,0,L|264:197,1,115,10|2,0:0|3:0,0:0:0:0:
159,288,28483,2,0,P|104:295|55:266,1,115,2|2,1:0|3:0,0:0:0:0:
4,192,28846,2,0,B|20:136|20:136|4:76,1,115,2|0,0:0|0:0,0:0:0:0:
76,24,29209,1,2,3:0:0:0:
76,24,29451,6,0,L|196:48,1,115,6|0,1:0|3:0,0:0:0:0:
336,123,29935,2,0,P|359:72|348:17,1,115,10|2,0:0|1:0,0:0:0:0:
192,184,30418,2,0,L|212:304,1,115,2|2,1:0|1:0,0:0:0:0:
366,369,30902,2,0,L|348:256,1,115,10|2,0:0|3:0,0:0:0:0:
192,183,31386,6,0,P|138:199|87:174,1,115,6|0,1:0|1:0,0:0:0:0:
96,80,31749,2,0,P|149:64|200:89,1,115,2|0,1:0|0:0,0:0:0:0:
280,144,32112,2,0,P|292:112|292:88,1,57.5,2|8,3:0|0:0,0:0:0:0:
352,20,32354,2,0,L|416:32,1,57.5,0|8,1:0|0:0,0:0:0:0:
504,108,32596,2,0,L|440:120,1,57.5,10|0,0:0|0:0,0:0:0:0:
384,192,32838,2,0,L|400:272,2,76.6666666666667,10|8|8,0:0|0:0|0:0,0:0:0:0:
256,192,33322,12,2,35257,0:0:0:0:
60,104,42273,6,0,L|32:92,2,28.75,2|0|0,0:0|0:0|0:0,0:0:0:0:
40,188,42515,2,0,L|56:264,2,76.6666666666667,10|8|8,0:0|0:0|0:0,0:0:0:0:
168,160,42999,6,0,L|296:144,1,115,6|0,1:0|0:0,0:0:0:0:
340,84,43362,1,2,0:0:0:0:
339,83,43483,2,0,P|363:135|351:190,1,115,0|0,3:0|0:0,0:0:0:0:
292,252,43846,2,0,L|172:240,1,115,0|0,0:0|0:0,0:0:0:0:
112,296,44209,1,2,0:0:0:0:
112,296,44451,2,0,L|128:356,2,57.5,2|2|0,3:0|0:0|0:0,0:0:0:0:
35,244,44814,6,0,P|52:189|35:135,1,115,2|0,0:0|0:0,0:0:0:0:
100,68,45177,2,0,L|216:92,1,115,2|2,0:0|3:0,0:0:0:0:
300,64,45539,2,0,P|304:36|300:8,1,57.5,2|0,0:0|0:0,0:0:0:0:
280,160,45781,2,0,L|400:148,1,115,2|0,0:0|0:0,0:0:0:0:
468,212,46144,2,0,L|452:276,1,57.5,2|0,0:0|0:0,0:0:0:0:
392,332,46386,2,0,P|335:325|296:285,1,115,0|2,3:0|0:0,0:0:0:0:
296,285,46870,6,0,L|176:300,1,115,6|2,1:0|0:0,0:0:0:0:
108,356,47233,1,0,0:0:0:0:
40,288,47354,2,0,P|36:256|40:228,1,57.5,2|0,3:0|0:0,0:0:0:0:
104,168,47596,2,0,P|108:136|104:108,1,57.5,2|0,0:0|0:0,0:0:0:0:
40,40,47838,2,0,L|160:24,1,115,2|2,0:0|0:0,0:0:0:0:
224,76,48201,1,0,0:0:0:0:
224,76,48322,2,0,L|344:60,1,115,0|2,3:0|0:0,0:0:0:0:
337,60,48806,6,0,P|323:115|342:169,2,115,2|2|0,0:0|0:0|0:0,0:0:0:0:
412,112,49410,1,0,0:0:0:0:
412,112,49531,2,0,L|480:104,1,57.5,2|0,0:0|0:0,0:0:0:0:
340,168,49773,2,0,L|220:148,1,115,0|2,0:0|1:0,0:0:0:0:
152,204,50136,1,2,1:0:0:0:
152,204,50257,2,0,L|168:288,2,76.6666666666667,10|8|8,0:0|0:0|0:0,0:0:0:0:
67,168,50741,6,0,P|84:113|67:59,1,115,6|2,1:0|3:0,0:0:0:0:
144,16,51104,1,0,0:0:0:0:
144,16,51225,2,0,L|264:28,1,115,10|2,0:0|3:0,0:0:0:0:
324,92,51588,1,0,0:0:0:0:
324,92,51709,2,0,L|384:104,1,57.5,2|0,1:0|0:0,0:0:0:0:
476,92,51951,2,0,L|464:152,1,57.5,2|0,3:0|0:0,0:0:0:0:
376,200,52193,2,0,L|248:168,1,115,10|2,0:0|3:0,0:0:0:0:
264,172,52677,6,0,L|276:232,1,57.5,2|2,1:0|0:0,0:0:0:0:
208,352,52918,2,0,L|218:295,1,57.5,2|0,3:0|0:0,0:0:0:0:
311,311,53160,2,0,P|365:331|422:326,1,115,10|0,0:0|0:0,0:0:0:0:
492,272,53523,1,0,0:0:0:0:
492,272,53644,2,0,L|480:152,1,115,2|2,1:0|3:0,0:0:0:0:
416,92,54007,1,0,0:0:0:0:
336,140,54128,2,0,P|304:136|272:124,1,57.5,10|0,0:0|0:0,0:0:0:0:
208,64,54370,2,0,L|152:72,1,57.5,2|0,3:0|0:0,0:0:0:0:
72,132,54612,6,0,P|88:184|72:244,1,115,2|2,1:0|3:0,0:0:0:0:
132,312,54975,1,0,0:0:0:0:
132,312,55096,2,0,L|248:304,1,115,10|2,0:0|3:0,0:0:0:0:
248,304,55580,6,0,L|256:244,1,57.5,2|0,1:0|0:0,0:0:0:0:
192,188,55822,2,0,L|200:128,1,57.5,2|0,3:0|0:0,0:0:0:0:
259,63,56064,1,10,0:0:0:0:
259,63,56185,2,0,P|307:94|364:95,1,115,0|0,0:0|0:0,0:0:0:0:
464,96,56548,6,0,L|452:216,1,115,6|4,1:0|3:0,0:0:0:0:
407,292,56910,2,0,P|351:292|302:263,1,115,10|6,3:0|3:0,0:0:0:0:
244,192,57273,2,0,L|256:128,1,57.5,6|2,3:0|1:0,0:0:0:0:
204,64,57515,1,10,0:0:0:0:
36,168,57757,1,8,0:0:0:0:
36,168,58483,6,0,P|48:223|32:278,1,115,6|0,1:0|0:0,0:0:0:0:
96,344,58846,2,0,L|212:336,1,115,10|8,0:0|0:0,0:0:0:0:
284,280,59209,2,0,L|400:272,1,115,2|0,0:0|1:0,0:0:0:0:
472,220,59572,1,8,0:0:0:0:
472,220,59693,2,0,P|480:192|480:164,1,57.5,2|8,0:0|0:0,0:0:0:0:
412,92,59935,2,0,L|296:104,1,115,2|2,1:0|0:0,0:0:0:0:
143,184,60418,6,0,P|87:183|48:144,1,115,2|0,1:0|0:0,0:0:0:0:
124,108,60781,1,8,0:0:0:0:
200,124,60902,2,0,P|224:174|208:227,1,115,0|0,1:0|1:0,0:0:0:0:
140,280,61265,1,10,0:0:0:0:
140,280,61386,2,0,L|80:268,1,57.5,0|8,1:0|0:0,0:0:0:0:
200,344,61628,2,0,L|264:336,1,57.5,2|8,0:0|0:0,0:0:0:0:
320,272,61870,2,0,L|436:288,1,115,2|0,1:0|0:0,0:0:0:0:
433,287,62354,6,0,P|416:228|428:176,1,115,2|0,1:0|0:0,0:0:0:0:
492,108,62717,2,0,L|372:92,1,115,10|8,0:0|0:0,0:0:0:0:
291,111,63080,2,0,P|288:83|295:56,1,57.5,2|8,0:0|0:0,0:0:0:0:
378,92,63322,2,0,L|354:204,1,115,0|2,1:0|1:0,0:0:0:0:
288,260,63685,1,8,0:0:0:0:
288,260,63806,2,0,P|239:231|183:240,1,115,2|2,1:0|1:0,0:0:0:0:
183,240,64289,6,0,B|208:156|208:156|176:76,1,172.5,2|8,1:0|0:0,0:0:0:0:
244,24,64773,2,0,L|288:136,1,115,2|0,1:0|0:0,0:0:0:0:
360,180,65136,1,8,0:0:0:0:
360,180,65257,2,0,L|352:236,1,57.5,2|10,1:0|0:0,0:0:0:0:
272,324,65499,2,0,L|256:260,1,57.5,0|8,0:0|0:0,0:0:0:0:
188,204,65741,2,0,P|132:192|83:219,1,115,2|2,1:0|1:0,0:0:0:0:
83,219,66225,6,0,L|100:104,1,115,6|0,1:0|0:0,0:0:0:0:
167,39,66588,2,0,P|210:77|266:81,1,115,10|8,0:0|0:0,0:0:0:0:
343,36,66951,2,0,P|427:30|481:93,1,172.5,2|8,0:0|0:0,0:0:0:0:
404,172,67435,2,0,L|392:116,1,57.5,2|8,0:0|0:0,0:0:0:0:
308,172,67677,2,0,L|336:284,1,115,2|2,1:0|1:0,0:0:0:0:
335,283,68160,6,0,P|253:268|190:322,1,172.5,2|8,1:0|0:0,0:0:0:0:
111,368,68644,2,0,P|56:362|18:320,1,115,0|2,1:0|0:0,0:0:0:0:
16,232,69007,1,8,0:0:0:0:
16,232,69128,2,0,L|28:176,1,57.5,0|8,1:0|0:0,0:0:0:0:
112,144,69370,2,0,L|124:88,1,57.5,2|8,1:0|0:0,0:0:0:0:
92,7,69612,2,0,P|148:2|193:35,1,115,2|2,1:0|1:0,0:0:0:0:
192,36,70096,6,0,L|308:28,1,115,2|0,1:0|0:0,0:0:0:0:
375,92,70459,2,0,P|367:148|381:203,1,115,10|8,0:0|0:0,0:0:0:0:
444,280,70822,2,0,L|504:272,1,57.5,2|8,0:0|0:0,0:0:0:0:
368,340,71064,2,0,L|252:324,1,115,0|2,1:0|0:0,0:0:0:0:
176,368,71427,1,8,0:0:0:0:
176,368,71548,2,0,L|56:352,1,115,2|2,1:0|1:0,0:0:0:0:
62,352,72031,6,0,L|72:296,1,57.5,2|8,1:0|0:0,0:0:0:0:
16,220,72273,2,0,L|25:163,1,57.5,0|8,1:0|0:0,0:0:0:0:
96,96,72515,2,0,B|156:88|156:88|200:120,1,115,10|10,0:0|0:0,0:0:0:0:
268,176,72878,1,10,0:0:0:0:
348,140,72999,2,0,P|360:84|344:28,2,115,0|4|2,0:0|3:0|1:0,0:0:0:0:
344,232,73604,1,8,0:0:0:0:
344,232,73725,2,0,L|408:228,1,57.5,2|8,1:0|0:0,0:0:0:0:
464,164,73967,6,0,P|488:216|472:280,1,115,2|8,1:0|0:0,0:0:0:0:
412,328,74330,2,0,L|292:312,1,115,2|0,0:0|0:0,0:0:0:0:
216,352,74693,2,0,L|148:340,1,57.5,10|0,0:0|0:0,0:0:0:0:
88,288,74935,2,0,P|72:228|88:176,2,115,0|10|2,1:0|0:0|1:0,0:0:0:0:
256,192,75660,1,10,0:0:0:0:
256,192,75902,6,0,L|376:204,1,115,2|8,1:0|0:0,0:0:0:0:
444,264,76265,1,0,0:0:0:0:
444,264,76386,2,0,P|464:208|448:152,1,115,0|10,1:0|0:0,0:0:0:0:
452,156,76870,2,0,L|460:100,1,57.5,0|0,1:0|0:0,0:0:0:0:
384,24,77112,2,0,L|376:80,1,57.5,10|0,0:0|0:0,0:0:0:0:
295,120,77354,2,0,P|241:130|196:97,1,115,2|10,1:0|0:0,0:0:0:0:
196,97,77838,6,0,L|216:216,1,115,2|8,1:0|0:0,0:0:0:0:
184,296,78201,2,0,P|240:300|288:260,1,115,0|0,0:0|0:0,0:0:0:0:
348,196,78564,2,0,L|412:204,1,57.5,10|0,0:0|0:0,0:0:0:0:
472,268,78806,2,0,P|495:216|488:160,1,115,0|10,1:0|0:0,0:0:0:0:
432,88,79168,1,0,0:0:0:0:
432,88,79289,2,0,L|312:104,1,115,2|10,1:0|0:0,0:0:0:0:
151,188,79773,6,0,P|69:193|24:124,1,172.5,2|0,1:0|0:0,0:0:0:0:
203,111,80257,2,0,P|236:158|234:214,1,115,2|12,1:0|0:0,0:0:0:0:
164,272,80620,1,0,0:0:0:0:
224,336,80741,2,0,L|340:328,1,115,2|12,1:0|0:0,0:0:0:0:
408,276,81104,1,0,0:0:0:0:
408,276,81225,2,0,P|416:244|412:216,1,57.5,2|0,1:0|0:0,0:0:0:0:
348,156,81467,2,0,P|345:127|353:99,1,57.5,10|8,0:0|0:0,0:0:0:0:
420,64,81709,6,0,L|308:40,1,115,6|12,1:0|0:0,0:0:0:0:
236,96,82072,2,0,L|124:72,1,115,2|0,0:0|0:0,0:0:0:0:
48,132,82435,2,0,P|83:208|51:285,1,172.5,14|0,0:0|0:0,0:0:0:0:
120,360,82918,2,0,L|240:348,2,115,14|2|14,0:0|1:0|0:0,0:0:0:0:
232,208,83644,6,0,L|352:228,1,115,2|12,1:0|0:0,0:0:0:0:
404,296,84007,1,0,0:0:0:0:
403,296,84128,2,0,P|433:247|427:191,1,115,0|14,1:0|0:0,0:0:0:0:
427,191,84612,2,0,L|436:132,1,57.5,0|0,1:0|0:0,0:0:0:0:
368,24,84854,2,0,L|359:80,1,57.5,14|0,0:0|0:0,0:0:0:0:
280,123,85096,2,0,P|225:136|181:102,1,115,6|12,3:0|3:0,0:0:0:0:
152,24,85459,1,4,3:0:0:0:
72,72,85580,6,0,B|88:128|88:128|24:144|20:212|20:212|88:196|136:236|136:300,1,345,6|10,1:0|3:0,0:0:0:0:
136,300,86548,2,0,L|256:288,1,115,4|0,1:0|0:0,0:0:0:0:
328,340,86910,1,8,0:0:0:0:
328,340,87031,2,0,P|344:288|324:232,1,115,10|10,0:0|0:0,0:0:0:0:
216,100,87515,6,0,L|96:112,1,115,6|2,1:0|0:0,0:0:0:0:
40,208,87878,2,0,L|160:196,1,115,2|0,0:0|0:0,0:0:0:0:
220,260,88241,2,0,L|204:320,1,57.5,2|0,0:0|0:0,0:0:0:0:
284,368,88483,5,0,1:0:0:0:
284,368,88604,2,0,L|312:256,2,115,0|0|4,0:0|0:0|3:0,0:0:0:0:
204,316,89209,1,6,3:0:0:0:
116,360,89330,1,4,3:0:0:0:
32,308,89451,6,0,B|0:252|28:192|28:192|116:240|200:176|164:80,1,345,6|2,1:0|0:0,0:0:0:0:
169,96,90418,2,0,L|292:120,1,115,6|0,1:0|0:0,0:0:0:0:
356,188,90781,1,0,0:0:0:0:
355,188,90902,2,0,P|379:136|370:80,2,115,6|0|6,1:0|0:0|1:0,0:0:0:0:
256,192,91447,12,2,94773,0:0:0:0:
4,140,95257,6,0,L|116:184,1,115,6|2,1:0|0:0,0:0:0:0:
176,260,95620,2,0,P|208:216|208:156,1,115,2|0,0:0|0:0,0:0:0:0:
144,84,95983,2,0,L|88:64,1,57.5,2|2,0:0|1:0,0:0:0:0:
176,260,96346,2,0,L|244:248,1,57.5,2|2,0:0|1:0,0:0:0:0:
304,308,96588,1,0,0:0:0:0:
387,256,96709,2,0,P|400:200|386:144,1,115,10|2,0:0|1:0,0:0:0:0:
388,144,97193,6,0,L|272:168,1,115,2|2,1:0|0:0,0:0:0:0:
192,124,97556,2,0,P|168:72|176:16,1,115,2|0,0:0|0:0,0:0:0:0:
256,60,97918,1,2,1:0:0:0:
256,60,98039,1,2,1:0:0:0:
128,232,98281,2,0,L|60:216,2,57.5,2|2|0,0:0|1:0|0:0,0:0:0:0:
200,300,98644,6,0,L|292:288,2,76.6666666666667,8|8|8,0:0|0:0|0:0,0:0:0:0:
