osu file format v14

[General]
AudioFilename: audio.mp3
AudioLeadIn: 0
PreviewTime: 73423
Countdown: 0
SampleSet: Soft
StackLeniency: 0.3
Mode: 0
LetterboxInBreaks: 0
WidescreenStoryboard: 0

[Editor]
DistanceSpacing: 1
BeatDivisor: 4
GridSize: 8
TimelineZoom: 4.099998

[Metadata]
Title:MIDNIGHT
TitleUnicode:MIDNIGHT
Artist:SPYAIR
ArtistUnicode:SPYAIR
Creator:Monstrata
Version:DARK
Source:
Tags:habiholic sotarks akitoshi corinn alternate alternator high bpm jrock jpop
BeatmapID:1459621
BeatmapSetID:689544

[Difficulty]
HPDrainRate:4
CircleSize:4
OverallDifficulty:8
ApproachRate:9.5
SliderMultiplier:3.4
SliderTickRate:1

[Events]
//Background and Video events
0,0,"wallhaven-33430.jpg",0,0
//Break Periods
2,2554,5055
2,33522,34732
//Storyboard Layer 0 (Background)
//Storyboard Layer 1 (Fail)
//Storyboard Layer 2 (Pass)
//Storyboard Layer 3 (Foreground)
//Storyboard Sound Samples

[TimingPoints]
419,483.870967741935,4,2,2,42,1,0
419,-200,4,2,2,42,0,0
660,-200,4,2,2,52,0,0
2354,-200,4,2,2,32,0,0
5741,-200,4,2,2,52,0,0
6225,-200,4,2,2,42,0,0
8160,-200,4,2,2,52,0,0
9773,-166.666666666667,4,2,2,52,0,0
9935,-142.857142857143,4,2,2,52,0,0
10096,-133.333333333333,4,2,2,52,0,0
17838,-100,4,2,2,62,0,0
33322,-100,4,2,2,32,0,0
35257,-200,4,2,2,32,0,0
42273,-200,4,2,2,52,0,0
42999,-133.333333333333,4,2,2,42,0,0
50257,-100,4,2,2,52,0,0
50741,-100,4,2,2,62,0,0
57999,-133.333333333333,4,2,2,32,0,0
58483,-100,4,2,2,65,0,1
65741,-100,4,2,2,65,0,1
74148,-100,4,2,2,5,0,1
74209,-100,4,2,2,72,0,1
74632,-100,4,2,2,5,0,1
74693,-100,4,2,2,72,0,1
75116,-100,4,2,2,5,0,1
75177,-100,4,2,2,72,0,1
76084,-100,4,2,2,5,0,1
76144,-100,4,2,2,72,0,1
76568,-100,4,2,2,5,0,1
76628,-100,4,2,2,72,0,1
77052,-100,4,2,2,5,0,1
77112,-100,4,2,2,72,0,1
77535,-100,4,2,2,5,0,1
77596,-100,4,2,2,72,0,1
78019,-100,4,2,2,5,0,1
78080,-100,4,2,2,72,0,1
78503,-100,4,2,2,5,0,1
78564,-100,4,2,2,72,0,1
78987,-100,4,2,2,5,0,1
79048,-100,4,2,2,72,0,1
79471,-100,4,2,2,5,0,1
79531,-100,4,2,2,72,0,1
79955,-100,4,2,2,5,0,1
80015,-100,4,2,2,72,0,1
80197,-100,4,2,2,5,0,1
80257,-80,4,2,2,72,0,1
80439,-80,4,2,2,5,0,1
80499,-80,4,2,2,72,0,1
80681,-80,4,2,2,5,0,1
80741,-66.6666666666667,4,2,2,72,0,1
80923,-66.6666666666667,4,2,2,5,0,1
80983,-66.6666666666667,4,2,2,72,0,1
81164,-66.6666666666667,4,2,2,5,0,1
81225,-100,4,2,2,72,0,1
81890,-100,4,2,2,5,0,1
81951,-100,4,2,2,72,0,1
82374,-100,4,2,2,5,0,1
82435,-100,4,2,2,72,0,1
82858,-100,4,2,2,5,0,1
82918,-100,4,2,2,72,0,1
83342,-100,4,2,2,5,0,1
83402,-100,4,2,2,72,0,1
83826,-100,4,2,2,5,0,1
83886,-100,4,2,2,72,0,1
84310,-100,4,2,2,5,0,1
84370,-100,4,2,2,72,0,1
84793,-100,4,2,2,5,0,1
84854,-100,4,2,2,72,0,1
85580,-138.888888888889,4,2,2,52,0,0
87515,-138.888888888889,4,2,2,42,0,0
88967,-138.888888888889,4,2,2,32,0,0
89451,-192.307692307692,4,2,2,32,0,0
90418,-192.307692307692,4,2,2,42,0,0
90902,-192.307692307692,4,2,2,52,0,0
95257,-192.307692307692,4,2,2,32,0,0
98644,-192.307692307692,4,2,2,52,0,0

[Colours]
Combo1 : 129,98,157
Combo2 : 92,199,218
Combo3 : 255,128,128
Combo4 : 108,137,213

[HitObjects]
169,172,419,6,0,L|179:226,2,28.3333333333333,8|0|0,3:0|0:0|0:0,0:0:0:0:
122,75,660,2,0,L|113:129,2,42.5,8|0|8,0:0|1:0|0:0,0:0:0:0:
199,98,1023,6,0,L|271:93,1,42.5,8|0,3:0|0:0,0:0:0:0:
296,161,1265,1,8,3:0:0:0:
198,275,1386,2,0,L|156:272,1,42.5,8|0,0:0|0:0,0:0:0:0:
345,302,1628,2,0,L|364:354,2,28.3333333333333,4|0|0,3:0|0:0|0:0,0:0:0:0:
281,245,1870,6,0,L|271:300,2,56.6666666666667,8|8|8,0:0|0:0|0:0,0:0:0:0:
105,331,2354,5,6,1:0:0:0:
201,244,5580,6,0,L|249:222,1,28.3333333333333,0|0,0:0|0:0,0:0:0:0:
301,142,5741,5,10,0:0:0:0:
140,186,5902,1,8,0:0:0:0:
261,304,6064,1,8,0:0:0:0:
301,142,6225,6,0,L|308:73,1,42.5,6|0,1:0|0:0,0:0:0:0:
386,127,6467,1,0,0:0:0:0:
400,212,6588,2,0,P|438:195|465:162,1,85,2|0,0:0|0:0,0:0:0:0:
316,227,6951,6,0,L|306:312,1,85,2|0,0:0|0:0,0:0:0:0:
226,198,7314,2,0,L|232:259,2,42.5,2|2|2,0:0|0:0|0:0,0:0:0:0:
305,99,7677,2,0,L|300:141,1,42.5,2|0,0:0|0:0,0:0:0:0:
225,0,7918,2,0,L|229:42,1,42.5,2|0,0:0|0:0,0:0:0:0:
120,60,8160,6,0,L|148:56,2,28.3333333333333,2|0|0,1:0|0:0|0:0,0:0:0:0:
109,141,8402,2,0,L|104:183,2,28.3333333333333,10|0|0,0:0|0:0|0:0,0:0:0:0:
28,129,8644,1,8,0:0:0:0:
40,48,8765,2,0,L|35:5,1,42.5,0|2,0:0|0:0,0:0:0:0:
226,198,9007,1,0,1:0:0:0:
297,102,9128,6,0,L|293:145,1,42.5,8|0,0:0|0:0,0:0:0:0:
159,251,9370,2,0,L|164:298,2,28.3333333333333,4|0|0,3:0|0:0|0:0,0:0:0:0:
305,229,9612,6,0,L|349:209,1,28.3333333333333,10|0,0:0|0:0,0:0:0:0:
332,305,9773,2,0,L|379:297,1,33.9999989624024,10|0,0:0|0:0,0:0:0:0:
340,385,9935,2,0,L|387:390,1,39.6666654561361,10|0,0:0|0:0,0:0:0:0:
252,290,10096,6,0,P|220:291|191:304,1,63.7500024318696,6|0,1:0|0:0,0:0:0:0:
113,276,10338,1,0,0:0:0:0:
113,276,10459,2,0,P|115:339|160:382,1,127.500004863739,2|0,0:0|0:0,0:0:0:0:
177,223,10822,5,2,0:0:0:0:
177,223,10943,2,0,P|175:191|162:162,1,63.7500024318696,2|0,1:0|0:0,0:0:0:0:
18,143,11185,1,2,0:0:0:0:
18,143,11306,2,0,P|46:158|78:161,1,63.7500024318696,2|2,0:0|0:0,0:0:0:0:
228,101,11548,6,0,P|256:86|287:83,1,63.7500024318696,10|0,0:0|0:0,0:0:0:0:
338,183,11789,2,0,P|307:180|279:166,1,63.7500024318696,2|0,0:0|0:0,0:0:0:0:
481,96,12031,6,0,L|494:197,1,63.7500024318696,2|0,1:0|0:0,0:0:0:0:
418,203,12273,1,2,0:0:0:0:
418,203,12394,2,0,L|399:58,1,127.500004863739,2|0,0:0|0:0,0:0:0:0:
362,262,12757,5,2,0:0:0:0:
362,262,12878,2,0,P|389:280|420:285,1,63.7500024318696,2|0,1:0|0:0,0:0:0:0:
284,292,13120,5,2,0:0:0:0:
284,292,13241,2,0,P|266:319|261:350,1,63.7500024318696,2|0,1:0|0:0,0:0:0:0:
258,371,13483,5,8,0:0:0:0:
161,164,13644,1,10,0:0:0:0:
388,183,13806,1,8,0:0:0:0:
228,51,13967,6,0,L|118:62,1,63.7500024318696,6|0,1:0|0:0,0:0:0:0:
161,164,14209,1,2,0:0:0:0:
161,164,14330,2,0,L|25:150,1,127.500004863739,2|0,0:0|0:0,0:0:0:0:
110,239,14693,5,2,0:0:0:0:
110,239,14814,2,0,P|123:267|123:299,1,63.7500024318696,2|0,1:0|0:0,0:0:0:0:
26,345,15056,1,2,0:0:0:0:
26,345,15177,2,0,P|26:313|40:285,1,63.7500024318696,2|2,1:0|0:0,0:0:0:0:
161,372,15418,6,0,L|265:382,1,63.7500024318696,10|0,0:0|0:0,0:0:0:0:
316,228,15660,2,0,L|420:238,1,63.7500024318696,2|0,1:0|0:0,0:0:0:0:
277,8,15902,5,2,1:0:0:0:
233,77,16023,2,0,P|262:88|294:87,1,63.7500024318696,8|8,0:0|0:0,0:0:0:0:
156,228,16265,5,2,1:0:0:0:
112,158,16386,2,0,P|141:146|173:147,1,63.7500024318696,8|0,0:0|3:0,0:0:0:0:
211,291,16628,5,0,0:0:0:0:
281,335,16749,2,0,P|292:305|291:273,1,63.7500024318696,8|0,3:0|0:0,0:0:0:0:
128,307,16991,5,4,3:0:0:0:
54,345,17112,2,0,P|74:369|101:384,1,63.7500024318696,0|0,3:0|3:0,0:0:0:0:
173,147,17354,6,0,P|141:146|112:158,1,63.7500024318696,8|0,0:0|0:0,0:0:0:0:
238,208,17838,6,0,L|406:183,1,170,6|0,1:0|3:0,0:0:0:0:
437,103,18201,1,0,0:0:0:0:
381,40,18322,2,0,P|357:74|353:116,1,85,10|0,0:0|0:0,0:0:0:0:
465,245,18564,6,0,P|488:167|437:103,2,170,2|0|0,3:0|1:0|3:0,0:0:0:0:
123,294,19289,2,0,P|127:252|150:217,1,85,8|0,0:0|0:0,0:0:0:0:
267,101,19531,2,0,L|279:185,1,85,2|0,3:0|0:0,0:0:0:0:
303,354,19773,6,0,L|58:389,1,170,2|0,1:0|3:0,0:0:0:0:
292,270,20136,1,0,0:0:0:0:
370,303,20257,2,0,P|375:261|360:221,1,85,10|0,0:0|0:0,0:0:0:0:
352,140,20499,2,0,P|346:181|361:221,1,85,2|0,3:0|0:0,0:0:0:0:
427,172,20741,6,0,L|240:197,1,170,0|2,1:0|3:0,0:0:0:0:
188,146,21104,1,0,0:0:0:0:
268,113,21225,2,0,P|273:154|258:194,1,85,10|0,0:0|0:0,0:0:0:0:
108,179,21467,2,0,P|102:137|117:97,1,85,2|0,3:0|0:0,0:0:0:0:
181,232,21709,6,0,P|206:264|336:234,1,170,2|0,1:0|3:0,0:0:0:0:
343,164,22072,1,0,0:0:0:0:
268,113,22193,2,0,P|253:152|258:194,1,85,10|0,0:0|0:0,0:0:0:0:
350,74,22435,6,0,B|466:51|466:51|526:73,2,170,2|0|0,3:0|1:0|3:0,0:0:0:0:
137,281,23160,2,0,L|21:304,1,85,8|0,0:0|0:0,0:0:0:0:
163,199,23402,2,0,P|198:222|218:258,1,85,2|0,3:0|0:0,0:0:0:0:
25,154,23644,6,0,P|48:76|127:55,1,170,6|0,1:0|3:0,0:0:0:0:
107,136,24007,1,2,0:0:0:0:
137,281,24128,2,0,L|153:364,1,85,8|0,0:0|0:0,0:0:0:0:
163,199,24370,6,0,L|79:215,1,85,2|0,3:0|0:0,0:0:0:0:
218,258,24612,1,0,1:0:0:0:
321,163,24733,6,0,L|348:82,1,85,8|0,0:0|0:0,0:0:0:0:
242,181,24975,1,4,3:0:0:0:
274,321,25096,2,0,L|330:384,1,85,10|0,0:0|0:0,0:0:0:0:
384,224,25338,2,0,L|301:241,1,85,4|4,3:0|3:0,0:0:0:0:
107,354,25580,6,0,L|355:304,1,170,6|0,1:0|3:0,0:0:0:0:
242,181,25943,1,2,0:0:0:0:
163,199,26064,2,0,L|79:215,1,85,10|0,0:0|0:0,0:0:0:0:
270,101,26306,6,0,P|324:162|301:241,2,170,2|2|0,3:0|1:0|3:0,0:0:0:0:
23,370,27031,2,0,L|106:353,1,85,10|0,0:0|0:0,0:0:0:0:
163,199,27273,2,0,L|79:215,1,85,0|2,3:0|0:0,0:0:0:0:
274,321,27515,6,0,L|440:354,1,170,2|0,1:0|3:0,0:0:0:0:
457,271,27878,1,2,0:0:0:0:
390,170,27999,2,0,L|373:254,1,85,10|0,0:0|0:0,0:0:0:0:
257,237,28241,2,0,L|273:320,1,85,2|0,3:0|0:0,0:0:0:0:
326,113,28483,6,0,P|380:85|476:171,1,170,2|2,1:0|3:0,0:0:0:0:
390,170,28846,1,2,0:0:0:0:
240,153,28967,2,0,P|201:173|169:234,1,85,10|0,0:0|0:0,0:0:0:0:
274,321,29209,2,0,P|313:301|345:240,1,85,2|0,3:0|0:0,0:0:0:0:
188,294,29451,6,0,L|21:260,1,170,6|0,1:0|3:0,0:0:0:0:
2,177,29814,1,2,0:0:0:0:
57,112,29935,2,0,P|82:147|86:189,1,85,10|0,0:0|0:0,0:0:0:0:
188,294,30177,6,0,L|222:127,2,170,2|2|2,1:0|1:0|1:0,0:0:0:0:
248,354,30781,1,0,1:0:0:0:
332,343,30902,2,0,L|416:333,1,85,10|0,0:0|0:0,0:0:0:0:
188,294,31144,2,0,L|103:304,1,85,2|0,3:0|0:0,0:0:0:0:
311,99,31386,6,0,P|376:178|321:270,1,170,6|0,1:0|1:0,0:0:0:0:
286,186,31749,1,2,1:0:0:0:
198,207,31870,2,0,P|160:188|137:152,1,85,8|0,0:0|0:0,0:0:0:0:
150,61,32112,5,2,3:0:0:0:
239,40,32233,2,0,P|242:82|223:120,1,85,8|0,0:0|1:0,0:0:0:0:
286,186,32475,1,8,0:0:0:0:
374,165,32596,2,0,P|355:127|322:101,1,85,10|0,0:0|0:0,0:0:0:0:
198,207,32838,5,10,0:0:0:0:
437,231,32999,1,8,0:0:0:0:
338,12,33160,1,8,0:0:0:0:
286,186,33322,5,2,1:0:0:0:
184,220,35257,6,0,L|281:202,1,85,2|2,0:0|0:0,0:0:0:0:
174,304,35620,1,2,0:0:0:0:
174,304,35741,2,0,L|222:295,1,42.5,0|0,0:0|0:0,0:0:0:0:
90,129,35983,1,2,0:0:0:0:
90,129,36467,1,2,0:0:0:0:
174,304,36709,2,0,L|222:295,1,42.5,2|2,0:0|0:0,0:0:0:0:
283,120,37072,1,2,0:0:0:0:
283,120,37193,6,0,L|267:205,1,85,2|0,0:0|0:0,0:0:0:0:
371,102,37556,1,2,0:0:0:0:
371,102,37677,2,0,L|350:208,1,85,2|2,0:0|0:0,0:0:0:0:
310,34,38039,2,0,L|410:9,1,85,2|0,0:0|0:0,0:0:0:0:
459,77,38402,2,0,L|449:128,1,42.5,2|2,0:0|0:0,0:0:0:0:
383,226,38644,2,0,L|483:201,1,85,2|2,0:0|0:0,0:0:0:0:
213,338,39128,6,0,L|313:313,1,85,2|2,0:0|0:0,0:0:0:0:
252,220,39491,1,0,0:0:0:0:
252,220,39612,2,0,L|294:231,1,42.5,2|0,0:0|0:0,0:0:0:0:
178,264,39854,2,0,L|136:274,1,42.5,2|0,0:0|0:0,0:0:0:0:
180,140,40096,2,0,L|180:183,1,42.5,2|0,0:0|0:0,0:0:0:0:
181,58,40338,1,2,0:0:0:0:
181,58,40822,1,2,0:0:0:0:
338,179,41064,6,0,P|375:158|417:157,1,85,2|0,0:0|0:0,0:0:0:0:
328,267,41427,1,2,0:0:0:0:
328,267,41548,2,0,P|345:279|356:297,1,42.5,0|0,0:0|0:0,0:0:0:0:
313,381,41789,2,0,P|276:360|234:359,1,85,2|0,0:0|0:0,0:0:0:0:
152,163,42273,6,0,L|159:209,2,28.3333333333333,2|0|0,0:0|0:0|0:0,0:0:0:0:
206,99,42515,2,0,P|234:97|262:104,2,56.6666666666667,10|8|8,0:0|0:0|0:0,0:0:0:0:
311,168,42999,6,0,P|331:143|341:113,1,63.7500024318696,6|0,1:0|0:0,0:0:0:0:
307,181,43241,2,0,P|332:162|350:135,1,63.7500024318696,0|2,0:0|0:0,0:0:0:0:
299,192,43483,2,0,P|328:180|352:159,1,63.7500024318696,0|0,3:0|0:0,0:0:0:0:
289,201,43725,2,0,P|320:197|349:183,1,63.7500024318696,0|0,0:0|0:0,0:0:0:0:
211,256,43967,6,0,P|198:285|196:316,1,63.7500024318696,0|0,0:0|0:0,0:0:0:0:
211,241,44209,2,0,P|191:266|181:295,1,63.7500024318696,2|0,0:0|0:0,0:0:0:0:
214,226,44451,2,0,P|188:244|171:270,1,63.7500024318696,2|2,3:0|0:0,0:0:0:0:
221,213,44693,2,0,P|191:224|168:244,1,63.7500024318696,0|2,0:0|0:0,0:0:0:0:
34,231,44935,6,0,P|65:234|94:248,1,63.7500024318696,0|0,0:0|0:0,0:0:0:0:
99,338,45177,2,0,P|67:334|38:320,1,63.7500024318696,2|0,0:0|0:0,0:0:0:0:
92,153,45418,2,0,P|120:167|142:190,1,63.7500024318696,2|2,3:0|0:0,0:0:0:0:
220,217,45660,2,0,P|250:209|277:191,1,63.7500024318696,0|2,0:0|0:0,0:0:0:0:
267,108,45902,6,0,P|236:115|209:133,1,63.7500024318696,0|0,0:0|0:0,0:0:0:0:
168,60,46144,2,0,P|145:81|130:110,1,63.7500024318696,2|0,0:0|0:0,0:0:0:0:
58,67,46386,2,0,P|49:97|51:129,1,63.7500024318696,0|0,3:0|0:0,0:0:0:0:
99,253,46628,2,0,P|108:222|105:191,1,63.7500024318696,2|0,0:0|0:0,0:0:0:0:
48,328,46870,6,0,L|140:348,1,63.7500024318696,6|0,1:0|0:0,0:0:0:0:
176,291,47112,2,0,L|268:311,1,63.7500024318696,2|0,0:0|0:0,0:0:0:0:
297,363,47354,2,0,L|389:343,1,63.7500024318696,2|0,3:0|0:0,0:0:0:0:
397,274,47596,2,0,L|459:260,1,63.7500024318696,2|0,0:0|0:0,0:0:0:0:
315,161,47838,6,0,L|329:224,1,63.7500024318696,2|0,0:0|0:0,0:0:0:0:
251,242,48080,2,0,L|237:304,1,63.7500024318696,2|0,0:0|0:0,0:0:0:0:
158,160,48322,2,0,L|172:223,1,63.7500024318696,0|0,3:0|0:0,0:0:0:0:
59,302,48564,2,0,L|122:289,1,63.7500024318696,2|0,0:0|0:0,0:0:0:0:
207,94,48806,6,0,L|270:81,1,63.7500024318696,2|0,0:0|0:0,0:0:0:0:
63,91,49048,2,0,L|93:229,1,127.500004863739,2|0,0:0|0:0,0:0:0:0:
329,224,49531,2,0,L|301:348,1,127.500004863739,2|0,0:0|0:0,0:0:0:0:
207,94,50015,5,2,1:0:0:0:
233,13,50135,1,2,1:0:0:0:
290,75,50257,2,0,L|262:195,2,113.333333333333,10|8|8,0:0|0:0|0:0,0:0:0:0:
123,112,50741,6,0,P|143:150|178:173,1,85,6|0,1:0|0:0,0:0:0:0:
372,56,50983,2,0,L|290:75,1,85,2|0,3:0|0:0,0:0:0:0:
127,269,51225,2,0,L|209:250,1,85,10|0,0:0|0:0,0:0:0:0:
148,30,51467,2,0,P|105:28|68:46,1,85,2|0,3:0|0:0,0:0:0:0:
302,250,51709,6,0,L|385:269,1,85,2|0,1:0|0:0,0:0:0:0:
256,91,51951,2,0,L|256:176,1,85,2|0,3:0|0:0,0:0:0:0:
80,164,52193,1,10,0:0:0:0:
69,206,52314,1,0,0:0:0:0:
94,124,52435,2,0,L|176:142,1,85,2|0,3:0|0:0,0:0:0:0:
432,164,52677,5,2,1:0:0:0:
443,206,52798,1,2,0:0:0:0:
418,124,52919,2,0,L|335:142,1,85,2|0,3:0|0:0,0:0:0:0:
327,332,53160,1,10,0:0:0:0:
410,350,53281,2,0,P|445:330|470:276,1,85,0|0,0:0|0:0,0:0:0:0:
176,142,53644,6,0,L|70:164,1,85,2|2,1:0|0:0,0:0:0:0:
67,240,53886,1,2,3:0:0:0:
124,302,54007,1,0,0:0:0:0:
206,285,54128,2,0,P|189:246|154:221,1,85,10|0,0:0|0:0,0:0:0:0:
41,318,54370,2,0,P|57:356|92:381,1,85,2|0,3:0|0:0,0:0:0:0:
327,332,54612,6,0,L|343:236,1,85,2|0,1:0|0:0,0:0:0:0:
189,58,54854,2,0,L|173:154,1,85,2|0,3:0|0:0,0:0:0:0:
28,283,55096,1,10,0:0:0:0:
16,198,55217,1,2,0:0:0:0:
93,160,55338,1,2,3:0:0:0:
154,221,55459,1,2,0:0:0:0:
114,297,55580,6,0,L|98:393,1,85,2|0,1:0|0:0,0:0:0:0:
340,248,55822,2,0,L|353:164,1,85,2|0,3:0|0:0,0:0:0:0:
261,278,56064,1,10,0:0:0:0:
405,302,56185,2,0,L|484:272,1,85,0|0,0:0|0:0,0:0:0:0:
107,82,56548,6,0,L|27:111,1,85,6|0,1:0|0:0,0:0:0:0:
187,53,56789,1,4,3:0:0:0:
246,212,56910,6,0,L|276:291,1,85,10|6,3:0|3:0,0:0:0:0:
217,133,57152,1,6,3:0:0:0:
167,242,57273,2,0,L|87:271,1,85,6|2,3:0|1:0,0:0:0:0:
187,53,57515,6,0,L|267:24,1,85,10|0,0:0|0:0,0:0:0:0:
196,321,57757,2,0,L|116:350,1,85,8|0,0:0|0:0,0:0:0:0:
217,133,57999,6,0,B|280:111|280:156|343:132,1,127.500004863739,2|2,0:0|0:0,0:0:0:0:
196,321,58483,5,6,1:0:0:0:
363,291,58604,2,0,L|447:277,1,85,8|0,0:0|0:0,0:0:0:0:
348,207,58846,1,10,0:0:0:0:
180,236,58967,2,0,L|96:250,1,85,0|8,1:0|0:0,0:0:0:0:
262,265,59209,1,2,0:0:0:0:
246,179,59330,1,8,0:0:0:0:
163,149,59451,6,0,L|79:163,1,85,0|8,1:0|0:0,0:0:0:0:
328,209,59693,2,0,P|334:167|318:128,1,85,2|8,0:0|0:0,0:0:0:0:
180,236,59935,1,2,1:0:0:0:
196,321,60056,1,8,0:0:0:0:
277,349,60177,2,0,L|360:334,1,85,2|8,0:0|0:0,0:0:0:0:
246,179,60418,5,2,1:0:0:0:
114,293,60539,2,0,P|110:335|130:379,1,85,8|0,0:0|0:0,0:0:0:0:
262,265,60781,1,8,0:0:0:0:
97,207,60902,2,0,P|58:224|30:263,1,85,0|8,1:0|0:0,0:0:0:0:
196,321,61144,1,0,1:0:0:0:
262,265,61265,1,10,0:0:0:0:
246,179,61386,6,0,L|226:68,1,85,0|8,1:0|0:0,0:0:0:0:
114,293,61628,2,0,L|94:404,1,85,2|8,0:0|0:0,0:0:0:0:
351,378,61870,1,2,1:0:0:0:
344,295,61991,1,8,0:0:0:0:
262,265,62112,2,0,P|223:282|197:314,1,85,0|8,0:0|0:0,0:0:0:0:
147,80,62354,5,2,1:0:0:0:
313,110,62475,2,0,L|397:125,1,85,8|0,0:0|0:0,0:0:0:0:
297,193,62717,1,10,0:0:0:0:
130,162,62838,2,0,L|46:146,1,85,0|8,1:0|0:0,0:0:0:0:
210,136,63080,1,2,0:0:0:0:
192,218,63201,1,8,0:0:0:0:
111,243,63322,2,0,L|27:227,1,85,0|8,1:0|0:0,0:0:0:0:
273,193,63564,2,0,L|356:208,1,85,2|8,1:0|0:0,0:0:0:0:
236,356,63806,5,2,1:0:0:0:
174,300,63927,1,8,0:0:0:0:
192,218,64048,1,2,1:0:0:0:
273,193,64168,1,8,0:0:0:0:
335,250,64289,5,2,1:0:0:0:
415,224,64410,2,0,P|393:187|356:167,1,85,8|0,0:0|0:0,0:0:0:0:
273,193,64652,1,8,0:0:0:0:
236,356,64773,5,2,1:0:0:0:
316,329,64894,2,0,L|397:303,1,85,10|0,0:0|0:0,0:0:0:0:
291,110,65136,1,8,0:0:0:0:
174,300,65257,5,2,1:0:0:0:
316,329,65378,2,0,L|397:303,1,85,10|0,0:0|0:0,0:0:0:0:
210,135,65620,1,8,0:0:0:0:
239,359,65741,2,0,L|254:275,1,85,2|8,1:0|0:0,0:0:0:0:
365,51,65983,2,0,L|380:135,1,85,2|8,1:0|0:0,0:0:0:0:
109,321,66225,5,6,1:0:0:0:
346,344,66346,2,0,L|364:239,1,85,8|0,0:0|0:0,0:0:0:0:
365,51,66588,1,10,0:0:0:0:
128,28,66709,2,0,L|110:133,1,85,0|8,1:0|0:0,0:0:0:0:
273,142,66951,1,2,0:0:0:0:
238,61,67072,1,8,0:0:0:0:
187,132,67193,6,0,L|205:237,1,85,0|8,1:0|0:0,0:0:0:0:
405,113,67435,2,0,L|390:29,1,85,2|8,0:0|0:0,0:0:0:0:
135,268,67677,1,2,1:0:0:0:
215,298,67798,1,8,0:0:0:0:
280,244,67918,2,0,L|298:139,1,85,2|8,1:0|0:0,0:0:0:0:
55,238,68160,5,2,1:0:0:0:
294,328,68281,2,0,P|333:311|360:278,1,85,8|0,0:0|0:0,0:0:0:0:
377,145,68523,1,8,0:0:0:0:
137,54,68644,2,0,P|98:70|72:103,1,85,0|8,1:0|0:0,0:0:0:0:
215,298,68886,5,2,0:0:0:0:
200,214,69006,1,8,0:0:0:0:
119,184,69128,2,0,L|38:250,1,85,0|8,1:0|0:0,0:0:0:0:
137,54,69370,2,0,L|221:39,1,85,2|8,1:0|0:0,0:0:0:0:
358,157,69612,1,2,1:0:0:0:
342,239,69732,1,8,0:0:0:0:
262,266,69854,2,0,P|225:249|195:198,1,85,2|8,1:0|0:0,0:0:0:0:
374,75,70096,5,2,1:0:0:0:
326,321,70217,2,0,P|294:344|222:341,1,85,8|0,0:0|0:0,0:0:0:0:
96,313,70459,1,10,0:0:0:0:
144,67,70580,2,0,P|176:44|248:47,1,85,0|8,1:0|0:0,0:0:0:0:
342,239,70822,1,2,0:0:0:0:
421,211,70943,1,8,0:0:0:0:
432,127,71064,2,0,P|391:131|357:156,1,85,0|8,1:0|0:0,0:0:0:0:
79,256,71306,2,0,P|120:252|155:228,1,85,2|8,0:0|0:0,0:0:0:0:
199,63,71548,5,2,1:0:0:0:
117,85,71669,1,8,0:0:0:0:
95,167,71790,1,2,1:0:0:0:
155,227,71911,1,8,0:0:0:0:
239,217,72031,6,0,L|323:207,1,85,2|8,1:0|0:0,0:0:0:0:
199,63,72273,1,0,1:0:0:0:
177,145,72394,1,8,0:0:0:0:
155,227,72515,6,0,P|169:265|205:295,1,85,10|0,0:0|0:0,0:0:0:0:
408,198,72757,1,10,0:0:0:0:
357,129,72878,1,10,0:0:0:0:
272,138,72999,6,0,L|187:147,1,85,0|4,0:0|3:0,0:0:0:0:
357,266,73241,2,0,L|442:275,1,85,4|4,3:0|3:0,0:0:0:0:
148,348,73483,5,2,1:0:0:0:
136,263,73604,1,8,0:0:0:0:
213,225,73725,1,2,1:0:0:0:
274,286,73846,1,8,0:0:0:0:
231,361,73967,6,0,L|131:345,1,85,2|0,1:0|0:0,0:0:0:0:
63,333,74209,2,0,L|76:249,1,85,8|2,0:0|0:0,0:0:0:0:
89,165,74451,2,0,P|128:181|154:214,1,85,0|0,1:0|0:0,0:0:0:0:
8,195,74693,2,0,P|2:153|18:114,1,85,10|0,0:0|0:0,0:0:0:0:
164,33,74935,6,0,L|177:116,1,85,0|0,1:0|0:0,0:0:0:0:
237,178,75177,2,0,P|278:183|317:167,1,85,10|0,0:0|0:0,0:0:0:0:
348,88,75418,2,0,P|306:82|267:98,1,85,2|0,1:0|0:0,0:0:0:0:
153,200,75660,2,0,L|166:283,1,85,10|0,0:0|0:0,0:0:0:0:
386,240,75902,6,0,L|399:156,1,85,2|0,1:0|0:0,0:0:0:0:
337,7,76144,2,0,P|332:49|348:88,1,85,8|0,0:0|0:0,0:0:0:0:
474,188,76386,2,0,P|479:146|463:107,1,85,0|0,1:0|0:0,0:0:0:0:
315,169,76628,2,0,L|231:182,1,85,10|0,0:0|0:0,0:0:0:0:
130,52,76870,6,0,P|171:46|210:62,1,85,0|0,1:0|0:0,0:0:0:0:
150,213,77112,2,0,P|144:171|160:132,1,85,10|0,0:0|0:0,0:0:0:0:
315,169,77354,2,0,L|398:155,1,85,2|0,1:0|0:0,0:0:0:0:
378,72,77596,2,0,L|294:85,1,85,10|0,0:0|0:0,0:0:0:0:
216,268,77838,6,0,P|182:293|140:299,1,85,2|0,1:0|0:0,0:0:0:0:
74,181,78080,2,0,P|115:186|149:212,1,85,8|0,0:0|0:0,0:0:0:0:
282,323,78322,2,0,P|323:317|357:291,1,85,2|0,1:0|0:0,0:0:0:0:
300,155,78564,2,0,P|284:194|290:236,1,85,10|0,0:0|0:0,0:0:0:0:
207,366,78806,6,0,L|125:345,1,85,0|0,1:0|0:0,0:0:0:0:
71,277,79048,2,0,L|153:256,1,85,10|0,0:0|0:0,0:0:0:0:
282,323,79289,2,0,P|323:317|357:291,1,85,2|0,1:0|0:0,0:0:0:0:
297,147,79531,2,0,P|256:153|222:179,1,85,10|0,0:0|0:0,0:0:0:0:
417,230,79773,6,0,L|428:139,1,85,2|0,1:0|0:0,0:0:0:0:
307,62,80015,2,0,L|296:146,1,85,12|0,0:0|0:0,0:0:0:0:
102,263,80257,6,0,L|87:143,1,106.25,2|0,1:0|0:0,0:0:0:0:
209,73,80499,2,0,L|221:178,1,106.25,12|0,0:0|0:0,0:0:0:0:
401,357,80741,6,0,L|417:218,1,127.500004863739,2|0,1:0|0:0,0:0:0:0:
296,146,80983,2,0,L|280:272,1,127.500004863739,12|0,0:0|0:0,0:0:0:0:
112,347,81225,6,0,L|101:256,1,85,2|0,1:0|0:0,0:0:0:0:
81,98,81467,1,10,0:0:0:0:
158,128,81588,1,8,0:0:0:0:
91,180,81709,6,0,P|48:174|13:151,1,85,6|0,1:0|0:0,0:0:0:0:
148,46,81951,2,0,P|190:51|225:74,1,85,12|2,0:0|0:0,0:0:0:0:
359,180,82193,2,0,P|401:174|436:151,1,85,0|0,1:0|0:0,0:0:0:0:
302,46,82435,2,0,P|259:51|224:74,1,85,14|0,0:0|0:0,0:0:0:0:
105,263,82677,6,0,L|119:346,1,85,0|0,1:0|0:0,0:0:0:0:
264,321,82918,2,0,L|250:237,1,85,14|0,0:0|0:0,0:0:0:0:
235,153,83160,2,0,P|196:170|171:203,1,85,2|0,1:0|0:0,0:0:0:0:
40,317,83402,2,0,P|21:279|25:234,1,85,14|0,0:0|0:0,0:0:0:0:
76,96,83644,6,0,L|159:81,1,85,2|0,1:0|0:0,0:0:0:0:
250,237,83886,2,0,L|333:251,1,85,12|0,0:0|0:0,0:0:0:0:
265,76,84128,2,0,P|240:110|234:152,1,85,0|0,1:0|0:0,0:0:0:0:
410,282,84370,2,0,P|433:247|439:206,1,85,14|0,0:0|0:0,0:0:0:0:
346,77,84612,6,0,P|305:66|264:77,1,85,0|0,1:0|0:0,0:0:0:0:
262,356,84854,2,0,P|302:366|343:355,1,85,14|0,0:0|0:0,0:0:0:0:
309,148,85096,5,6,3:0:0:0:
227,170,85217,1,4,3:0:0:0:
222,254,85338,1,12,3:0:0:0:
302,285,85459,1,4,3:0:0:0:
355,219,85580,6,0,P|254:216|260:358,1,244.800005976563,6|0,1:0|0:0,0:0:0:0:
408,153,86306,1,10,3:0:0:0:
105,101,86548,2,0,L|68:278,1,122.400002988281,4|0,1:0|0:0,0:0:0:0:
110,294,86910,1,8,0:0:0:0:
141,367,87031,6,0,L|200:379,1,61.2000014941407,10|0,0:0|0:0,0:0:0:0:
79,220,87273,2,0,L|20:232,1,61.2000014941407,10|8,0:0|0:0,0:0:0:0:
228,313,87515,6,0,P|275:317|335:250,1,122.400002988281,6|2,1:0|0:0,0:0:0:0:
284,181,87878,2,0,P|331:185|391:118,1,122.400002988281,2|0,0:0|0:0,0:0:0:0:
404,239,88241,2,0,P|431:251|462:253,1,61.2000014941407,2|0,0:0|0:0,0:0:0:0:
314,109,88483,6,0,P|330:83|355:65,1,61.2000014941407,0|0,1:0|0:0,0:0:0:0:
251,155,88725,2,0,P|236:128|234:97,1,61.2000014941407,10|0,3:0|0:0,0:0:0:0:
214,239,88967,2,0,P|197:213|172:195,1,61.2000014941407,6|4,3:0|3:0,0:0:0:0:
277,285,89209,2,0,P|291:258|293:227,1,61.2000014941407,6|4,3:0|3:0,0:0:0:0:
205,316,89451,6,0,P|221:341|343:327,1,132.599999190674,6|2,1:0|0:0,0:0:0:0:
251,155,90177,1,2,0:0:0:0:
133,285,90418,6,0,P|149:259|271:274,1,132.599999190674,6|0,1:0|0:0,0:0:0:0:
360,194,90902,2,0,P|343:168|222:183,1,132.599999190674,6|0,1:0|0:0,0:0:0:0:
400,118,91386,6,0,P|473:109|499:80,1,88.3999994604492,6|0,1:0|0:0,0:0:0:0:
429,47,91749,1,2,0:0:0:0:
400,266,92112,6,0,P|473:275|499:304,1,88.3999994604492,2|0,0:0|0:0,0:0:0:0:
433,341,92475,1,2,0:0:0:0:
433,341,92596,2,0,L|424:390,2,29.4666664868164,2|0|0,0:0|0:0|0:0,0:0:0:0:
353,326,92838,6,0,P|280:335|254:364,1,88.3999994604492,2|0,0:0|0:0,0:0:0:0:
112,118,93322,6,0,P|39:109|13:80,1,88.3999994604492,2|0,0:0|0:0,0:0:0:0:
83,47,93685,1,2,0:0:0:0:
112,266,94048,6,0,P|39:275|13:304,1,88.3999994604492,2|0,0:0|0:0,0:0:0:0:
87,341,94410,1,2,0:0:0:0:
87,341,94531,2,0,L|95:390,2,29.4666664868164,2|0|0,0:0|0:0|0:0,0:0:0:0:
159,326,94774,6,0,P|232:335|258:364,1,88.3999994604492,2|0,0:0|0:0,0:0:0:0:
380,132,95257,6,0,L|393:47,1,44.1999997302246,6|0,1:0|0:0,0:0:0:0:
292,92,95499,1,2,0:0:0:0:
292,92,95620,2,0,L|284:135,1,44.1999997302246,2|8,0:0|0:0,0:0:0:0:
126,214,95983,5,2,0:0:0:0:
126,214,96104,2,0,L|118:257,1,44.1999997302246,2|0,1:0|0:0,0:0:0:0:
22,260,96346,1,2,0:0:0:0:
22,260,96467,2,0,L|30:217,2,29.4666664868164,2|0|0,1:0|0:0|0:0,0:0:0:0:
72,331,96709,6,0,P|113:345|170:331,1,88.3999994604492,10|2,0:0|1:0,0:0:0:0:
256,192,97193,6,0,L|242:107,1,44.1999997302246,2|0,1:0|0:0,0:0:0:0:
344,152,97435,1,2,0:0:0:0:
344,152,97556,2,0,L|351:195,1,44.1999997302246,2|8,0:0|0:0,0:0:0:0:
156,337,97918,5,2,1:0:0:0:
156,337,98039,2,0,L|142:252,1,44.1999997302246,2|0,1:0|0:0,0:0:0:0:
244,297,98281,1,2,0:0:0:0:
244,297,98402,2,0,L|251:340,2,29.4666664868164,2|0|0,1:0|0:0|0:0,0:0:0:0:
199,227,98644,5,8,0:0:0:0:
322,103,98806,1,8,0:0:0:0:
368,272,98967,1,8,0:0:0:0:
