osu file format v14

[General]
AudioFilename: audio.mp3
AudioLeadIn: 0
PreviewTime: 73423
Countdown: 0
SampleSet: Soft
StackLeniency: 0.3
Mode: 0
LetterboxInBreaks: 0
WidescreenStoryboard: 1

[Editor]
Bookmarks: 27939
DistanceSpacing: 1
BeatDivisor: 4
GridSize: 4
TimelineZoom: 1.9

[Metadata]
Title:MIDNIGHT
TitleUnicode:MIDNIGHT
Artist:SPYAIR
ArtistUnicode:SPYAIR
Creator:Monstrata
Version:ADVANCED
Source:
Tags:habiholic sotarks akitoshi corinn alternate alternator high bpm jrock jpop
BeatmapID:1479910
BeatmapSetID:689544

[Difficulty]
HPDrainRate:5
CircleSize:4
OverallDifficulty:5
ApproachRate:7
SliderMultiplier:1.7
SliderTickRate:2

[Events]
//Background and Video events
0,0,"wallhaven-33430.jpg",0,0
//Break Periods
2,2554,4841
//Storyboard Layer 0 (Background)
//Storyboard Layer 1 (Fail)
//Storyboard Layer 2 (Pass)
//Storyboard Layer 3 (Foreground)
//Storyboard Sound Samples

[TimingPoints]
419,483.870967741935,4,2,2,42,1,0
660,-100,4,2,2,52,0,0
2354,-100,4,2,2,32,0,0
5741,-100,4,2,2,52,0,0
6225,-100,4,2,2,42,0,0
8160,-100,4,2,2,52,0,0
17838,-100,4,2,2,62,0,0
33322,-100,4,2,2,32,0,0
42273,-100,4,2,2,52,0,0
42999,-100,4,2,2,42,0,0
50257,-100,4,2,2,52,0,0
50741,-100,4,2,2,62,0,0
57999,-100,4,2,2,32,0,0
58483,-100,4,2,2,65,0,1
74148,-100,4,2,2,5,0,1
74209,-100,4,2,2,72,0,1
74632,-100,4,2,2,5,0,1
74693,-100,4,2,2,72,0,1
75116,-100,4,2,2,5,0,1
75177,-100,4,2,2,72,0,1
76084,-100,4,2,2,5,0,1
76144,-100,4,2,2,72,0,1
76568,-100,4,2,2,5,0,1
76628,-100,4,2,2,72,0,1
77052,-100,4,2,2,5,0,1
77112,-100,4,2,2,72,0,1
77535,-100,4,2,2,5,0,1
77596,-100,4,2,2,72,0,1
78019,-100,4,2,2,5,0,1
78080,-100,4,2,2,72,0,1
78503,-100,4,2,2,5,0,1
78564,-100,4,2,2,72,0,1
78987,-100,4,2,2,5,0,1
79048,-100,4,2,2,72,0,1
79471,-100,4,2,2,5,0,1
79531,-100,4,2,2,72,0,1
79955,-100,4,2,2,5,0,1
80015,-100,4,2,2,72,0,1
80197,-100,4,2,2,5,0,1
80257,-100,4,2,2,72,0,1
80439,-100,4,2,2,5,0,1
80499,-100,4,2,2,72,0,1
80681,-100,4,2,2,5,0,1
80741,-100,4,2,2,72,0,1
80923,-100,4,2,2,5,0,1
80983,-100,4,2,2,72,0,1
81164,-100,4,2,2,5,0,1
81225,-100,4,2,2,72,0,1
81890,-100,4,2,2,5,0,1
81951,-100,4,2,2,72,0,1
82374,-100,4,2,2,5,0,1
82435,-100,4,2,2,72,0,1
82858,-100,4,2,2,5,0,1
82918,-100,4,2,2,72,0,1
83342,-100,4,2,2,5,0,1
83402,-100,4,2,2,72,0,1
83826,-100,4,2,2,5,0,1
83886,-100,4,2,2,72,0,1
84310,-100,4,2,2,5,0,1
84370,-100,4,2,2,72,0,1
84793,-100,4,2,2,5,0,1
84854,-100,4,2,2,72,0,1
85580,-100,4,2,2,52,0,1
87515,-100,4,2,2,42,0,0
88967,-100,4,2,2,32,0,0
90418,-100,4,2,2,42,0,0
90902,-100,4,2,2,52,0,0
95257,-100,4,2,2,32,0,0
98644,-100,4,2,2,52,0,0

[Colours]
Combo1 : 129,98,157
Combo2 : 92,199,218
Combo3 : 255,128,128
Combo4 : 108,137,213

[HitObjects]
157,150,419,6,0,L|152:193,2,28.3333333333333,8|0|0,3:0|0:0|0:0,0:0:0:0:
176,129,660,2,0,P|213:144|261:134,1,85,8|8,0:0|0:0,0:0:0:0:
296,120,1023,2,0,P|281:156|291:204,1,85,8|8,3:0|3:0,0:0:0:0:
315,233,1386,1,8,0:0:0:0:
397,255,1628,2,0,L|401:298,2,28.3333333333333,4|0|0,3:0|0:0|0:0,0:0:0:0:
416,233,1870,2,0,P|450:229|480:208,2,56.6666666666667,8|8|8,0:0|0:0|0:0,0:0:0:0:
424,154,2354,5,6,1:0:0:0:
69,288,5741,6,0,L|53:366,2,56.6666666666667,10|8|8,0:0|0:0|0:0,0:0:0:0:
100,239,6225,6,0,P|181:222|252:265,1,170,6|0,1:0|0:0,0:0:0:0:
334,290,6951,2,0,L|425:284,1,85,2|0,0:0|0:0,0:0:0:0:
431,243,7314,2,0,P|421:202|434:162,1,85,2|2,0:0|0:0,0:0:0:0:
471,140,7677,1,2,0:0:0:0:
404,87,7918,1,2,0:0:0:0:
334,136,8160,6,0,L|330:202,2,42.5,2|0|10,1:0|0:0|0:0,0:0:0:0:
257,102,8644,1,8,0:0:0:0:
257,102,8765,2,0,L|148:120,1,85,0|0,0:0|1:0,0:0:0:0:
141,145,9128,5,8,0:0:0:0:
164,226,9370,2,0,L|156:274,2,28.3333333333333,4|0|0,3:0|0:0|0:0,0:0:0:0:
198,205,9612,2,0,L|255:196,2,56.6666666666667,10|10|10,0:0|0:0|0:0,0:0:0:0:
141,145,10096,6,0,B|58:132|58:132|21:91,1,127.5,6|2,1:0|0:0,0:0:0:0:
142,40,10822,2,0,B|225:53|225:53|262:94,1,127.5,2|2,0:0|0:0,0:0:0:0:
366,153,11548,2,0,L|485:132,1,85,10|2,0:0|0:0,0:0:0:0:
463,54,12031,6,0,L|336:75,1,127.5,2|2,1:0|0:0,0:0:0:0:
276,191,12757,2,0,L|131:165,1,127.5,2|2,0:0|0:0,0:0:0:0:
202,49,13483,2,0,L|285:63,2,56.6666666666667,8|10|8,0:0|0:0|0:0,0:0:0:0:
144,40,13967,6,0,P|103:45|57:123,1,127.5,6|2,1:0|0:0,0:0:0:0:
96,224,14693,2,0,P|137:228|184:311,1,127.5,2|2,0:0|0:0,0:0:0:0:
312,288,15418,2,0,P|351:273|376:239,1,85,10|2,0:0|1:0,0:0:0:0:
339,161,15902,6,0,L|333:116,2,42.5,2|8|8,1:0|0:0|0:0,0:0:0:0:
424,164,16386,1,8,0:0:0:0:
424,164,16507,2,0,L|435:75,2,85,0|8|0,3:0|3:0|0:0,0:0:0:0:
339,161,17233,1,0,3:0:0:0:
339,161,17354,2,0,P|293:148|253:106,1,85,8|0,3:0|3:0,3:0:0:0:
198,79,17838,6,0,L|171:178,1,85,6|0,1:0|3:0,0:0:0:0:
138,182,18201,1,0,0:0:0:0:
138,182,18322,2,0,L|165:281,1,85,10|2,0:0|3:0,0:0:0:0:
233,304,18806,2,0,P|276:313|316:301,1,85,0|0,1:0|3:0,0:0:0:0:
393,337,19289,2,0,P|401:294|389:254,1,85,8|2,0:0|3:0,0:0:0:0:
314,214,19773,6,0,P|302:173|310:132,1,85,2|0,1:0|3:0,0:0:0:0:
346,108,20136,1,0,0:0:0:0:
346,108,20257,2,0,P|388:116|428:104,1,85,10|2,0:0|3:0,0:0:0:0:
467,28,20741,2,0,P|424:19|384:31,1,85,0|2,1:0|3:0,0:0:0:0:
342,25,21104,1,0,0:0:0:0:
342,25,21225,2,0,P|299:16|259:28,1,85,10|2,0:0|3:0,0:0:0:0:
193,81,21709,6,0,P|152:92|111:84,1,85,2|0,1:0|3:0,0:0:0:0:
76,110,22072,1,0,0:0:0:0:
76,110,22193,2,0,P|87:150|79:191,1,85,10|2,0:0|3:0,0:0:0:0:
41,268,22677,2,0,P|82:276|122:264,1,85,0|0,1:0|3:0,0:0:0:0:
163,190,23160,2,0,P|204:181|244:193,1,85,8|2,0:0|3:0,0:0:0:0:
301,257,23644,6,0,L|293:349,1,85,6|0,1:0|3:0,0:0:0:0:
323,372,24007,1,2,0:0:0:0:
323,372,24128,2,0,L|415:380,1,85,8|2,0:0|3:0,0:0:0:0:
470,321,24612,1,0,1:0:0:0:
470,321,24733,2,0,L|477:236,1,85,8|4,0:0|3:0,0:0:0:0:
447,205,25096,2,0,L|439:120,1,85,10|4,0:0|3:0,0:0:0:0:
365,75,25580,6,0,P|326:92|284:89,1,85,6|0,1:0|3:0,0:0:0:0:
245,72,25943,1,2,0:0:0:0:
245,72,26064,2,0,P|203:68|164:85,1,85,10|2,0:0|3:0,0:0:0:0:
120,158,26548,2,0,P|136:196|133:238,1,85,2|0,1:0|3:0,0:0:0:0:
78,303,27031,2,0,P|61:341|64:383,1,85,10|0,0:0|3:0,0:0:0:0:
145,357,27515,6,0,L|261:344,1,85,2|0,1:0|3:0,0:0:0:0:
258,315,27878,1,2,0:0:0:0:
258,315,27999,2,2,L|342:324,1,85,10|2,0:0|3:0,0:0:0:0:
372,244,28483,2,0,L|256:231,1,85,2|2,1:0|3:0,0:0:0:0:
259,202,28846,1,2,0:0:0:0:
259,202,28967,2,2,L|174:211,1,85,10|2,0:0|3:0,0:0:0:0:
104,160,29451,6,0,P|88:122|96:81,1,85,6|0,1:0|3:0,0:0:0:0:
136,65,29814,1,2,0:0:0:0:
136,65,29935,2,0,P|177:73|215:56,1,85,10|2,0:0|1:0,0:0:0:0:
296,56,30418,2,0,P|334:73|376:65,1,85,2|2,1:0|1:0,0:0:0:0:
417,139,30902,2,0,P|400:177|408:218,1,85,10|2,0:0|3:0,0:0:0:0:
462,284,31386,6,0,P|470:325|453:363,1,85,6|0,1:0|1:0,0:0:0:0:
414,381,31749,1,2,1:0:0:0:
414,381,31870,2,0,L|313:377,1,85,8|2,0:0|3:0,0:0:0:0:
250,343,32354,2,0,L|189:340,2,42.5,0|8|10,1:0|0:0|0:0,0:0:0:0:
301,275,32838,2,0,L|366:262,2,56.6666666666667,10|8|8,0:0|0:0|0:0,0:0:0:0:
222,264,33322,5,2,1:0:0:0:
203,118,35257,6,0,P|292:121|346:180,1,170,2|0,0:0|0:0,0:0:0:0:
329,260,35983,1,2,0:0:0:0:
166,311,36467,2,0,L|65:286,2,85,2|2|0,0:0|0:0|0:0,0:0:0:0:
229,365,37193,6,0,P|216:283|250:203,1,170,2|2,0:0|0:0,0:0:0:0:
322,165,37918,1,2,0:0:0:0:
396,205,38160,2,0,P|416:241|418:304,2,85,0|2|2,0:0|0:0|0:0,0:0:0:0:
322,165,38886,1,2,0:0:0:0:
270,97,39128,6,0,P|255:57|266:-4,1,85,2|2,0:0|0:0,0:0:0:0:
180,51,39612,2,0,P|182:93|167:132,1,85,2|2,0:0|0:0,0:0:0:0:
126,207,40096,2,0,P|123:249|138:288,1,85,2|2,0:0|0:0,0:0:0:0:
307,308,40822,1,2,0:0:0:0:
365,246,41064,6,0,L|460:235,2,85,2|0|0,0:0|0:0|0:0,0:0:0:0:
283,223,41789,1,2,0:0:0:0:
116,259,42273,2,0,P|104:299|105:341,2,85,2|10|0,0:0|0:0|0:0,0:0:0:0:
148,180,42999,6,0,L|122:72,1,85,6|0,1:0|0:0,0:0:0:0:
208,69,43483,2,0,L|227:151,1,85,0|0,3:0|0:0,0:0:0:0:
305,115,43967,2,0,L|324:32,1,85,0|2,0:0|0:0,0:0:0:0:
403,66,44451,2,0,L|383:148,1,85,2|0,3:0|0:0,0:0:0:0:
315,199,44935,6,0,P|296:237|297:280,2,85,0|2|2,0:0|0:0|3:0,0:0:0:0:
377,257,45660,1,0,0:0:0:0:
440,312,45902,2,0,L|530:302,2,85,0|2|0,0:0|0:0|3:0,0:0:0:0:
362,346,46628,1,2,0:0:0:0:
284,312,46870,6,0,L|194:302,1,85,6|2,1:0|0:0,0:0:0:0:
165,224,47354,2,0,L|249:214,1,85,2|2,3:0|0:0,0:0:0:0:
281,135,47838,2,0,L|191:125,1,85,2|2,0:0|0:0,0:0:0:0:
162,47,48322,2,0,L|246:37,1,85,0|2,3:0|0:0,0:0:0:0:
330,27,48806,5,2,0:0:0:0:
381,94,49048,2,0,L|432:163,1,85,2|0,0:0|0:0,0:0:0:0:
388,236,49531,2,0,L|405:330,1,85,2|0,0:0|0:0,0:0:0:0:
336,374,50015,2,0,P|316:378|294:376,1,42.5,2|2,1:0|1:0,0:0:0:0:
268,342,50257,2,0,P|227:332|186:344,1,85,10|0,0:0|0:0,0:0:0:0:
116,296,50741,6,0,L|104:204,1,85,6|2,1:0|3:0,0:0:0:0:
94,126,51225,1,10,0:0:0:0:
162,73,51467,1,2,3:0:0:0:
240,104,51709,2,0,P|282:112|323:103,1,85,2|2,1:0|3:0,0:0:0:0:
384,43,52193,2,0,L|385:-4,2,42.5,10|0|2,0:0|0:0|3:0,0:0:0:0:
409,124,52677,6,0,L|406:226,1,85,2|2,1:0|3:0,0:0:0:0:
354,276,53160,2,0,L|351:378,2,85,10|0|2,0:0|0:0|1:0,0:0:0:0:
280,231,53886,1,2,3:0:0:0:
208,276,54128,2,0,P|168:290|126:283,1,85,10|2,0:0|3:0,0:0:0:0:
61,228,54612,6,0,L|49:136,1,85,2|2,1:0|3:0,0:0:0:0:
39,58,55096,1,10,0:0:0:0:
107,5,55338,1,2,3:0:0:0:
186,37,55580,2,0,P|227:44|268:35,1,85,2|2,1:0|3:0,0:0:0:0:
349,8,56064,2,0,P|368:0|389:0,2,42.5,10|0|0,0:0|0:0|0:0,0:0:0:0:
329,92,56548,6,0,L|338:197,1,85,6|4,1:0|3:0,0:0:0:0:
367,205,56910,2,0,L|376:310,1,85,10|6,3:0|3:0,0:0:0:0:
399,324,57273,1,6,3:0:0:0:
477,290,57515,1,10,0:0:0:0:
486,205,57757,1,8,0:0:0:0:
424,143,57999,2,0,P|416:102|431:63,1,85,2|2,0:0|0:0,0:0:0:0:
366,7,58483,6,0,P|324:15|285:0,1,85,6|0,1:0|0:0,0:0:0:0:
244,13,58846,2,0,P|202:4|163:19,1,85,10|8,0:0|0:0,0:0:0:0:
136,52,59209,2,0,L|155:174,1,85,2|0,0:0|1:0,0:0:0:0:
224,176,59693,2,0,L|205:298,2,85,2|2|2,0:0|1:0|0:0,0:0:0:0:
299,136,60418,6,0,P|358:126|402:146,1,85,2|0,1:0|0:0,0:0:0:0:
413,161,60781,2,0,P|423:220|403:264,1,85,8|8,0:0|0:0,0:0:0:0:
388,275,61144,2,0,P|329:285|285:265,1,85,0|0,1:0|1:0,0:0:0:0:
229,239,61628,1,2,0:0:0:0:
169,300,61870,2,0,L|166:384,1,85,2|0,1:0|0:0,0:0:0:0:
82,368,62354,6,0,L|84:283,1,85,2|0,1:0|0:0,0:0:0:0:
50,257,62717,2,0,L|94:184,1,85,10|8,0:0|0:0,0:0:0:0:
77,144,63080,2,0,L|152:104,1,85,2|0,0:0|1:0,0:0:0:0:
214,45,63564,2,0,P|233:83|232:125,2,85,2|2|2,1:0|1:0|1:0,0:0:0:0:
134,19,64289,6,0,L|41:19,1,85,2|0,1:0|0:0,0:0:0:0:
67,104,64773,2,0,L|152:104,1,85,2|0,1:0|0:0,0:0:0:0:
214,45,65257,2,0,L|299:45,1,85,2|0,1:0|0:0,0:0:0:0:
317,130,65741,1,2,1:0:0:0:
232,130,65982,1,2,1:0:0:0:
189,202,66225,6,0,P|176:243|186:283,1,85,6|0,1:0|0:0,0:0:0:0:
217,313,66588,2,0,P|257:325|297:315,1,85,10|8,0:0|0:0,0:0:0:0:
327,285,66951,2,0,P|339:244|329:204,1,85,2|0,0:0|1:0,0:0:0:0:
278,136,67435,2,0,P|265:95|275:55,2,85,2|2|2,0:0|1:0|1:0,0:0:0:0:
362,127,68160,6,0,L|455:116,1,85,2|0,1:0|0:0,0:0:0:0:
481,140,68523,2,0,L|492:233,1,85,8|8,0:0|0:0,0:0:0:0:
460,254,68886,2,0,L|449:347,1,85,2|0,0:0|1:0,0:0:0:0:
372,374,69370,1,2,1:0:0:0:
300,327,69612,2,0,L|207:316,1,85,2|2,1:0|1:0,0:0:0:0:
130,307,70096,6,0,L|116:213,1,85,2|0,1:0|0:0,0:0:0:0:
89,190,70459,2,0,L|145:113,1,85,10|8,0:0|0:0,0:0:0:0:
142,78,70822,2,0,L|236:63,1,85,2|0,0:0|1:0,0:0:0:0:
288,123,71306,2,0,L|283:213,2,85,2|2|2,0:0|1:0|1:0,0:0:0:0:
359,75,72031,6,0,P|400:67|439:82,1,85,2|0,1:0|1:0,0:0:0:0:
444,168,72515,2,0,P|402:159|363:174,1,85,10|10,0:0|0:0,0:0:0:0:
359,260,72999,2,0,P|400:251|439:266,1,85,0|4,0:0|3:0,0:0:0:0:
475,344,73483,1,2,1:0:0:0:
393,339,73725,1,2,1:0:0:0:
322,384,73967,6,0,L|219:367,1,85,2|8,1:0|0:0,0:0:0:0:
154,356,74451,2,0,L|167:272,1,85,0|10,1:0|0:0,0:0:0:0:
181,188,74935,2,0,L|264:201,1,85,0|10,1:0|0:0,0:0:0:0:
347,214,75418,1,2,1:0:0:0:
333,297,75660,1,10,0:0:0:0:
416,310,75902,6,0,L|430:226,1,85,2|8,1:0|0:0,0:0:0:0:
443,142,76386,2,0,L|367:102,1,85,0|10,1:0|0:0,0:0:0:0:
290,64,76870,2,0,L|229:123,1,85,0|10,1:0|0:0,0:0:0:0:
169,185,77354,1,2,1:0:0:0:
207,260,77595,1,10,0:0:0:0:
245,335,77838,6,0,L|329:322,1,85,2|8,1:0|0:0,0:0:0:0:
291,247,78322,2,0,L|207:260,1,85,2|10,1:0|0:0,0:0:0:0:
169,185,78806,2,0,L|253:172,1,85,0|10,1:0|0:0,0:0:0:0:
214,96,79289,1,2,1:0:0:0:
130,109,79530,1,10,0:0:0:0:
84,181,79773,6,0,L|96:265,1,85,2|12,1:0|0:0,0:0:0:0:
166,313,80257,2,0,L|178:228,1,85,2|12,1:0|0:0,0:0:0:0:
190,143,80741,1,2,1:0:0:0:
269,110,80983,1,12,0:0:0:0:
336,162,81225,1,2,1:0:0:0:
325,247,81467,1,10,0:0:0:0:
393,299,81709,6,0,P|457:299|482:284,1,85,6|12,1:0|0:0,0:0:0:0:
504,209,82193,2,0,P|472:153|446:139,1,85,0|14,1:0|0:0,0:0:0:0:
370,157,82677,2,0,P|338:212|338:241,1,85,0|14,1:0|0:0,0:0:0:0:
286,300,83160,1,2,1:0:0:0:
207,266,83402,1,14,0:0:0:0:
149,327,83644,6,0,P|109:341|68:331,1,85,2|12,1:0|0:0,0:0:0:0:
7,271,84128,2,0,P|-6:231|3:190,1,85,0|14,1:0|0:0,0:0:0:0:
63,128,84612,2,0,P|102:114|143:124,1,85,0|14,1:0|0:0,0:0:0:0:
205,183,85096,2,0,L|198:242,2,42.5,6|4|12,3:0|3:0|3:0,0:0:0:0:
287,161,85580,6,0,P|339:167|411:69,1,170,6|0,1:0|0:0,0:0:0:0:
374,8,86306,1,10,3:0:0:0:
323,81,86548,2,0,L|226:69,1,85,4|0,1:0|0:0,0:0:0:0:
190,140,87031,2,0,L|93:152,1,85,10|10,0:0|0:0,0:0:0:0:
64,225,87515,6,0,P|39:303|83:373,1,170,6|0,1:0|0:0,0:0:0:0:
163,346,88241,1,2,0:0:0:0:
242,315,88483,2,0,P|284:314|321:333,1,85,0|10,1:0|3:0,0:0:0:0:
391,283,88967,2,0,P|433:284|470:265,1,85,6|6,3:0|3:0,0:0:0:0:
415,201,89451,6,0,L|439:29,1,170,6|0,1:0|0:0,0:0:0:0:
353,43,90177,1,2,0:0:0:0:
342,127,90418,2,0,L|330:211,1,85,6|0,1:0|0:0,0:0:0:0:
251,245,90902,2,0,L|239:160,1,85,6|0,1:0|0:0,0:0:0:0:
175,103,91386,6,0,P|112:104|68:148,1,127.5,6|2,1:0|0:0,0:0:0:0:
77,275,92112,2,0,L|246:285,1,170,2|2,0:0|0:0,0:0:0:0:
313,232,92838,2,0,L|397:237,1,85,2|0,0:0|0:0,0:0:0:0:
470,193,93322,6,0,P|493:134|473:75,1,127.5,2|2,0:0|0:0,0:0:0:0:
354,120,94048,2,0,L|157:132,1,170,2|2,0:0|0:0,0:0:0:0:
135,199,94773,2,0,L|36:205,1,85,2|0,0:0|0:0,0:0:0:0:
13,127,95257,6,0,P|31:67|87:41,1,127.5,6|2,1:0|0:0,0:0:0:0:
207,85,95983,2,0,L|357:93,1,127.5,2|2,0:0|0:0,0:0:0:0:
369,67,96467,1,2,1:0:0:0:
449,89,96709,2,0,P|469:126|465:168,1,85,10|2,0:0|1:0,0:0:0:0:
425,244,97193,6,0,B|385:261|385:261|293:248,1,127.5,2|2,1:0|0:0,0:0:0:0:
221,150,97918,2,0,B|181:133|181:133|89:146,1,127.5,2|2,1:0|0:0,0:0:0:0:
55,153,98402,1,2,1:0:0:0:
40,236,98644,6,0,L|27:326,2,56.6666666666667,8|8|8,0:0|0:0|0:0,0:0:0:0:
