osu file format v14

[General]
AudioFilename: audio.mp3
AudioLeadIn: 0
PreviewTime: 35383
Countdown: 0
SampleSet: Soft
StackLeniency: 0.7
Mode: 0
LetterboxInBreaks: 0
WidescreenStoryboard: 0

[Editor]
DistanceSpacing: 1
BeatDivisor: 4
GridSize: 4
TimelineZoom: 1

[Metadata]
Title:Imagination (TV Size)
TitleUnicode:イマジネーション (TV Size)
Artist:SPYAIR
ArtistUnicode:SPYAIR
Creator:browiec
Version:Normal
Source:ハイキュー!!
Tags:Haikyu!! Haikyuu!! volleyball opening op 1 anime japanese j-rock jrock rock male vocals
BeatmapID:2444152
BeatmapSetID:1171789

[Difficulty]
HPDrainRate:3
CircleSize:3.6
OverallDifficulty:4.5
ApproachRate:5.2
SliderMultiplier:1
SliderTickRate:1

[Events]
//Background and Video events
0,0,"stixy is spamming me.jpg",0,0
//Break Periods
//Storyboard Layer 0 (Background)
//Storyboard Layer 1 (Fail)
//Storyboard Layer 2 (Pass)
//Storyboard Layer 3 (Foreground)
//Storyboard Layer 4 (Overlay)
//Storyboard Sound Samples

[TimingPoints]
825,294.117647058824,4,2,1,30,1,0
4942,-100,4,2,1,50,0,0
13766,-100,4,2,1,65,0,0
24354,-100,4,2,1,60,0,0
35972,-100,4,2,1,70,0,0
56707,-100,4,2,1,50,0,0
57148,-100,4,2,1,55,0,0
61854,-100,4,2,1,60,0,0
66560,-100,4,2,1,70,0,0
78325,-100,4,2,1,65,0,0

[Colours]
Combo1 : 223,223,223
Combo2 : 206,0,0
Combo3 : 92,92,92
Combo4 : 240,240,0

[HitObjects]
256,192,825,12,2,4648,0:0:0:0:
61,124,5530,6,0,L|230:111,1,150,6|2,3:2|0:2,0:2:0:0:
287,47,6266,1,2,0:2:0:0:
370,101,6560,2,0,B|407:135|407:135|375:238,1,150,2|0,0:2|0:2,0:2:0:0:
329,317,7295,1,2,0:0:0:0:
229,311,7589,1,2,0:0:0:0:
187,219,7883,6,0,B|180:155|180:155|189:120|189:120|183:62,1,150,6|2,3:2|0:2,0:2:0:0:
94,24,8619,1,2,0:2:0:0:
7,73,8913,2,0,B|1:122|1:122|10:157|10:157|3:221,1,150,2|0,0:2|0:2,0:2:0:0:
43,312,9648,1,2,0:0:0:0:
142,308,9942,1,2,0:0:0:0:
187,219,10236,6,0,L|352:234,2,150,6|2|2,3:2|0:2|0:2,0:2:0:0:
116,148,11413,2,0,P|108:99|176:17,2,150,6|2|2,3:2|0:2|0:2,0:2:0:0:
203,195,12589,6,0,L|314:189,1,100,6|2,3:2|0:2,0:2:0:0:
340,222,13030,2,0,L|451:228,1,100,2|2,0:2|0:2,0:2:0:0:
503,150,13619,1,2,0:2:0:0:
503,150,13766,2,0,P|505:97|477:57,1,100,12|12,0:2|0:2,0:0:0:0:
381,78,14354,2,0,L|385:135,2,50,2|0|10,3:2|3:2|0:2,0:0:0:0:
294,28,14942,6,0,P|240:17|185:40,1,100,6|10,3:2|0:2,0:2:0:0:
158,60,15383,1,2,0:2:0:0:
132,156,15677,1,2,0:2:0:0:
204,228,15972,2,0,P|250:235|302:210,1,100,2|0,0:2|0:2,0:2:0:0:
335,180,16413,1,8,0:2:0:0:
403,106,16707,2,0,P|458:114|493:159,1,100,2|10,0:2|0:2,0:2:0:0:
488,244,17295,6,0,L|478:352,1,100,2|10,3:2|0:2,0:2:0:0:
434,369,17736,1,2,0:2:0:0:
335,353,18030,1,2,0:2:0:0:
309,255,18325,2,0,L|318:155,1,100,2|0,0:2|0:2,0:2:0:0:
305,107,18766,1,8,0:2:0:0:
245,27,19060,2,0,P|210:12|145:30,1,100,2|10,0:2|0:2,0:2:0:0:
76,91,19648,6,0,L|82:199,1,100,2|8,3:2|0:2,0:2:0:0:
121,220,20089,2,0,L|115:328,1,100,2|0,0:2|0:2,0:2:0:0:
145,360,20530,1,10,0:2:0:0:
235,317,20825,2,0,P|288:307|339:332,1,100,2|8,3:2|0:2,0:2:0:0:
370,352,21266,2,0,P|423:362|474:337,1,100,2|0,0:2|0:2,0:2:0:0:
489,302,21707,1,10,0:2:0:0:
423,226,22001,6,0,L|260:213,2,150,2|2|10,3:2|0:2|0:2,0:2:0:0:
506,171,23177,1,2,3:2:0:0:
509,70,23472,1,10,0:2:0:0:
430,7,23766,2,0,P|379:16|338:52,1,100,2|10,0:2|0:2,0:0:0:0:
321,92,24207,1,8,0:2:0:0:
321,92,24354,6,0,L|328:246,2,150,4|0|10,3:2|3:2|0:2,0:2:0:0:
243,28,25530,1,2,0:2:0:0:
243,28,25677,2,0,L|134:18,1,100,2|2,0:2|0:2,0:2:0:0:
94,30,26119,1,10,0:2:0:0:
26,103,26413,2,0,L|34:166,1,50,2|2,0:2|0:2,0:0:0:0:
65,190,26707,5,0,3:2:0:0:
150,242,27001,2,0,L|139:350,2,100,2|2|10,0:2|0:2|0:2,0:2:0:0:
176,145,27883,1,2,0:2:0:0:
273,123,28177,1,2,3:2:0:0:
341,195,28472,2,0,B|441:216|441:216|486:184,1,150,10|0,0:2|0:2,0:0:0:0:
500,142,29060,6,0,P|500:80|420:48,2,150,4|0|10,3:2|3:2|0:2,0:2:0:0:
450,230,30236,1,2,0:2:0:0:
450,230,30383,2,0,L|460:335,1,100,2|2,0:2|0:2,0:2:0:0:
421,362,30825,1,10,0:2:0:0:
325,331,31119,2,0,L|332:278,1,50,2|2,0:2|0:2,0:0:0:0:
324,231,31413,5,0,3:2:0:0:
246,167,31707,1,2,0:2:0:0:
148,204,32001,1,2,0:2:0:0:
78,275,32295,2,0,P|33:248|16:195,1,100,14|0,0:2|0:2,0:2:0:0:
38,108,32883,1,0,3:2:0:0:
128,67,33177,2,0,L|192:78,1,50,0|0,3:2|3:2,0:0:0:0:
211,111,33472,1,0,3:2:0:0:
297,60,33766,6,0,P|364:40|316:176,1,300,6|0,3:2|0:0,0:2:0:0:
235,171,34942,2,0,L|226:99,1,50,10|10,3:2|3:2,0:0:0:0:
192,87,35236,1,10,3:2:0:0:
8,217,35972,6,0,L|21:328,1,100,6|0,3:2|3:2,0:2:0:0:
51,348,36413,2,0,P|97:362|161:343,1,100,10|2,0:2|3:2,0:2:0:0:
182,316,36854,1,2,3:2:0:0:
214,221,37148,2,0,L|227:110,1,100,2|0,3:2|3:2,0:2:0:0:
262,88,37589,2,0,P|308:74|372:93,1,100,10|2,0:2|3:2,0:2:0:0:
393,120,38030,1,2,3:2:0:0:
453,200,38325,5,2,3:2:0:0:
458,299,38619,1,2,3:2:0:0:
380,362,38913,2,0,P|336:376|278:363,1,100,2|2,0:2|3:2,0:2:0:0:
255,331,39354,1,8,0:2:0:0:
255,331,39501,2,0,L|246:229,1,100,2|2,3:2|3:2,0:2:0:0:
265,185,39942,1,8,0:2:0:0:
314,97,40236,2,0,L|373:103,2,50,2|2|8,3:2|3:2|0:2,0:0:0:0:
275,62,40677,6,0,P|229:36|171:49,1,100,6|0,3:2|3:2,0:2:0:0:
145,74,41119,2,0,L|138:182,1,100,10|2,0:2|3:2,0:2:0:0:
106,212,41560,1,2,3:2:0:0:
60,300,41854,2,0,P|85:359|131:378,1,100,2|0,3:2|3:2,0:2:0:0:
164,369,42295,2,0,P|202:317|196:268,1,100,10|2,0:2|3:2,0:2:0:0:
200,233,42736,1,2,3:2:0:0:
236,140,43030,5,2,3:2:0:0:
334,121,43325,1,2,3:2:0:0:
422,167,43619,2,0,L|429:267,1,100,2|2,0:2|3:2,0:0:0:0:
411,313,44060,1,8,0:2:0:0:
411,313,44207,2,0,P|377:342|314:341,1,100,2|0,3:2|3:2,0:2:0:0:
276,326,44648,1,8,0:2:0:0:
208,252,44942,1,10,0:2:0:0:
250,161,45236,1,8,0:2:0:0:
250,161,45383,6,0,L|363:151,1,100,6|0,3:2|3:2,0:2:0:0:
393,126,45825,2,0,P|407:80|378:17,1,100,10|2,0:2|3:2,0:2:0:0:
345,13,46266,1,2,3:2:0:0:
249,42,46560,2,0,L|136:52,1,100,2|0,3:2|3:2,0:2:0:0:
106,77,47002,2,0,P|92:123|121:186,1,100,10|2,0:2|3:2,0:2:0:0:
154,190,47443,1,2,3:2:0:0:
244,231,47736,5,2,3:2:0:0:
240,330,48030,1,2,3:2:0:0:
147,367,48325,2,0,L|35:358,1,100,2|2,0:2|3:2,0:2:0:0:
5,330,48766,1,8,0:2:0:0:
5,330,48913,2,0,P|-4:280|17:235,1,100,2|2,3:2|3:2,0:2:0:0:
56,207,49354,1,8,0:2:0:0:
138,150,49648,2,0,L|141:95,2,50,2|2|10,3:2|3:2|0:2,0:0:0:0:
172,186,50089,5,6,3:2:0:0:
271,192,50383,1,2,3:2:0:0:
326,108,50677,2,0,P|374:94|425:115,1,100,2|2,0:2|3:2,0:2:0:0:
456,151,51119,1,8,0:2:0:0:
456,151,51266,1,2,3:2:0:0:
483,247,51560,1,2,3:2:0:0:
420,325,51854,2,0,L|315:332,1,100,2|2,0:2|3:2,0:2:0:0:
286,296,52295,2,0,L|234:293,1,50,8|2,0:2|3:2,0:0:0:0:
192,317,52589,5,12,0:2:0:0:
109,261,52883,1,8,0:2:0:0:
137,165,53177,2,0,L|146:64,1,100,8|10,0:2|0:2,0:0:0:0:
230,9,53766,1,14,0:2:0:0:
230,9,53913,1,2,3:2:0:0:
313,63,54207,2,0,L|321:162,1,100,2|2,3:2|3:2,0:0:0:0:
391,242,54795,1,2,3:2:0:0:
391,242,54942,6,0,P|440:254|489:236,1,100,12|8,3:2|3:2,0:2:0:0:
510,194,55383,2,0,P|495:145|455:112,1,100,8|8,3:2|3:2,0:2:0:0:
410,102,55825,1,8,3:2:0:0:
318,141,56119,1,12,3:2:0:0:
412,316,56707,6,0,L|336:304,1,75,2|2,3:2|0:0,0:0:0:0:
264,328,57148,6,0,B|143:295|168:408|23:368,1,250,6|2,3:2|0:2,0:2:0:0:
0,220,58325,2,0,P|13:118|155:114,1,250,6|2,3:2|0:2,0:2:0:0:
252,204,59501,6,0,B|327:255|327:255|490:203,1,250,6|0,3:2|0:2,0:2:0:0:
508,60,60677,2,0,B|414:72|414:72|362:48|362:48|256:58,1,250,6|2,3:2|3:2,0:2:0:0:
128,124,61854,6,0,P|97:172|136:266,1,150,6|2,3:2|3:2,0:2:0:0:
204,311,62589,2,0,L|307:320,1,100,10|2,0:2|0:2,0:0:0:0:
352,309,63030,2,0,P|383:261|344:167,1,150,2|2,3:2|3:2,0:2:0:0:
270,129,63766,1,10,0:2:0:0:
270,129,63913,1,2,0:2:0:0:
196,197,64207,6,0,L|93:206,1,100,2|10,3:2|0:2,0:2:0:0:
15,147,64795,2,0,P|1:91|26:47,1,100,2|2,3:2|3:2,0:0:0:0:
68,33,65236,1,8,0:2:0:0:
68,33,65383,2,0,L|171:42,1,100,6|0,3:2|3:2,0:2:0:0:
206,74,65825,1,8,0:2:0:0:
292,125,66119,1,10,3:2:0:0:
370,64,66413,1,8,3:2:0:0:
370,64,66560,6,0,P|426:55|474:82,1,100,6|0,3:2|3:2,0:2:0:0:
483,119,67001,2,0,L|488:221,1,100,10|2,0:2|3:2,0:2:0:0:
456,258,67442,1,2,3:2:0:0:
378,319,67736,2,0,P|322:328|274:301,1,100,2|0,3:2|3:2,0:2:0:0:
265,264,68177,2,0,L|260:162,1,100,10|2,0:2|3:2,0:2:0:0:
228,126,68618,1,2,3:2:0:0:
158,54,68913,5,2,3:2:0:0:
58,57,69207,1,2,3:2:0:0:
7,144,69501,2,0,L|2:247,1,100,2|2,0:2|3:2,0:2:0:0:
27,289,69942,1,8,0:2:0:0:
27,289,70089,2,0,P|79:305|141:282,1,100,2|2,3:2|3:2,0:2:0:0:
154,257,70530,1,8,0:2:0:0:
225,187,70825,2,0,L|221:126,2,50,2|2|10,3:2|3:2|0:2,0:0:0:0:
253,229,71266,5,6,3:2:0:0:
262,329,71560,1,2,3:2:0:0:
353,369,71854,2,0,P|408:374|456:339,1,100,2|2,0:2|3:2,0:2:0:0:
479,310,72295,1,8,0:2:0:0:
479,310,72442,1,2,3:2:0:0:
496,212,72736,1,2,3:2:0:0:
421,146,73030,2,0,P|373:135|309:164,1,100,2|2,0:2|3:2,0:2:0:0:
289,186,73472,2,0,L|286:236,1,50,8|2,0:2|3:2,0:0:0:0:
260,279,73766,5,12,0:2:0:0:
170,323,74060,1,8,0:2:0:0:
82,275,74354,2,0,L|77:169,1,100,8|10,0:2|0:2,0:0:0:0:
96,73,74942,1,14,0:2:0:0:
96,73,75089,1,2,3:2:0:0:
187,113,75383,2,0,P|243:120|290:94,1,100,2|2,3:2|3:2,0:0:0:0:
360,33,75972,1,2,3:2:0:0:
360,33,76119,6,0,P|405:14|454:23,1,100,12|0,3:2|3:2,0:2:0:0:
485,61,76560,2,0,P|478:110|447:149,1,100,8|8,3:2|3:2,0:2:0:0:
401,168,77001,1,8,3:2:0:0:
304,142,77295,1,14,3:2:0:0:
40,68,78325,6,0,L|48:170,1,100,6|0,3:2|3:2,0:2:0:0:
71,211,78766,2,0,P|120:204|170:230,1,100,10|2,0:2|3:2,0:2:0:0:
203,254,79207,1,2,3:2:0:0:
268,329,79501,2,0,L|370:321,1,100,2|0,3:2|3:2,0:2:0:0:
400,283,79942,2,0,L|392:181,1,100,10|2,0:2|3:2,0:2:0:0:
408,137,80383,1,2,3:2:0:0:
323,84,80677,6,0,P|276:98|244:138,1,100,2|0,3:2|3:2,0:2:0:0:
245,187,81119,2,0,P|213:226|166:240,1,100,10|2,0:2|3:2,0:2:0:0:
117,234,81560,1,2,3:2:0:0:
37,174,81854,2,0,L|29:73,1,100,0|2,3:2|3:2,0:2:0:0:
60,36,82295,1,10,0:2:0:0:
148,83,82589,2,0,L|145:138,2,50,2|2|8,3:2|3:2|0:2,0:0:0:0:
179,45,83030,6,0,P|238:36|288:54,1,100,6|2,3:2|3:2,0:2:0:0:
307,87,83472,2,0,P|316:146|298:196,1,100,10|2,0:2|3:2,0:2:0:0:
282,229,83913,1,2,3:2:0:0:
322,321,84207,2,0,P|364:353|417:353,1,100,2|0,3:2|3:2,0:0:0:0:
451,319,84648,1,10,0:2:0:0:
451,319,84795,2,0,P|457:267|431:221,1,100,2|2,0:2|3:2,0:2:0:0:
339,200,85383,6,0,L|234:209,1,100,4|0,3:2|3:2,0:0:0:0:
189,208,85825,2,0,P|159:176|157:111,1,100,10|2,0:2|3:2,0:2:0:0:
151,73,86266,1,2,3:2:0:0:
239,24,86560,2,0,P|280:26|324:75,1,100,2|2,3:2|3:2,0:2:0:0:
323,116,87001,1,10,0:2:0:0:
371,204,87295,2,0,P|421:222|472:203,1,100,2|10,3:2|0:2,0:0:0:0:
494,162,87736,1,2,3:2:0:0:
494,162,87883,6,0,L|487:55,1,100,14|0,0:2|3:2,0:0:0:0:
449,30,88325,2,0,P|399:18|336:46,1,100,14|0,0:2|3:2,0:0:0:0:
323,73,88766,1,14,0:2:0:0:
228,41,89060,1,14,0:2:0:0:
