osu file format v14

[General]
AudioFilename: audio.mp3
AudioLeadIn: 0
PreviewTime: 35383
Countdown: 0
SampleSet: Soft
StackLeniency: 0.7
Mode: 0
LetterboxInBreaks: 0
WidescreenStoryboard: 1

[Editor]
DistanceSpacing: 1.7
BeatDivisor: 4
GridSize: 4
TimelineZoom: 1.9

[Metadata]
Title:Imagination (TV Size)
TitleUnicode:イマジネーション (TV Size)
Artist:SPYAIR
ArtistUnicode:SPYAIR
Creator:browiec
Version:Insane
Source:ハイキュー!!
Tags:Haikyu!! Haikyuu!! volleyball opening op 1 anime japanese j-rock jrock rock male vocals
BeatmapID:2444151
BeatmapSetID:1171789

[Difficulty]
HPDrainRate:5
CircleSize:3.8
OverallDifficulty:8.4
ApproachRate:9
SliderMultiplier:1.63
SliderTickRate:1

[Events]
//Background and Video events
0,0,"stixy is spamming me.jpg",0,0
//Break Periods
//Storyboard Layer 0 (Background)
//Storyboard Layer 1 (Fail)
//Storyboard Layer 2 (Pass)
//Storyboard Layer 3 (Foreground)
//Storyboard Layer 4 (Overlay)
//Storyboard Sound Samples

[TimingPoints]
825,294.117647058824,4,2,1,30,1,0
4795,-100,4,2,1,5,0,0
4942,-166.666666666667,4,2,1,50,0,0
5530,-133.333333333333,4,2,1,50,0,0
13766,-117.647058823529,4,2,1,65,0,0
24354,-133.333333333333,4,2,1,60,0,0
33766,-222.222222222222,4,2,1,60,0,0
35972,-111.111111111111,4,2,1,70,0,0
56707,-133.333333333333,4,2,1,50,0,0
57148,-181.818181818182,4,2,1,55,0,0
61854,-133.333333333333,4,2,1,60,0,0
65383,-117.647058823529,4,2,1,60,0,0
66560,-111.111111111111,4,2,1,70,0,0
77883,-166.666666666667,4,2,1,50,0,0
78325,-117.647058823529,4,2,1,65,0,0
89354,-117.647058823529,4,2,1,30,0,0

[Colours]
Combo1 : 223,223,223
Combo2 : 206,0,0
Combo3 : 92,92,92
Combo4 : 240,240,0

[HitObjects]
256,192,825,12,0,4795,0:2:0:0:
180,340,4942,6,0,L|192:236,1,97.799997015381,2|2,0:2|0:2,0:2:0:0:
48,144,5530,6,0,P|92:164|164:128,1,122.250004663468,6|2,3:2|0:2,0:2:0:0:
216,60,5972,2,0,P|260:40|332:76,1,122.250004663468,2|2,0:2|0:2,0:2:0:0:
444,168,6560,2,0,B|344:152|376:220|268:204,1,183.375006995201,2|0,0:2|0:2,0:2:0:0:
156,24,7295,6,0,L|144:156,1,122.250004663468,2|2,0:2|0:2,0:2:0:0:
24,272,7883,6,0,B|84:288|84:288|152:268,1,122.250004663468,6|2,3:2|0:2,0:2:0:0:
224,216,8325,2,0,B|284:200|284:200|352:220,1,122.250004663468,2|2,0:2|0:2,0:2:0:0:
436,352,8913,2,0,L|448:168,1,183.375006995201,2|0,0:2|0:2,0:2:0:0:
352,12,9648,6,0,P|328:48|232:60,1,122.250004663468,2|2,0:2|0:2,0:2:0:0:
140,260,10236,6,0,B|132:184|132:184|144:144|144:144|132:72,2,183.375006995201,6|2|2,3:2|0:2|0:2,0:2:0:0:
312,352,11413,6,0,P|360:360|436:256,2,183.375006995201,6|2|2,3:2|0:2|0:2,0:2:0:0:
232,296,12442,1,2,0:2:0:0:
320,220,12589,6,0,L|332:72,1,122.250004663468,6|2,3:2|0:2,0:2:0:0:
396,24,13030,2,0,P|444:24|480:100,2,122.250004663468,2|2|2,0:2|0:2|0:2,0:2:0:0:
260,120,13766,5,12,0:2:0:0:
388,108,13913,1,0,3:2:0:0:
256,28,14060,2,0,L|248:108,1,69.2750013213158,12|0,0:2|0:2,0:2:0:0:
148,184,14354,2,0,L|140:104,1,69.2750013213158,2|0,3:2|3:2,0:0:0:0:
76,240,14648,2,0,P|112:272|188:272,1,103.912501981974,10|0,0:2|0:2,0:2:0:0:
248,256,14942,6,0,L|240:344,1,69.2750013213158,6|0,3:2|0:2,0:2:0:0:
359,377,15236,1,10,0:2:0:0:
359,377,15383,2,0,L|351:289,1,69.2750013213158,2|0,0:2|0:2,0:2:0:0:
440,228,15677,2,0,P|400:228|356:204,1,69.2750013213158,2|8,0:2|0:2,0:2:0:0:
400,80,15972,6,0,B|448:60|448:60|416:156,1,138.550002642632,2|0,0:2|0:2,0:2:0:0:
264,144,16413,2,0,L|348:136,1,69.2750013213158,8|0,0:2|0:2,0:0:0:0:
256,52,16707,2,0,L|172:44,1,69.2750013213158,2|0,0:2|0:2,0:2:0:0:
96,140,17001,2,0,L|180:132,1,69.2750013213158,10|0,0:2|0:2,0:2:0:0:
20,88,17295,6,0,P|4:136|48:216,1,138.550002642632,2|10,3:2|0:2,0:2:0:0:
104,304,17736,2,0,P|112:264|128:236,1,69.2750013213158,2|0,0:2|0:2,0:2:0:0:
264,288,18030,2,0,P|225:301|193:301,1,69.2750013213158,2|8,0:2|0:2,0:2:0:0:
192,168,18325,6,0,B|272:152|252:204|340:192,1,138.550002642632,2|0,0:2|0:2,0:2:0:0:
324,40,18766,2,0,L|312:120,1,69.2750013213158,8|0,0:2|0:2,0:0:0:0:
404,144,19060,2,0,L|416:224,1,69.2750013213158,2|0,0:2|0:2,0:2:0:0:
504,240,19354,2,0,L|492:320,1,69.2750013213158,10|0,0:2|0:2,0:2:0:0:
336,364,19648,6,0,B|328:304|328:304|336:276|336:276|328:212,1,138.550002642632,2|8,3:2|0:2,0:2:0:0:
296,136,20089,2,0,P|240:116|176:164,1,138.550002642632,2|0,0:2|0:2,0:2:0:0:
156,244,20530,1,10,0:2:0:0:
156,244,20677,1,2,0:2:0:0:
48,120,20825,6,0,L|60:272,1,138.550002642632,2|8,3:2|0:2,0:2:0:0:
56,352,21266,2,0,B|112:328|112:328|196:356,1,138.550002642632,2|0,0:2|0:2,0:2:0:0:
276,376,21707,2,0,L|268:296,1,69.2750013213158,10|2,0:2|0:2,0:0:0:0:
200,200,22001,6,0,B|280:180|264:240|344:216,1,138.550002642632,2|8,3:2|0:2,0:2:0:0:
420,152,22442,2,0,P|380:144|336:44,1,138.550002642632,2|0,0:2|0:2,0:2:0:0:
232,4,22883,2,0,P|244:48|240:88,1,69.2750013213158,10|0,0:2|0:2,0:2:0:0:
144,148,23177,6,0,L|224:156,1,69.2750013213158,2|0,3:2|0:2,0:2:0:0:
328,228,23472,2,0,L|248:236,1,69.2750013213158,10|0,0:2|0:2,0:2:0:0:
204,384,23766,1,2,0:2:0:0:
160,244,23913,1,8,0:2:0:0:
284,328,24060,1,10,0:2:0:0:
128,328,24207,1,8,0:2:0:0:
259,234,24354,6,0,B|303:214|303:214|395:242,1,122.250004663468,4|0,3:2|0:2,0:2:0:0:
463,280,24795,2,0,L|455:144,1,122.250004663468,0|0,3:2|0:2,0:2:0:0:
441,64,25236,2,0,P|405:60|365:72,1,61.1250023317338,10|0,0:2|0:2,0:2:0:0:
288,40,25530,5,2,0:2:0:0:
288,40,25677,2,0,L|300:116,1,61.1250023317338,2|0,0:2|3:2,0:2:0:0:
192,44,25972,1,2,0:2:0:0:
192,44,26119,2,0,L|204:120,1,61.1250023317338,10|0,0:2|0:2,0:2:0:0:
252,192,26413,1,2,0:2:0:0:
252,192,26560,1,2,0:2:0:0:
188,272,26707,6,0,B|125:261|137:309|49:293,1,122.250004663468,0|2,3:2|0:2,0:2:0:0:
8,224,27148,1,0,3:2:0:0:
8,224,27295,2,0,P|0:180|4:156,1,61.1250023317338,2|0,0:2|0:2,0:2:0:0:
56,96,27589,2,0,P|100:88|124:92,1,61.1250023317338,10|0,0:2|0:2,0:2:0:0:
200,160,27883,6,0,L|208:20,2,122.250004663468,2|2|10,0:2|3:2|0:2,0:2:0:0:
144,232,28619,2,0,P|204:252|268:224,1,122.250004663468,0|0,3:2|0:2,0:2:0:0:
300,112,29060,6,0,B|368:100|356:140|428:128,1,122.250004663468,4|0,3:2|0:2,0:2:0:0:
504,192,29501,2,0,P|464:204|440:280,1,122.250004663468,0|0,3:2|0:2,0:2:0:0:
472,356,29942,2,0,P|440:364|392:356,1,61.1250023317338,10|0,0:2|0:2,0:2:0:0:
324,376,30236,5,2,0:2:0:0:
324,376,30383,2,0,L|336:300,1,61.1250023317338,2|0,0:2|3:2,0:2:0:0:
228,372,30678,1,2,0:2:0:0:
228,372,30825,2,0,L|240:296,1,61.1250023317338,10|0,0:2|0:2,0:2:0:0:
288,224,31119,1,2,0:2:0:0:
288,224,31266,1,2,0:2:0:0:
224,136,31413,6,0,P|188:128|152:136,1,61.1250023317338,0|0,3:2|0:2,0:2:0:0:
152,264,31707,2,0,P|176:236|188:201,1,61.1250023317338,2|0,0:2|3:2,0:2:0:0:
77,137,32001,2,0,P|88:172|113:199,1,61.1250023317338,2|0,0:2|0:2,0:2:0:0:
240,120,32295,2,0,B|312:100|300:152|372:132,1,122.250004663468,14|0,0:2|0:2,0:2:0:0:
444,72,32736,5,0,3:2:0:0:
444,72,32883,2,0,L|452:152,1,61.1250023317338,0|0,3:2|3:2,0:0:0:0:
412,284,33177,1,0,3:2:0:0:
352,128,33325,1,0,3:2:0:0:
316,292,33472,1,0,3:2:0:0:
476,220,33619,1,0,3:2:0:0:
272,192,33766,6,0,B|200:134|125:192|125:192|139:246|190:263,1,256.724992165375,6|0,3:2|0:2,0:2:0:0:
400,240,34942,5,10,3:2:0:0:
280,368,35089,1,10,3:2:0:0:
272,192,35236,1,10,3:2:0:0:
120,56,35972,6,0,L|132:208,1,146.699995523071,6|0,3:2|3:2,0:2:0:0:
8,304,36413,2,0,P|48:296|96:312,1,73.3499977615357,10|0,0:2|0:2,0:2:0:0:
200,364,36707,1,2,3:2:0:0:
200,364,36854,2,0,P|240:372|288:356,1,73.3499977615357,2|8,3:2|0:2,0:0:0:0:
408,260,37148,6,0,P|356:272|288:192,1,146.699995523071,2|0,3:2|3:2,0:2:0:0:
364,88,37589,2,0,L|356:172,1,73.3499977615357,10|0,0:2|0:2,0:2:0:0:
496,60,37883,1,2,3:2:0:0:
496,60,38030,1,2,3:2:0:0:
480,208,38177,1,8,0:2:0:0:
392,0,38325,6,0,P|348:-4|304:16,1,73.3499977615357,2|0,3:2|0:2,0:2:0:0:
228,160,38619,2,0,P|253:123|258:75,1,73.3499977615357,2|8,3:2|0:2,0:2:0:0:
84,100,38913,2,0,P|102:140|141:168,1,73.3499977615357,2|0,0:2|3:2,0:2:0:0:
248,272,39207,1,2,3:2:0:0:
212,136,39354,1,8,0:2:0:0:
52,228,39501,6,0,P|20:252|64:360,1,146.699995523071,2|2,3:2|3:2,0:2:0:0:
172,384,39942,2,0,P|168:344|176:308,1,73.3499977615357,8|0,0:2|0:2,0:2:0:0:
320,184,40236,1,2,3:2:0:0:
320,184,40383,1,2,3:2:0:0:
164,208,40530,1,8,0:2:0:0:
348,280,40677,6,0,B|400:272|400:272|440:284|440:284|496:276,1,146.699995523071,6|0,3:2|3:2,0:2:0:0:
460,112,41119,2,0,L|452:200,1,73.3499977615357,10|0,0:2|0:2,0:2:0:0:
328,84,41413,1,2,3:2:0:0:
328,84,41560,2,0,L|320:-4,1,73.3499977615357,2|8,3:2|0:2,0:0:0:0:
172,148,41854,6,0,P|232:160|264:240,1,146.699995523071,2|0,3:2|3:2,0:2:0:0:
355,320,42295,2,0,P|307:312|275:328,1,73.3499977615357,10|0,0:2|0:2,0:2:0:0:
132,371,42589,1,2,3:2:0:0:
132,371,42736,1,2,3:2:0:0:
208,225,42883,1,8,0:2:0:0:
0,288,43030,6,0,L|76:300,1,73.3499977615357,2|0,3:2|0:2,0:2:0:0:
228,204,43325,2,0,L|152:216,1,73.3499977615357,2|8,3:2|0:2,0:2:0:0:
8,108,43619,2,0,L|84:120,1,73.3499977615357,2|0,0:2|3:2,0:0:0:0:
219,52,43913,1,2,3:2:0:0:
130,206,44060,1,8,0:2:0:0:
288,120,44207,6,0,B|384:96|384:96|448:124,1,146.699995523071,2|0,3:2|3:2,0:2:0:0:
512,228,44648,2,0,L|428:236,1,73.3499977615357,8|0,0:2|3:2,0:0:0:0:
268,288,44942,1,10,0:2:0:0:
432,364,45089,1,2,3:2:0:0:
368,184,45236,1,8,0:2:0:0:
288,380,45383,6,0,P|237:378|177:284,1,146.699995523071,6|0,3:2|3:2,0:2:0:0:
48,312,45825,2,0,P|64:268|60:228,1,73.3499977615357,10|0,0:2|0:2,0:2:0:0:
16,108,46119,1,2,3:2:0:0:
16,108,46266,2,0,P|60:124|100:120,1,73.3499977615357,2|8,3:2|0:2,0:0:0:0:
220,16,46560,6,0,B|260:52|260:52|228:160,1,146.699995523071,2|0,3:2|3:2,0:2:0:0:
103,220,47001,2,0,L|111:300,1,73.3499977615357,10|0,0:2|0:2,0:2:0:0:
282,357,47295,1,2,3:2:0:0:
282,357,47442,1,2,3:2:0:0:
136,300,47589,1,8,0:2:0:0:
277,186,47736,6,0,P|305:226|305:278,1,73.3499977615357,2|0,3:2|0:2,0:2:0:0:
247,91,48030,2,0,P|295:86|340:112,1,73.3499977615357,2|8,3:2|0:2,0:2:0:0:
471,155,48325,2,0,P|435:145|400:151,1,73.3499977615357,2|0,0:2|3:2,0:2:0:0:
296,244,48619,1,2,3:2:0:0:
332,88,48766,1,8,0:2:0:0:
184,168,48913,6,0,B|108:156|136:216|44:204,1,146.699995523071,2|2,3:2|3:2,0:2:0:0:
31,43,49354,2,0,P|63:67|83:107,1,73.3499977615357,8|0,0:2|0:2,0:2:0:0:
72,296,49648,1,2,3:2:0:0:
0,132,49795,1,2,3:2:0:0:
56,320,49942,1,10,0:2:0:0:
164,152,50089,6,0,B|228:144|228:144|260:156|260:156|320:148,1,146.699995523071,6|2,3:2|3:2,0:2:0:0:
436,80,50530,1,8,0:2:0:0:
436,80,50677,2,0,L|428:172,1,73.3499977615357,2|0,0:2|3:2,0:2:0:0:
324,252,50972,2,0,L|332:344,1,73.3499977615357,2|8,3:2|0:2,0:0:0:0:
152,384,51266,6,0,P|136:336|212:256,1,146.699995523071,2|2,3:2|3:2,0:2:0:0:
288,168,51707,1,8,0:2:0:0:
288,168,51854,2,0,P|236:168|216:156,1,73.3499977615357,2|0,0:2|3:2,0:2:0:0:
248,8,52148,2,0,P|274:53|273:76,1,73.3499977615357,2|8,3:2|0:2,0:0:0:0:
160,224,52442,1,2,3:2:0:0:
96,8,52589,6,0,L|108:84,1,73.3499977615357,12|0,0:2|3:2,0:0:0:0:
16,248,52883,2,0,L|28:172,1,73.3499977615357,8|0,0:2|3:2,0:0:0:0:
208,248,53177,1,8,0:2:0:0:
0,272,53325,1,0,3:2:0:0:
160,156,53472,2,0,P|200:144|248:152,1,73.3499977615357,10|0,0:2|3:2,0:0:0:0:
296,288,53766,5,14,0:2:0:0:
341,107,53913,2,0,L|333:199,1,73.3499977615357,2|8,3:2|0:2,0:0:0:0:
488,276,54207,2,0,P|432:272|400:288,1,73.3499977615357,2|8,3:2|0:2,0:0:0:0:
264,376,54501,2,0,P|320:380|352:364,1,73.3499977615357,2|8,3:2|0:2,0:0:0:0:
252,196,54795,1,2,3:2:0:0:
144,340,54942,6,0,B|72:320|84:376|0:360,1,146.699995523071,12|8,3:2|3:2,0:2:0:0:
0,180,55383,2,0,P|48:164|124:220,1,146.699995523071,8|8,3:2|3:2,0:2:0:0:
168,352,55825,2,0,P|168:312|188:272,1,73.3499977615357,8|0,3:2|0:2,0:2:0:0:
280,192,56119,5,12,3:2:0:0:
124,84,56707,6,0,L|224:92,1,91.6875034976007,2|2,3:2|0:0,0:0:0:0:
300,220,57148,6,0,P|384:236|460:124,1,224.125006839752,6|2,3:2|0:2,0:2:0:0:
256,128,58325,6,0,B|188:172|188:172|232:316,1,224.125006839752,6|2,3:2|0:2,0:2:0:0:
400,360,59501,6,0,B|412:276|412:276|400:224|400:224|416:136,1,224.125006839752,6|0,3:2|0:2,0:2:0:0:
272,28,60677,6,0,P|236:68|116:52,1,179.300005471802,6|0,3:2|3:2,0:2:0:0:
24,16,61413,1,2,3:2:0:0:
24,16,61560,2,0,P|32:48|36:72,1,44.8250013679505,2|0,3:2|3:2,0:0:0:0:
0,184,61854,6,0,P|60:144|128:168,1,122.250004663468,6|0,3:2|0:2,0:2:0:0:
184,204,62295,2,0,L|176:276,1,61.1250023317338,2|0,3:2|0:2,0:2:0:0:
120,336,62589,2,0,P|92:328|56:328,2,61.1250023317338,10|2|2,0:2|0:2|0:2,0:0:0:0:
228,360,63030,6,0,B|300:340|288:384|356:368,1,122.250004663468,2|0,3:2|0:2,0:2:0:0:
408,300,63472,2,0,P|388:264|384:220,1,61.1250023317338,2|0,3:2|0:2,0:2:0:0:
424,160,63766,1,10,0:2:0:0:
424,160,63913,2,0,P|444:124|448:80,1,61.1250023317338,2|0,0:2|0:2,0:2:0:0:
352,24,64207,6,0,L|360:100,1,61.1250023317338,2|0,3:2|0:2,0:2:0:0:
260,32,64501,2,0,L|268:108,1,61.1250023317338,10|0,0:2|0:2,0:2:0:0:
168,156,64795,2,0,L|176:80,1,61.1250023317338,2|8,3:2|0:2,0:0:0:0:
248,212,65089,1,2,3:2:0:0:
248,212,65236,1,8,0:2:0:0:
336,152,65383,6,0,P|376:140|452:192,1,138.550002642632,6|0,3:2|3:2,0:2:0:0:
496,296,65825,2,0,L|424:288,1,69.2750013213158,8|0,0:2|3:2,0:0:0:0:
328,348,66119,1,10,3:2:0:0:
328,348,66192,1,8,3:2:0:0:
328,348,66266,2,0,L|324:304,2,34.6375006606579,10|8|8,3:2|3:2|3:2,0:2:0:0:
164,340,66560,6,0,B|200:296|200:296|172:196,1,146.699995523071,6|0,3:2|3:2,0:2:0:0:
8,264,67001,2,0,L|84:276,1,73.3499977615357,10|0,0:2|0:2,0:2:0:0:
140,120,67295,1,2,3:2:0:0:
140,120,67442,2,0,L|64:132,1,73.3499977615357,2|8,3:2|0:2,0:0:0:0:
176,28,67736,6,0,P|216:56|228:168,1,146.699995523071,2|0,3:2|3:2,0:2:0:0:
172,276,68177,2,0,P|220:260|256:264,1,73.3499977615357,10|0,0:2|0:2,0:2:0:0:
393,230,68472,1,2,3:2:0:0:
393,230,68619,1,2,3:2:0:0:
236,147,68766,1,8,0:2:0:0:
420,64,68913,6,0,L|412:148,1,73.3499977615357,2|0,3:2|0:2,0:2:0:0:
508,276,69207,2,0,L|500:192,1,73.3499977615357,2|8,3:2|0:2,0:2:0:0:
404,48,69501,2,0,L|396:132,1,73.3499977615357,2|0,0:2|3:2,0:2:0:0:
256,208,69795,1,2,3:2:0:0:
408,256,69942,1,8,0:2:0:0:
248,120,70089,6,0,B|168:96|188:156|92:132,1,146.699995523071,2|2,3:2|3:2,0:2:0:0:
0,236,70530,2,0,P|52:232|100:256,1,73.3499977615357,8|0,0:2|0:2,0:2:0:0:
140,384,70825,1,2,3:2:0:0:
192,216,70972,1,2,3:2:0:0:
32,324,71119,1,10,0:2:0:0:
240,308,71266,6,0,B|292:284|292:284|396:308,1,146.699995523071,6|2,3:2|3:2,0:2:0:0:
496,376,71707,1,8,0:2:0:0:
496,376,71854,2,0,L|488:288,1,73.3499977615357,2|0,0:2|3:2,0:2:0:0:
432,136,72148,2,0,L|424:224,1,73.3499977615357,2|8,3:2|0:2,0:0:0:0:
300,328,72442,6,0,P|252:340|184:268,1,146.699995523071,2|2,3:2|3:2,0:2:0:0:
88,176,72883,1,8,0:2:0:0:
88,176,73030,2,0,P|144:180|172:172,1,73.3499977615357,2|0,0:2|3:2,0:2:0:0:
160,24,73325,2,0,P|128:70|121:98,1,73.3499977615357,2|8,3:2|0:2,0:0:0:0:
236,232,73619,1,2,3:2:0:0:
336,34,73766,6,0,L|324:110,1,73.3499977615357,12|0,0:2|3:2,0:0:0:0:
436,264,74060,2,0,L|424:188,1,73.3499977615357,8|0,0:2|3:2,0:0:0:0:
226,214,74354,1,8,0:2:0:0:
418,283,74502,1,0,3:2:0:0:
284,144,74649,2,0,P|237:120|189:128,1,73.3499977615357,10|0,0:2|3:2,0:0:0:0:
152,288,74943,5,14,0:2:0:0:
113,71,75090,2,0,L|121:163,1,73.3499977615357,2|8,3:2|0:2,0:0:0:0:
0,248,75384,2,0,P|56:244|88:260,1,73.3499977615357,2|8,3:2|0:2,0:0:0:0:
204,368,75678,2,0,P|149:381|115:371,1,73.3499977615357,2|8,3:2|0:2,0:0:0:0:
195,187,75972,1,2,3:2:0:0:
320,340,76119,6,0,P|364:360|460:324,1,146.699995523071,12|0,3:2|3:2,0:2:0:0:
472,188,76560,2,0,B|392:168|412:228|316:208,1,146.699995523071,8|8,3:2|3:2,0:2:0:0:
300,76,77001,2,0,P|344:104|356:144,1,73.3499977615357,8|0,3:2|0:2,0:2:0:0:
312,224,77295,5,14,3:2:0:0:
296,244,77883,2,0,B|320:276|320:276|296:348,1,97.799997015381,2|0,0:2|0:2,0:2:0:0:
208,376,78325,6,0,L|196:216,1,138.550002642632,6|0,3:2|3:2,0:2:0:0:
96,148,78766,2,0,L|172:136,1,69.2750013213158,10|0,0:2|0:2,0:2:0:0:
240,48,79060,1,2,3:2:0:0:
240,48,79207,2,0,L|316:60,1,69.2750013213158,2|8,3:2|0:2,0:0:0:0:
400,36,79501,6,0,P|368:52|352:152,1,138.550002642632,2|0,3:2|3:2,0:2:0:0:
440,232,79942,2,0,P|396:248|368:284,1,69.2750013213158,10|0,0:2|0:2,0:2:0:0:
268,296,80236,1,2,3:2:0:0:
268,296,80383,2,0,P|276:249|258:207,1,69.2750013213158,2|8,3:2|0:2,0:0:0:0:
200,112,80677,6,0,B|128:96|144:152|48:136,1,138.550002642632,2|0,3:2|3:2,0:2:0:0:
0,232,81119,2,0,P|44:236|84:268,1,69.2750013213158,10|0,0:2|0:2,0:2:0:0:
136,344,81413,1,2,3:2:0:0:
136,344,81560,2,0,P|180:340|220:308,1,69.2750013213158,2|8,3:2|0:2,0:0:0:0:
264,200,81854,6,0,P|308:192|368:272,1,138.550002642632,0|2,3:2|3:2,0:2:0:0:
456,352,82295,2,0,L|464:276,1,69.2750013213158,10|0,0:2|0:2,0:0:0:0:
500,176,82589,1,2,3:2:0:0:
500,176,82736,2,0,L|492:100,1,69.2750013213158,2|8,3:2|0:2,0:0:0:0:
380,32,83030,6,0,B|324:24|324:24|296:36|296:36|228:28,1,138.550002642632,6|2,3:2|3:2,0:2:0:0:
152,132,83472,2,0,L|224:124,1,69.2750013213158,10|0,0:2|0:2,0:2:0:0:
312,228,83766,1,2,3:2:0:0:
312,228,83913,2,0,L|240:220,1,69.2750013213158,2|8,3:2|0:2,0:2:0:0:
132,292,84207,5,2,3:2:0:0:
132,292,84354,2,0,P|120:332|128:372,1,69.2750013213158,2|0,0:2|3:2,0:2:0:0:
248,380,84648,1,10,0:2:0:0:
248,380,84795,2,0,P|260:340|252:300,1,69.2750013213158,2|0,0:2|3:2,0:2:0:0:
152,152,85089,1,2,3:2:0:0:
292,228,85236,1,10,0:2:0:0:
144,276,85383,1,4,3:2:0:0:
260,128,85530,6,0,L|344:136,1,69.2750013213158,2|0,0:2|3:2,0:2:0:0:
440,60,85825,2,0,L|432:144,1,69.2750013213158,10|0,0:2|0:2,0:2:0:0:
484,248,86119,1,2,3:2:0:0:
484,248,86266,2,0,P|444:236|396:252,1,69.2750013213158,2|8,3:2|0:2,0:2:0:0:
312,352,86560,6,0,B|224:368|224:368|168:340,1,138.550002642632,2|2,3:2|3:2,0:2:0:0:
68,260,87001,2,0,L|140:252,1,69.2750013213158,10|2,0:2|0:2,0:0:0:0:
280,172,87295,2,0,L|204:164,1,69.2750013213158,2|2,3:2|3:2,0:0:0:0:
120,48,87589,1,10,0:2:0:0:
120,48,87736,1,2,3:2:0:0:
304,4,87883,6,0,P|320:44|316:84,1,69.2750013213158,14|0,0:2|3:2,0:0:0:0:
264,196,88177,1,0,3:2:0:0:
432,100,88325,2,0,P|405:133|368:150,1,69.2750013213158,14|0,0:2|3:2,0:0:0:0:
248,176,88619,1,0,3:2:0:0:
432,240,88766,1,14,0:2:0:0:
244,292,88913,1,0,3:2:0:0:
442,336,89060,2,0,B|395:342|366:309|366:309|353:340|324:353,1,138.550002642632,14|0,0:2|0:0,0:2:0:0:
